osu file format v14

[General]
AudioFilename: menhera.mp3
AudioLeadIn: 0
PreviewTime: 11641
Countdown: 0
SampleSet: Soft
StackLeniency: 0.3
Mode: 0
LetterboxInBreaks: 0
WidescreenStoryboard: 1

[Editor]
Bookmarks: 57906,66581,81038,104171
DistanceSpacing: 1.2
BeatDivisor: 4
GridSize: 32
TimelineZoom: 1.9

[Metadata]
Title:Jinrui Mina Menhera
TitleUnicode:人類みなメンヘラ
Artist:Takayan
ArtistUnicode:たかやん
Creator:imaginative
Version:Narrative's Hard
Source:
Tags:narrative all human beings are friends humans japanese hip hop hip-hop j-rap jrap rap メンヘラな自分が嫌いなあなたへ To you who hate myself being depressed menhera na Menherana jibun ga kirai na kiraina anata e どんな君でも愛してる Don'na donna kimi demo aishiteru I love you in any way oceanbeats mano mano__aaa
BeatmapID:2903214
BeatmapSetID:1406904

[Difficulty]
HPDrainRate:4.5
CircleSize:3.5
OverallDifficulty:6.5
ApproachRate:7.8
SliderMultiplier:1.5
SliderTickRate:1

[Events]
//Background and Video events
0,0,"menhera.jpg",0,0
Video,0,"menhera.mp4"
//Break Periods
//Storyboard Layer 0 (Background)
//Storyboard Layer 1 (Fail)
//Storyboard Layer 2 (Pass)
//Storyboard Layer 3 (Foreground)
//Storyboard Layer 4 (Overlay)
//Storyboard Sound Samples

[TimingPoints]
75,361.44578313253,4,2,1,35,1,0
11641,-83.3333333333333,4,2,1,75,0,1
11912,-83.3333333333333,4,2,1,5,0,1
12002,-83.3333333333333,4,2,1,75,0,1
12905,-83.3333333333333,4,2,2,75,0,1
13087,-83.3333333333333,4,2,1,75,0,1
13809,-83.3333333333333,4,2,1,75,0,1
14442,-83.3333333333333,4,2,1,5,0,1
14532,-83.3333333333333,4,2,1,75,0,1
15797,-83.3333333333333,4,2,2,75,0,1
15888,-83.3333333333333,4,2,2,5,0,1
15978,-83.3333333333333,4,2,1,75,0,1
18689,-83.3333333333333,4,2,2,75,0,1
18870,-83.3333333333333,4,2,1,75,0,1
20225,-83.3333333333333,4,2,1,5,0,1
20315,-83.3333333333333,4,2,1,75,0,1
20676,-83.3333333333333,4,2,2,75,0,1
20767,-83.3333333333333,4,2,1,75,0,1
21400,-83.3333333333333,4,2,1,75,0,1
21580,-83.3333333333333,4,2,2,75,0,1
21761,-83.3333333333333,4,2,1,75,0,1
22123,-83.3333333333333,4,2,2,75,0,1
22303,-83.3333333333333,4,2,2,75,0,1
22484,-83.3333333333333,4,2,1,75,0,1
24471,-83.3333333333333,4,2,2,75,0,1
24653,-83.3333333333333,4,2,1,75,0,1
25376,-83.3333333333333,4,2,1,75,0,1
26008,-83.3333333333333,4,2,1,5,0,1
26099,-83.3333333333333,4,2,1,75,0,1
27363,-83.3333333333333,4,2,2,75,0,1
27544,-83.3333333333333,4,2,1,75,0,1
27905,-83.3333333333333,4,2,1,75,0,1
28900,-83.3333333333333,4,2,1,75,0,1
28990,-83.3333333333333,4,2,1,75,0,1
30255,-83.3333333333333,4,2,2,75,0,1
30436,-83.3333333333333,4,2,1,75,0,1
31791,-83.3333333333333,4,2,1,5,0,1
31882,-83.3333333333333,4,2,1,75,0,1
32243,-83.3333333333333,4,2,2,75,0,1
32424,-83.3333333333333,4,2,1,75,0,1
32966,-83.3333333333333,4,2,1,75,0,1
33147,-83.3333333333333,4,2,2,75,0,1
33328,-83.3333333333333,4,2,1,75,0,1
34773,-100,4,2,1,60,0,0
36038,-100,4,2,2,60,0,0
36219,-100,4,2,1,60,0,0
36400,-100,4,2,1,5,0,0
36490,-100,4,2,1,60,0,0
36942,-100,4,2,1,60,0,0
38026,-100,4,2,2,60,0,0
38207,-100,4,2,1,60,0,0
38388,-100,4,2,1,60,0,0
38929,-100,4,2,2,60,0,0
39111,-100,4,2,1,60,0,0
39291,-100,4,2,1,5,0,0
39382,-100,4,2,1,60,0,0
39834,-100,4,2,1,60,0,0
41821,-100,4,2,2,60,0,0
42002,-100,4,2,1,60,0,0
43809,-100,4,2,2,60,0,0
43990,-100,4,2,1,60,0,0
44171,-100,4,2,1,60,0,0
44713,-100,4,2,2,60,0,0
44894,-100,4,2,1,60,0,0
47604,-100,4,2,2,60,0,0
47785,-100,4,2,1,60,0,0
48147,-100,4,2,1,60,0,0
48418,-100,4,2,2,60,0,0
48508,-100,4,2,1,60,0,0
49141,-100,4,2,1,60,0,0
49231,-100,4,2,1,60,0,0
49593,-100,4,2,2,60,0,0
49773,-100,4,2,1,60,0,0
50496,-100,4,2,2,60,0,0
50677,-100,4,2,1,60,0,0
51038,-100,4,2,1,60,0,0
52032,-100,4,2,1,5,0,0
52123,-100,4,2,1,60,0,0
53388,-100,4,2,2,60,0,0
53568,-100,4,2,1,60,0,0
53930,-100,4,2,1,60,0,0
54201,-100,4,2,2,60,0,0
54291,-100,4,2,1,60,0,0
55285,-100,4,2,1,5,0,0
55376,-100,4,2,2,60,0,0
55556,-100,4,2,1,60,0,0
55737,-100,4,2,1,60,0,0
56279,-100,4,2,2,60,0,0
56460,-100,4,2,1,60,0,0
59171,-100,4,2,2,60,0,0
59261,-100,4,2,2,5,0,0
59352,-100,4,2,1,60,0,0
60707,-100,4,2,1,5,0,0
60797,-100,4,2,1,60,0,0
62062,-100,4,2,2,60,0,0
62243,-100,4,2,1,60,0,0
62966,-100,4,2,1,60,0,0
64954,-100,4,2,2,60,0,0
65044,-100,4,2,2,5,0,0
65135,-100,4,2,1,60,0,0
67845,-100,4,2,2,60,0,0
68026,-100,4,2,1,60,0,0
68749,-100,4,2,1,60,0,0
69472,-100,4,2,1,65,0,0
70736,-100,4,2,2,65,0,0
70828,-100,4,2,1,65,0,0
71279,-100,4,2,1,65,0,0
73628,-100,4,2,2,65,0,0
73719,-100,4,2,1,65,0,0
74171,-100,4,2,1,65,0,0
76520,-100,4,2,2,65,0,0
76701,-100,4,2,1,65,0,0
77062,-100,4,2,1,65,0,0
78508,-100,4,2,2,65,0,0
78689,-100,4,2,1,65,0,0
78870,-100,4,2,1,65,0,0
79412,-100,4,2,2,65,0,0
79502,-100,4,2,2,5,0,0
79593,-117.647058823529,4,2,1,65,0,0
80677,-71.4285714285714,4,2,1,65,0,0
80948,-71.4285714285714,4,2,1,5,0,0
81038,-83.3333333333333,4,2,1,75,0,1
81309,-83.3333333333333,4,2,1,5,0,1
81400,-83.3333333333333,4,2,1,75,0,1
82303,-83.3333333333333,4,2,2,75,0,1
82484,-83.3333333333333,4,2,1,75,0,1
83207,-83.3333333333333,4,2,1,75,0,1
83840,-83.3333333333333,4,2,1,5,0,1
83930,-83.3333333333333,4,2,1,75,0,1
85194,-83.3333333333333,4,2,2,75,0,1
85285,-83.3333333333333,4,2,2,5,0,1
85376,-83.3333333333333,4,2,1,75,0,1
88086,-83.3333333333333,4,2,2,75,0,1
88267,-83.3333333333333,4,2,1,75,0,1
89623,-83.3333333333333,4,2,1,5,0,1
89713,-83.3333333333333,4,2,1,75,0,1
90074,-83.3333333333333,4,2,2,75,0,1
90164,-83.3333333333333,4,2,1,75,0,1
90797,-83.3333333333333,4,2,1,75,0,1
90978,-83.3333333333333,4,2,2,75,0,1
91159,-83.3333333333333,4,2,1,75,0,1
91520,-83.3333333333333,4,2,2,75,0,1
91701,-83.3333333333333,4,2,2,75,0,1
91882,-83.3333333333333,4,2,1,75,0,1
93869,-83.3333333333333,4,2,2,75,0,1
94050,-83.3333333333333,4,2,1,75,0,1
94773,-83.3333333333333,4,2,1,75,0,1
95406,-83.3333333333333,4,2,1,5,0,1
95496,-83.3333333333333,4,2,1,75,0,1
96761,-83.3333333333333,4,2,2,75,0,1
96941,-83.3333333333333,4,2,1,75,0,1
97303,-83.3333333333333,4,2,1,75,0,1
99652,-83.3333333333333,4,2,2,75,0,1
99833,-83.3333333333333,4,2,1,75,0,1
101189,-83.3333333333333,4,2,1,5,0,1
101279,-83.3333333333333,4,2,1,75,0,1
101640,-83.3333333333333,4,2,2,75,0,1
101821,-83.3333333333333,4,2,1,75,0,1
102364,-83.3333333333333,4,2,1,75,0,1
102544,-83.3333333333333,4,2,2,75,0,1
102725,-83.3333333333333,4,2,1,75,0,1
104171,-83.3333333333333,4,2,1,35,0,0

[Colours]
Combo1 : 255,149,242
Combo2 : 194,128,255
Combo3 : 255,179,149

[HitObjects]
438,96,11641,6,0,L|291:68,1,135,6|0,3:2|0:0,0:0:0:0:
260,40,12002,2,0,L|160:56,1,90,2|0,0:2|0:0,0:0:0:0:
65,69,12364,1,10,0:2:0:0:
65,69,12544,1,2,0:2:0:0:
136,149,12725,2,0,P|142:193|127:234,1,90,2|10,0:2|0:2,0:0:0:0:
63,323,13087,2,0,P|117:279|239:324,1,180,2|0,0:2|0:0,0:0:0:0:
420,371,13809,6,0,L|436:272,1,90,10|2,0:2|0:2,0:0:0:0:
446,174,14171,2,0,L|310:195,1,135,2|0,3:2|0:0,0:0:0:0:
269,154,14532,6,0,B|310:201|310:201|281:346,1,180,2|2,3:2|0:2,0:0:0:0:
189,368,15075,1,2,0:2:0:0:
189,368,15255,2,0,P|124:364|101:338,1,90,10|2,0:2|0:2,0:0:0:0:
41,263,15617,2,0,L|69:129,1,134.999995880127,2|0,0:2|0:0,0:0:0:0:
37,87,15978,2,0,P|82:144|197:122,1,180,2|0,0:2|3:2,0:0:0:0:
367,66,16701,5,10,0:2:0:0:
441,138,16882,1,0,3:2:0:0:
347,176,17062,2,0,P|339:222|354:271,1,90,2|2,3:2|0:2,0:0:0:0:
435,314,17424,6,0,B|448:241|448:241|432:196|432:196|446:110,2,180,2|2|10,3:2|0:2|0:2,0:0:0:0:
239,349,18508,1,2,3:2:0:0:
243,150,18870,6,0,B|170:137|170:137|125:153|125:153|39:139,2,180,2|2|10,0:2|0:2|0:2,0:0:0:0:
413,48,19954,2,0,L|436:186,1,135,2|0,3:2|0:0,0:0:0:0:
473,219,20315,6,0,P|418:174|305:206,1,180,2|8,3:2|0:2,0:0:0:0:
253,282,20858,1,0,0:0:0:0:
253,282,21038,2,0,L|146:269,1,90,2|2,0:2|0:3,0:0:0:0:
56,251,21400,2,0,P|39:192|55:148,1,90,2|8,3:2|0:2,0:0:0:0:
114,82,21761,6,0,B|200:102|200:102|252:67,2,135,2|0|10,3:2|0:0|0:2,0:0:0:0:
27,17,22484,2,0,P|5:61|13:113,1,90,2|0,3:2|0:0,0:0:0:0:
89,180,22846,1,10,0:2:0:0:
89,180,23026,1,0,0:0:0:0:
24,266,23207,6,0,L|37:364,1,90,6|2,3:2|0:2,0:0:0:0:
126,295,23568,1,2,0:2:0:0:
205,368,23749,1,2,0:2:0:0:
299,314,23930,2,0,B|341:300|341:300|403:339,1,90,10|2,0:2|0:2,0:0:0:0:
474,272,24291,2,0,B|488:230|488:230|449:168,1,90,2|10,0:2|0:2,0:0:0:0:
397,104,24653,2,0,B|348:109|348:109|331:125|331:125|263:133,1,135,2|2,0:2|0:2,0:0:0:0:
62,306,25376,6,0,P|103:331|163:320,1,90,10|2,0:2|0:2,0:0:0:0:
241,283,25737,2,0,L|224:121,1,135,2|0,3:2|0:0,0:0:0:0:
244,82,26099,6,0,B|192:132|192:132|50:95,1,180,2|2,3:2|0:2,0:0:0:0:
61,4,26641,1,2,0:2:0:0:
61,4,26821,2,0,L|155:26,1,90,10|2,0:2|0:2,0:0:0:0:
244,82,27183,2,0,P|299:80|338:50,1,90,2|8,0:2|0:2,0:0:0:0:
421,8,27544,2,0,B|450:132|450:132|411:179,1,180,2|0,0:2|3:2,0:0:0:0:
279,341,28267,5,10,0:2:0:0:
279,341,28448,1,2,3:2:0:0:
201,265,28629,2,0,L|211:169,1,89.9999972534181,2|2,3:2|0:2,0:0:0:0:
223,68,28990,6,0,B|143:113|143:113|69:37,2,180,2|2|2,3:2|0:2|0:2,0:0:0:0:
132,265,30075,1,2,0:2:0:0:
326,357,30436,6,0,B|281:277|281:277|357:203,2,180,2|2|10,0:2|3:2|0:2,0:0:0:0:
445,177,31520,2,0,P|392:120|321:130,1,135,2|0,0:2|0:0,0:0:0:0:
289,142,31882,6,0,B|247:157|196:124|229:103|177:74|120:103,1,180,2|8,3:2|0:2,0:0:0:0:
51,176,32424,1,0,0:0:0:0:
51,176,32605,2,0,L|68:273,1,90,2|2,0:2|0:3,0:0:0:0:
144,340,32966,1,2,3:2:0:0:
207,252,33147,1,10,0:2:0:0:
275,335,33328,6,0,P|325:371|413:349,2,135,2|0|2,3:2|0:0|0:2,0:0:0:0:
207,252,34050,2,0,P|158:222|104:235,1,90,2|0,3:2|0:2,0:0:0:0:
46,288,34412,1,2,3:2:0:0:
46,288,34593,1,0,3:2:0:0:
15,203,34773,6,0,L|36:33,1,150,0|0,3:2|0:0,0:0:0:0:
183,153,35496,2,0,P|227:156|265:131,1,75,10|2,0:2|0:2,0:0:0:0:
306,70,35858,1,2,0:2:0:0:
306,70,36038,1,10,0:2:0:0:
372,131,36219,2,0,L|351:228,1,75,2|0,0:2|0:0,0:0:0:0:
322,234,36490,2,0,L|348:365,1,112.5,2|0,0:2|0:0,0:0:0:0:
259,377,36942,5,10,0:2:0:0:
259,377,37123,1,2,0:2:0:0:
205,305,37303,2,0,P|168:288|111:295,1,75,2|2,3:2|0:2,0:0:0:0:
78,359,37665,6,0,B|111:330|111:330|88:197,1,150,2|10,3:2|0:2,0:0:0:0:
25,174,38207,1,0,3:2:0:0:
25,174,38388,2,0,P|65:147|115:146,1,75,10|2,0:2|0:2,0:0:0:0:
161,87,38749,2,0,P|199:116|215:163,1,75,2|10,3:2|0:2,0:0:0:0:
296,168,39111,6,0,P|280:213|240:242,1,75,2|0,0:2|0:0,0:0:0:0:
232,266,39382,2,0,P|286:253|342:303,1,112.5,2|0,0:2|0:0,0:0:0:0:
401,224,39834,2,0,L|411:133,1,75,10|0,0:2|3:2,0:0:0:0:
478,91,40195,1,2,0:2:0:0:
428,16,40376,1,2,3:2:0:0:
362,77,40556,6,0,L|271:67,1,75,2|2,3:2|0:2,0:0:0:0:
216,125,40918,1,2,0:2:0:0:
216,125,41099,1,2,3:2:0:0:
147,66,41279,2,0,P|112:52|75:56,1,75,8|2,0:2|0:2,0:0:0:0:
17,126,41641,2,0,P|3:160|7:197,1,75,2|8,0:2|0:2,0:0:0:0:
53,273,42002,6,0,B|75:259|85:236|85:236|122:264|182:264,1,150,2|2,0:2|3:2,0:0:0:0:
254,216,42544,1,2,0:2:0:0:
254,216,42725,2,0,P|301:271|276:357,1,150,10|2,0:2|0:2,0:0:0:0:
108,357,43448,6,0,B|116:320|116:320|104:284,1,75,2|2,3:2|0:2,0:0:0:0:
25,241,43809,2,0,B|17:204|17:204|28:168,1,75,10|2,0:2|0:2,0:0:0:0:
62,87,44171,1,8,0:2:0:0:
62,87,44352,1,2,0:2:0:0:
135,136,44532,2,0,P|173:139|208:127,1,75,2|8,3:2|0:2,0:0:0:0:
273,54,44894,6,0,B|336:63|336:63|358:83|358:83|426:94,1,150,2|2,0:2|3:2,0:0:0:0:
501,47,45436,1,2,0:2:0:0:
486,143,45617,2,0,L|460:309,1,150,2|2,3:2|3:2,0:0:0:0:
382,347,46159,1,0,0:0:0:0:
382,347,46340,1,4,3:2:0:0:
316,274,46520,6,0,L|234:285,1,75,2|0,0:2|0:0,0:0:0:0:
173,343,46882,1,2,3:2:0:0:
158,254,47062,2,0,L|148:179,1,75,8|2,0:2|0:2,0:0:0:0:
103,100,47424,2,0,B|136:84|136:84|186:97,1,75,2|10,0:2|0:2,0:0:0:0:
216,105,47695,2,0,B|272:117|272:117|321:86,1,112.5,0|2,0:0|0:2,0:0:0:0:
395,40,48147,6,0,P|416:81|407:118,1,75,2|2,3:2|0:2,0:0:0:0:
394,150,48418,1,8,0:2:0:0:
394,150,48508,2,0,L|406:255,1,75,10|2,0:2|0:2,0:0:0:0:
467,287,48870,2,0,P|409:268|337:341,1,150,2|0,3:2|3:2,0:0:0:0:
270,372,49412,6,0,L|189:365,1,75,2|8,0:2|0:2,0:0:0:0:
105,353,49773,1,2,3:2:0:0:
58,281,49954,1,8,0:2:0:0:
58,281,50135,2,0,P|49:233|70:189,1,75,2|0,0:2|3:2,0:0:0:0:
120,146,50496,6,0,L|112:63,1,75,10|0,0:2|0:0,0:0:0:0:
47,9,50858,1,2,0:2:0:0:
4,87,51038,2,0,L|12:170,1,75,2|2,3:2|0:2,0:0:0:0:
27,257,51400,1,10,0:2:0:0:
27,257,51581,1,2,3:2:0:0:
37,346,51761,2,0,P|112:351|151:319,1,112.5,2|0,0:2|0:0,0:0:0:0:
172,299,52123,6,0,B|230:252|230:252|313:291,1,150,0|2,3:2|0:2,0:0:0:0:
385,320,52665,1,0,3:2:0:0:
385,320,52846,2,0,B|393:255|393:255|382:222|382:222|389:164,1,150,10|2,0:2|0:2,0:0:0:0:
467,127,53388,1,8,0:2:0:0:
467,127,53568,6,0,L|476:32,1,75,2|2,0:2|0:2,0:0:0:0:
389,19,53930,2,0,L|314:26,1,75,2|0,3:2|0:0,0:0:0:0:
278,53,54201,1,10,0:2:0:0:
278,53,54291,2,0,P|228:66|186:47,1,75,10|2,0:2|3:2,0:0:0:0:
125,20,54653,1,2,0:2:0:0:
125,20,54834,1,2,0:2:0:0:
54,75,55014,6,0,L|68:186,1,112.5,2|0,3:2|0:0,0:0:0:0:
106,210,55376,2,0,L|91:301,1,75,10|0,0:2|0:0,0:0:0:0:
22,339,55737,2,0,P|63:370|125:362,1,100,10|2,0:2|0:2,0:0:0:0:
161,337,56099,2,0,L|273:353,1,100,0|2,3:2|0:2,0:0:0:0:
313,323,56460,6,0,P|322:286|316:250,1,75,2|0,0:2|0:0,0:0:0:0:
377,184,56821,2,0,P|345:164|308:158,1,75,2|2,3:2|0:2,0:0:0:0:
232,207,57183,2,0,L|65:223,1,150,2|2,3:2|3:2,0:0:0:0:
18,52,57906,6,0,B|81:11|81:11|157:41,1,150,6|0,3:2|0:0,0:0:0:0:
225,79,58448,2,0,B|294:106|294:106|357:65,1,150,2|0,0:2|0:0,0:0:0:0:
446,52,58990,2,0,B|454:103|454:103|444:127|444:127|452:171,1,112.5,2|0,0:2|0:0,0:0:0:0:
483,192,59352,6,0,L|472:276,1,75,2|2,0:2|0:2,0:0:0:0:
421,340,59713,2,0,P|389:320|334:328,1,75,0|2,3:2|0:2,0:0:0:0:
315,342,59984,1,0,0:0:0:0:
315,342,60075,2,0,L|229:326,1,75,10|0,0:2|0:0,0:0:0:0:
172,270,60436,2,0,L|157:134,1,112.5,2|0,3:2|0:0,0:0:0:0:
173,115,60797,6,0,B|131:147|131:147|8:112,1,150,2|0,3:2|0:0,0:0:0:0:
10,33,61340,2,0,B|52:1|52:1|175:36,1,150,2|0,3:2|0:0,0:0:0:0:
234,41,61882,2,0,P|260:89|253:141,1,75,2|8,0:2|0:2,0:0:0:0:
303,187,62243,1,2,0:2:0:0:
303,187,62424,6,0,P|265:226|213:235,1,75,2|0,0:2|3:2,0:0:0:0:
171,179,62785,1,2,0:2:0:0:
103,227,62966,2,0,B|93:287|93:287|109:326|109:326|100:385,1,150,10|2,0:2|3:2,0:0:0:0:
277,331,63689,6,0,B|315:314|357:336|332:367|391:382|435:349,1,150,2|0,3:2|0:0,0:0:0:0:
481,299,64231,2,0,P|491:220|505:135,1,150,2|0,0:2|0:0,0:0:0:0:
480,62,64773,2,0,P|438:29|365:47,1,112.5,2|0,0:2|0:0,0:0:0:0:
354,70,65135,6,0,P|326:90|272:84,1,75,2|2,0:2|0:2,0:0:0:0:
205,51,65496,2,0,L|111:62,1,75,0|2,3:2|0:2,0:0:0:0:
86,70,65767,1,0,0:0:0:0:
86,70,65858,2,0,B|57:138|57:138|100:216,1,150,10|2,0:2|3:2,0:0:0:0:
192,355,66581,6,0,B|197:292|197:292|214:262|214:262|219:195,1,150,2|0,3:2|0:0,0:0:0:0:
161,139,67123,2,0,B|214:192|214:192|294:148,1,150,2|0,0:2|0:0,0:0:0:0:
341,89,67665,2,0,P|398:85|427:102,1,75,2|8,3:2|0:2,0:0:0:0:
486,46,68026,6,0,P|496:92|475:146,1,75,2|2,0:2|0:2,0:0:0:0:
432,188,68388,2,0,L|448:288,1,75,0|2,0:0|0:2,0:0:0:0:
416,347,68749,2,0,B|380:356|380:356|335:331,1,75,2|2,3:2|0:2,0:0:0:0:
296,262,69111,2,0,B|262:243|262:243|226:252,1,75,0|0,3:2|0:0,0:0:0:0:
152,303,69472,5,2,3:2:0:0:
86,240,69653,1,2,0:2:0:0:
161,190,69834,2,0,L|171:99,1,75,2|2,0:2|0:2,0:0:0:0:
175,74,70105,1,2,0:2:0:0:
175,74,70195,2,0,L|100:65,1,75,10|2,0:2|0:2,0:0:0:0:
18,102,70556,2,0,P|6:136|12:173,1,75,2|10,0:2|0:2,0:0:0:0:
35,219,70828,1,2,0:2:0:0:
35,219,70918,6,0,L|88:225,2,37.5,2|2|2,0:2|0:2|0:2,0:0:0:0:
16,260,71189,1,2,0:2:0:0:
16,260,71279,2,0,L|26:343,1,75,2|2,3:2|0:2,0:0:0:0:
64,365,71550,1,2,0:2:0:0:
64,365,71641,2,0,P|122:322|193:339,1,150,10|2,0:2|3:2,0:0:0:0:
277,371,72183,1,2,3:2:0:0:
358,332,72364,6,0,L|373:243,1,75,2|2,3:2|0:2,0:0:0:0:
409,233,72635,1,2,0:2:0:0:
409,233,72725,2,0,L|394:144,1,75,2|2,0:2|3:2,0:0:0:0:
403,68,73087,2,0,L|314:60,1,75,10|2,0:2|0:2,0:0:0:0:
287,58,73358,1,0,0:0:0:0:
287,58,73448,2,0,L|232:53,2,37.5,2|2|10,0:2|0:2|0:2,0:0:0:0:
236,132,73809,6,0,P|222:175|232:212,1,75,2|2,0:2|0:2,0:0:0:0:
255,246,74081,1,2,0:2:0:0:
255,246,74171,2,0,L|297:235,2,37.5,2|2|2,3:2|0:2|0:2,0:0:0:0:
215,262,74442,1,2,0:2:0:0:
215,262,74532,2,0,B|143:238|143:238|89:293,1,150,10|2,0:2|3:2,0:0:0:0:
145,370,75075,1,2,0:2:0:0:
145,370,75255,6,0,B|181:376|181:376|217:345,1,75,2|2,3:2|0:2,0:0:0:0:
290,308,75617,2,0,L|343:320,2,37.5,2|0|2,0:2|0:0|0:2,0:0:0:0:
215,262,75978,1,10,0:2:0:0:
266,188,76159,1,2,0:2:0:0:
224,108,76340,2,0,P|190:91|153:93,1,75,2|8,0:2|0:2,0:0:0:0:
63,99,76701,6,0,L|75:177,1,75,2|2,0:2|0:2,0:0:0:0:
44,207,76972,1,2,0:2:0:0:
44,207,77062,2,0,L|33:299,1,75,2|2,3:2|0:2,0:0:0:0:
25,371,77424,1,10,0:2:0:0:
113,355,77605,1,2,3:2:0:0:
201,340,77785,2,0,L|300:321,1,75,2|0,3:2|0:0,0:0:0:0:
359,357,78147,6,0,L|384:258,1,75,2|2,3:2|0:2,0:0:0:0:
418,263,78418,1,0,0:0:0:0:
418,263,78508,2,0,L|399:173,1,75,10|0,0:2|0:0,0:0:0:0:
388,104,78870,1,10,0:2:0:0:
388,104,79050,1,2,0:2:0:0:
316,49,79231,2,0,P|257:37|214:80,1,112.5,2|0,3:2|0:0,0:0:0:0:
195,97,79593,6,0,L|126:87,1,63.7500000000002,2|0,0:2|0:0,0:0:0:0:
115,162,79954,2,0,L|174:170,2,63.7500000000002,2|2|2,0:2|0:2|0:2,0:0:0:0:
34,314,80677,6,0,B|89:305|110:337|110:337|112:346|112:346|135:373|191:368,1,157.499995193482,2|0,0:2|0:0,0:0:0:0:
208,332,81038,6,0,P|265:292|343:312,1,135,6|0,3:2|0:0,0:0:0:0:
363,340,81400,2,0,L|374:230,1,90,2|0,0:2|0:0,0:0:0:0:
315,158,81761,1,10,0:2:0:0:
404,100,81942,1,2,0:2:0:0:
325,25,82123,2,0,P|277:19|224:62,1,90,2|10,0:2|0:2,0:0:0:0:
178,125,82484,2,0,L|-31:97,1,180,2|0,0:2|0:0,0:0:0:0:
22,316,83207,6,0,B|66:328|66:328|109:303,1,90,10|2,0:2|0:2,0:0:0:0:
193,244,83568,2,0,B|254:214|254:214|317:261,1,135,2|0,3:2|0:0,0:0:0:0:
335,300,83930,6,0,B|342:228|342:228|363:197|363:197|372:121,1,180,2|2,3:2|0:2,0:0:0:0:
393,20,84472,1,2,0:2:0:0:
471,94,84653,2,0,L|459:183,1,90,10|2,0:2|0:2,0:0:0:0:
445,290,85014,2,0,L|295:268,1,135,2|0,0:2|0:0,0:0:0:0:
273,230,85376,2,0,B|194:235|194:235|167:268|167:268|109:273,1,180,2|0,0:2|3:2,0:0:0:0:
48,66,86099,6,0,P|108:50|161:74,1,90,10|0,0:2|3:2,0:0:0:0:
206,136,86460,1,2,3:2:0:0:
284,61,86641,1,2,0:2:0:0:
344,149,86821,6,0,B|402:217|402:217|496:166,2,180,2|2|10,3:2|0:2|0:2,0:0:0:0:
385,361,87906,1,2,3:2:0:0:
169,369,88267,6,0,B|237:311|237:311|186:217,2,180,2|2|10,0:2|0:2|0:2,0:0:0:0:
24,207,89352,2,0,L|46:42,1,135,2|0,3:2|0:0,0:0:0:0:
61,23,89713,6,0,B|116:16|159:52|121:73|165:117|231:107,1,180,2|8,3:2|0:2,0:0:0:0:
303,55,90255,1,0,0:0:0:0:
303,55,90436,2,0,B|348:46|348:46|402:82,1,90,2|2,0:2|0:3,0:0:0:0:
464,143,90797,1,2,3:2:0:0:
371,198,90978,1,8,0:2:0:0:
446,276,91159,6,0,L|465:133,2,135,2|0|10,3:2|0:0|0:2,0:0:0:0:
362,345,91882,2,0,P|318:350|279:330,1,90,2|0,3:2|0:0,0:0:0:0:
172,346,92243,2,0,P|153:305|160:262,1,90,10|0,0:2|0:0,0:0:0:0:
256,210,92605,6,0,L|245:99,1,90,6|2,3:2|0:2,0:0:0:0:
231,13,92966,1,2,0:2:0:0:
161,95,93147,1,2,0:2:0:0:
91,12,93328,2,0,P|46:8|8:31,1,90,10|2,0:2|0:2,0:0:0:0:
50,130,93689,2,0,P|94:133|132:110,1,90,2|10,0:2|0:2,0:0:0:0:
206,31,94050,2,0,B|238:29|266:44|266:44|287:84|339:90,1,135,2|2,0:2|0:2,0:0:0:0:
473,309,94773,6,0,L|356:327,1,90,10|2,0:2|0:2,0:0:0:0:
288,366,95135,2,0,P|262:317|276:232,1,135,2|0,3:2|0:0,0:0:0:0:
308,201,95496,6,0,B|272:238|272:238|122:211,1,180,2|2,3:2|0:2,0:0:0:0:
39,195,96038,1,2,0:2:0:0:
53,87,96219,2,0,P|110:82|148:110,1,90,10|2,0:2|0:2,0:0:0:0:
237,57,96581,2,0,P|259:109|244:154,1,90,2|8,0:2|0:2,0:0:0:0:
195,231,96942,2,0,P|257:188|356:214,1,180,2|0,0:2|3:2,0:0:0:0:
487,42,97665,5,10,0:2:0:0:
424,130,97846,1,2,3:2:0:0:
372,35,98026,2,0,B|327:20|327:20|285:42,1,90,2|2,3:2|0:2,0:0:0:0:
200,102,98388,6,0,B|156:111|110:72|144:45|106:20|37:18,2,180,2|2|2,3:2|0:2|0:2,0:0:0:0:
411,55,99472,1,2,0:2:0:0:
486,257,99834,6,0,B|421:195|421:195|319:234,2,180,2|2|10,0:2|3:2|0:2,0:0:0:0:
292,354,100918,2,0,L|137:332,1,135,2|0,0:2|0:0,0:0:0:0:
115,367,101279,6,0,B|145:356|162:326|162:326|128:187,1,180,2|8,3:2|0:2,0:0:0:0:
43,164,101821,1,0,0:0:0:0:
43,164,102002,2,0,L|60:57,1,90,2|2,0:2|0:3,0:0:0:0:
155,28,102364,1,2,3:2:0:0:
217,115,102544,1,10,0:2:0:0:
303,50,102725,6,0,P|385:47|431:104,2,135,2|0|2,3:2|0:0|0:2,0:0:0:0:
217,115,103448,2,0,B|209:159|209:159|236:212,1,90,2|0,3:2|0:2,0:0:0:0:
298,282,103809,1,2,3:2:0:0:
382,214,103990,1,0,3:2:0:0:
451,296,104171,5,2,0:2:0:0:
