osu file format v14

[General]
AudioFilename: audio.mp3
AudioLeadIn: 0
PreviewTime: 32071
Countdown: 0
SampleSet: Soft
StackLeniency: 0.4
Mode: 0
LetterboxInBreaks: 0
WidescreenStoryboard: 1

[Editor]
Bookmarks: 74737
DistanceSpacing: 0.5
BeatDivisor: 8
GridSize: 32
TimelineZoom: 1.7

[Metadata]
Title:Be Alright
TitleUnicode:大丈夫
Artist:Takayan
ArtistUnicode:たかやん
Creator:imaginative
Version:Tycani's Insane
Source:
Tags:daijōbu daijobu daijoubu kazuma tycani fuiba_fuyu fuiba fuyu narrative japanese hip hop hiphop hip-hop j-rap jrap rap ずっと生きてね zutto ikite ne please live forever Nugodesuga ぬごですが F8 Entertainment
BeatmapID:3075237
BeatmapSetID:1476172

[Difficulty]
HPDrainRate:5
CircleSize:4
OverallDifficulty:8
ApproachRate:9
SliderMultiplier:3.59999990463257
SliderTickRate:1

[Events]
//Background and Video events
0,0,"among us.jpg",0,0
Video,0,"when the file name is sus.mp4"
//Break Periods
2,53583,63449
//Storyboard Layer 0 (Background)
//Storyboard Layer 1 (Fail)
//Storyboard Layer 2 (Pass)
//Storyboard Layer 3 (Foreground)
//Storyboard Layer 4 (Overlay)
//Storyboard Sound Samples

[TimingPoints]
50,666.666666666667,4,2,1,40,1,0
2383,-400,4,2,1,40,0,0
3716,-100,4,2,1,40,0,0
4882,-100,4,2,1,5,0,0
5049,-400,4,2,1,40,0,0
6383,-100,4,2,1,40,0,0
10716,-90.9090909090909,4,2,1,60,0,0
11882,-90.9090909090909,4,2,2,60,0,0
12715,-90.9090909090909,4,2,1,60,0,0
14549,-90.9090909090909,4,2,2,60,0,0
15382,-90.9090909090909,4,2,1,60,0,0
17215,-90.9090909090909,4,2,2,60,0,0
18049,-90.9090909090909,4,2,1,60,0,0
19882,-90.9090909090909,4,2,2,60,0,0
20632,-76.9230769230769,4,2,2,60,0,0
20716,-76.9230769230769,4,2,1,60,0,0
20965,-76.9230769230769,4,2,1,5,0,0
21049,-76.9230769230769,4,2,1,60,0,0
21215,-76.9230769230769,4,2,2,60,0,0
21383,-90.9090909090909,4,2,2,60,0,0
22049,-90.9090909090909,4,2,1,60,0,0
22299,-90.9090909090909,4,2,1,5,0,0
22383,-90.9090909090909,4,2,1,60,0,0
22549,-90.9090909090909,4,2,2,60,0,0
23383,-76.9230769230769,4,2,1,60,0,0
23632,-76.9230769230769,4,2,1,5,0,0
23716,-90.9090909090909,4,2,1,60,0,0
24966,-90.9090909090909,4,2,1,60,0,0
25049,-90.9090909090909,4,2,1,60,0,0
25215,-90.9090909090909,4,2,2,60,0,0
26049,-90.9090909090909,4,2,1,60,0,0
26299,-90.9090909090909,4,2,1,5,0,0
26383,-90.9090909090909,4,2,1,60,0,0
26633,-90.9090909090909,4,2,1,60,0,0
26716,-90.9090909090909,4,2,1,60,0,0
27882,-90.9090909090909,4,2,2,60,0,0
28715,-90.9090909090909,4,2,1,60,0,0
29633,-90.9090909090909,4,2,1,5,0,0
29716,-142.857142857143,4,2,1,60,0,0
30049,-142.857142857143,4,2,1,50,0,0
30716,-285.714285714286,4,2,1,50,0,0
32050,-71.4285714285714,4,2,1,75,0,1
32298,-71.4285714285714,4,2,1,5,0,1
32383,-71.4285714285714,4,2,1,75,0,1
32632,-71.4285714285714,4,2,1,75,0,1
32716,-71.4285714285714,4,2,1,75,0,1
32965,-71.4285714285714,4,2,1,75,0,1
33049,-71.4285714285714,4,2,1,75,0,1
33215,-71.4285714285714,4,2,2,75,0,1
34048,-71.4285714285714,4,2,1,75,0,1
34216,-64.5161290322581,4,2,1,75,0,1
35049,-74.0740740740741,4,2,1,75,0,1
35299,-74.0740740740741,4,2,1,75,0,1
35383,-74.0740740740741,4,2,1,75,0,1
35882,-74.0740740740741,4,2,2,75,0,1
36641,-74.0740740740741,4,2,2,75,0,1
36716,-74.0740740740741,4,2,1,75,0,1
38548,-74.0740740740741,4,2,2,75,0,1
39382,-74.0740740740741,4,2,1,75,0,1
41215,-74.0740740740741,4,2,2,75,0,1
41966,-74.0740740740741,4,2,2,75,0,1
42049,-74.0740740740741,4,2,1,75,0,1
42549,-74.0740740740741,4,2,2,75,0,1
42716,-60.6060606060606,4,2,2,75,0,1
42966,-60.6060606060606,4,2,2,5,0,1
43049,-74.0740740740741,4,2,2,75,0,1
43382,-74.0740740740741,4,2,1,75,0,1
43882,-74.0740740740741,4,2,2,75,0,1
44715,-74.0740740740741,4,2,1,75,0,1
45383,-60.6060606060606,4,2,1,75,0,1
45632,-60.6060606060606,4,2,1,5,0,1
45716,-74.0740740740741,4,2,1,75,0,1
46548,-74.0740740740741,4,2,2,75,0,1
47382,-74.0740740740741,4,2,1,75,0,1
47799,-74.0740740740741,4,2,1,5,0,1
47883,-74.0740740740741,4,2,1,75,0,1
49215,-74.0740740740741,4,2,2,75,0,1
50048,-74.0740740740741,4,2,1,75,0,1
50966,-74.0740740740741,4,2,1,5,0,1
51049,-74.0740740740741,4,2,1,75,0,1
51299,-74.0740740740741,4,2,1,75,0,1
51383,-74.0740740740741,4,2,1,75,0,1
51633,-74.0740740740741,4,2,1,75,0,1
51716,-74.0740740740741,4,2,1,75,0,1
51882,-74.0740740740741,4,2,2,75,0,1
51966,-74.0740740740741,4,2,2,75,0,1
52049,-74.0740740740741,4,2,2,75,0,1
52216,-71.4285714285714,4,2,2,75,0,1
52299,-71.4285714285714,4,2,2,75,0,1
52383,-62.5,4,2,2,75,0,1
52966,-71.4285714285714,4,2,2,75,0,1
53049,-41.6666666666667,4,2,2,75,0,1
53383,-41.6666666666667,4,2,1,40,0,0
54049,-111.111111111111,4,2,1,40,0,0
64049,-100,4,2,1,57,0,0
71549,-100,4,2,1,5,0,0
71716,-100,4,2,1,57,0,0
72049,-111.111111111111,4,2,1,50,0,0
74633,-111.111111111111,4,2,1,5,0,0
74716,-83.3333333333333,4,2,1,60,0,0
75882,-83.3333333333333,4,2,2,60,0,0
76715,-83.3333333333333,4,2,1,60,0,0
78549,-83.3333333333333,4,2,2,60,0,0
79382,-83.3333333333333,4,2,1,60,0,0
80383,-76.9230769230769,4,2,1,60,0,0
80716,-86.9565217391304,4,2,1,60,0,0
81215,-86.9565217391304,4,2,2,60,0,0
82049,-86.9565217391304,4,2,1,60,0,0
83633,-86.9565217391304,4,2,1,5,0,0
83716,-86.9565217391304,4,2,1,60,0,0
83882,-86.9565217391304,4,2,2,60,0,0
84715,-86.9565217391304,4,2,1,60,0,0
85215,-86.9565217391304,4,2,2,60,0,0
86049,-86.9565217391304,4,2,1,60,0,0
86549,-86.9565217391304,4,2,2,60,0,0
87382,-86.9565217391304,4,2,1,60,0,0
89215,-86.9565217391304,4,2,2,60,0,0
90049,-86.9565217391304,4,2,1,60,0,0
91882,-86.9565217391304,4,2,2,60,0,0
92715,-86.9565217391304,4,2,1,60,0,0
93383,-83.3333333333333,4,2,1,50,0,0
93466,-83.3333333333333,4,2,1,5,0,0
94716,-83.3333333333333,4,2,1,60,0,0
94799,-83.3333333333333,4,2,2,60,0,0
95383,-166.666666666667,4,2,1,60,0,0
96050,-71.4285714285714,4,2,1,75,0,1
96299,-71.4285714285714,4,2,1,5,0,1
96383,-71.4285714285714,4,2,1,75,0,1
97215,-71.4285714285714,4,2,2,75,0,1
98048,-71.4285714285714,4,2,1,75,0,1
98216,-66.6666666666667,4,2,1,75,0,1
99049,-74.0740740740741,4,2,1,75,0,1
99882,-74.0740740740741,4,2,2,75,0,1
100715,-74.0740740740741,4,2,1,75,0,1
101633,-74.0740740740741,4,2,1,5,0,1
101716,-74.0740740740741,4,2,1,75,0,1
102548,-74.0740740740741,4,2,2,75,0,1
103382,-74.0740740740741,4,2,1,75,0,1
105215,-74.0740740740741,4,2,2,75,0,1
106049,-74.0740740740741,4,2,1,75,0,1
106549,-74.0740740740741,4,2,2,75,0,1
106716,-62.5,4,2,2,75,0,1
106966,-62.5,4,2,2,5,0,1
107049,-74.0740740740741,4,2,2,75,0,1
107382,-74.0740740740741,4,2,1,75,0,1
107882,-74.0740740740741,4,2,2,75,0,1
108715,-74.0740740740741,4,2,1,75,0,1
109383,-62.5,4,2,1,75,0,1
109633,-62.5,4,2,1,5,0,1
109716,-74.0740740740741,4,2,1,75,0,1
110548,-74.0740740740741,4,2,2,75,0,1
111382,-74.0740740740741,4,2,1,75,0,1
113215,-74.0740740740741,4,2,2,75,0,1
114048,-74.0740740740741,4,2,1,75,0,1
115882,-74.0740740740741,4,2,2,75,0,1
116716,-74.0740740740741,4,2,1,75,0,1
117383,-111.111111111111,4,2,1,40,0,0

[Colours]
Combo1 : 212,212,212
Combo2 : 255,128,128
Combo3 : 255,198,170
Combo4 : 148,148,148

[HitObjects]
118,70,50,37,2,0:2:0:0:
118,70,383,2,0,P|131:123|145:253,2,179.999995231628,2|2|2,0:2|0:2|0:2,0:0:0:0:
118,70,1383,6,0,P|155:103|280:71,1,179.999995231628,2|0,0:2|0:0,0:0:0:0:
187,208,1883,2,0,P|187:122|117:69,1,180,2|0,0:2|0:0,0:0:0:0:
273,79,2383,38,0,P|225:94|191:218,1,180,2|2,0:2|0:2,0:0:0:0:
260,251,3883,1,2,0:2:0:0:
480,328,4049,6,0,P|436:359|332:299,1,180,2|0,0:2|0:0,0:0:0:0:
425,191,4549,2,0,P|493:242|479:327,1,180,2|0,0:2|0:0,0:0:0:0:
334,307,5049,38,0,P|344:221|424:191,1,180,2|2,0:2|0:2,0:0:0:0:
415,275,6549,1,2,0:2:0:0:
264,134,6716,6,0,B|161:104|186:185|91:166,1,180,2|0,0:2|0:0,0:0:0:0:
17,252,7216,2,0,B|120:222|95:303|190:284,1,180,2|0,0:2|0:0,0:0:0:0:
260,347,7716,1,2,0:2:0:0:
256,192,7883,12,2,10383,0:2:0:0:
105,318,10716,5,6,3:2:0:0:
45,224,10883,1,2,0:2:0:0:
146,103,11049,2,0,L|205:120,2,49.5000015106202,2|0|0,0:2|0:0|0:0,0:0:0:0:
26,237,11383,5,10,0:2:0:0:
186,339,11549,1,0,0:0:0:0:
186,339,11633,1,2,0:2:0:0:
186,339,11716,2,0,P|234:326|295:325,1,99.0000030212403,2|10,3:2|0:2,0:0:0:0:
127,191,12049,37,2,0:2:0:0:
275,301,12216,1,8,0:2:0:0:
412,192,12383,6,0,P|439:150|414:99,1,99.0000030212403,2|2,3:2|0:2,0:0:0:0:
261,82,12716,2,0,P|234:124|259:175,1,99.0000030212403,10|2,0:2|3:2,0:0:0:0:
376,18,13049,38,0,P|257:29|179:57,1,198.000006042481,2|2,0:2|3:2,0:0:0:0:
27,7,13549,1,2,0:2:0:0:
24,31,13633,1,2,0:2:0:0:
21,55,13716,1,2,0:2:0:0:
127,164,13883,1,2,0:2:0:0:
29,319,14049,2,0,P|81:295|133:291,1,99.0000030212403,10|2,0:2|0:2,0:0:0:0:
304,370,14383,2,0,P|255:363|210:341,1,99.0000030212403,2|10,3:2|0:2,0:0:0:0:
368,180,14716,5,2,0:2:0:0:
395,258,14883,1,10,3:2:0:0:
315,286,15049,1,2,3:2:0:0:
288,206,15216,1,2,0:2:0:0:
490,95,15383,38,0,P|460:153|450:188,1,99.0000030212403,10|0,0:2|3:2,0:0:0:0:
284,122,15716,2,0,P|299:75|323:31,1,99.0000030212403,0|0,0:0|3:2,0:0:0:0:
108,156,16049,5,2,3:2:0:0:
32,106,16216,1,2,0:2:0:0:
137,37,16383,2,0,L|199:52,2,49.5000015106202,2|0|2,0:2|0:0|0:2,0:0:0:0:
13,196,16716,37,10,0:2:0:0:
87,248,16883,1,2,0:2:0:0:
15,378,17049,5,2,3:2:0:0:
109,232,17216,1,10,0:2:0:0:
237,377,17383,37,2,0:2:0:0:
109,232,17549,1,10,0:2:0:0:
261,151,17716,1,2,3:2:0:0:
310,217,17883,1,2,0:2:0:0:
163,60,18049,6,0,B|261:27|253:97|358:73,1,198.000006042481,10|2,0:2|0:2,0:0:0:0:
355,73,18716,38,0,P|329:26|277:22,1,99.0000030212403,2|2,3:2|3:2,0:0:0:0:
452,144,19049,2,0,P|475:131|477:105,2,49.5000015106202,2|0|2,0:2|0:0|0:2,0:0:0:0:
335,250,19383,5,10,0:2:0:0:
386,318,19549,1,2,0:2:0:0:
254,193,19716,1,2,3:2:0:0:
283,117,19883,1,10,0:2:0:0:
161,251,20049,38,0,P|113:261|54:263,1,99.0000030212403,2|10,0:2|3:2,0:0:0:0:
71,366,20383,2,0,P|120:364|169:353,1,99.0000030212403,2|2,3:2|0:2,0:0:0:0:
267,214,20716,6,0,B|334:234|334:234|359:266|359:266|426:291,1,175.499991966248,10|0,3:2|0:0,0:0:0:0:
457,277,21049,2,0,P|479:239|440:184,1,116.999994644165,2|8,3:2|0:2,0:0:0:0:
300,73,21383,38,0,P|365:57|409:43,1,99.0000030212403,2|2,3:2|0:2,0:0:0:0:
209,131,21716,2,0,P|161:116|113:105,1,99.0000030212403,2|2,0:2|0:2,0:0:0:0:
293,205,22049,6,0,P|262:277|249:358,1,148.50000453186,10|0,0:2|0:0,0:0:0:0:
275,371,22383,1,2,3:2:0:0:
356,332,22549,1,10,0:2:0:0:
181,253,22716,37,2,0:2:0:0:
141,329,22883,1,10,0:2:0:0:
13,206,23049,1,2,3:2:0:0:
53,282,23216,1,2,0:2:0:0:
155,132,23383,6,0,B|242:99|241:168|325:146,1,175.499991966248,10|0,0:2|0:0,0:0:0:0:
359,110,23716,1,2,0:2:0:0:
359,110,24049,38,0,P|343:164|361:210,1,99.0000030212403,2|2,3:2|3:2,0:0:0:0:
497,215,24383,2,0,P|513:161|495:115,1,99.0000030212403,2|2,0:2|0:2,0:0:0:0:
280,229,24716,6,0,P|367:241|466:306,1,198.000006042481,10|2,0:2|3:2,0:0:0:0:
341,336,25216,1,10,0:2:0:0:
497,215,25383,38,0,P|513:161|495:115,1,99.0000030212403,2|10,0:2|0:2,0:0:0:0:
372,27,25716,1,2,3:2:0:0:
285,107,25883,1,2,0:2:0:0:
285,107,25966,1,2,0:2:0:0:
285,107,26049,2,0,P|223:68|149:89,1,148.50000453186,10|0,0:2|0:0,0:0:0:0:
87,182,26383,5,2,0:2:0:0:
14,136,26549,1,0,3:2:0:0:
160,271,26716,38,0,P|227:255|265:250,1,99.0000030212403,2|2,3:2|0:2,0:0:0:0:
279,337,27049,2,0,P|254:340|230:347,2,49.5000015106202,0|0|0,0:0|0:0|3:2,0:0:0:0:
358,218,27383,6,0,P|426:243|512:245,2,148.50000453186,10|2|10,0:2|0:2|0:2,0:0:0:0:
256,161,28049,2,0,P|200:207|155:280,2,148.50000453186,2|2|2,0:2|0:2|0:2,0:0:0:0:
223,44,28716,2,0,P|154:17|67:16,1,148.500000597954,10|2,0:2|0:2,0:0:0:0:
51,50,29050,2,0,P|67:93|123:106,1,99.0000003986359,2|2,0:0|3:2,0:0:0:0:
256,161,29383,38,0,P|287:231|265:303,1,148.50000453186,2|0,3:2|0:0,0:0:0:0:
242,323,29716,1,2,0:2:0:0:
190,242,29883,1,0,3:2:0:0:
331,111,30049,6,0,L|463:140,1,125.999996154785,0|2,0:0|0:2,0:0:0:0:
433,46,30549,1,2,0:2:0:0:
190,242,30716,38,0,L|58:271,1,125.999996154785,0|2,0:0|0:2,0:0:0:0:
66,269,32050,6,0,B|88:220|103:200|161:189|161:189|180:228|209:235,1,188.999994232178,6|0,3:2|0:0,0:0:0:0:
270,175,32383,2,0,P|307:185|345:192,2,62.9999980773926,2|0|0,0:2|0:0|0:0,0:0:0:0:
415,255,32716,2,0,P|441:192|421:138,1,125.999996154785,10|0,0:2|0:0,0:0:0:0:
206,116,33049,2,0,P|180:179|200:233,1,125.999996154785,2|8,3:2|0:2,0:0:0:0:
65,76,33383,37,2,0:2:0:0:
65,76,33466,2,0,P|31:157|26:260,1,188.999994232178,0|2,0:0|3:2,0:0:0:0:
88,323,33883,1,0,0:0:0:0:
247,283,34049,2,0,P|177:269|124:232,1,125.999996154785,10|0,0:2|3:2,0:0:0:0:
301,364,34383,5,2,0:2:0:0:
377,336,34549,1,0,3:2:0:0:
219,181,34716,37,2,3:2:0:0:
277,111,34883,1,2,0:2:0:0:
353,158,35049,1,2,0:2:0:0:
353,158,35383,6,0,P|370:100|342:43,1,121.500000463486,10|2,0:2|0:2,0:0:0:0:
198,62,35716,2,0,P|181:120|209:177,1,121.500000463486,2|10,3:2|0:2,0:0:0:0:
367,263,36049,1,2,0:2:0:0:
367,263,36216,1,10,3:2:0:0:
292,333,36383,2,0,P|208:313|159:309,1,121.500000463486,0|0,3:2|0:0,0:0:0:0:
57,154,36716,38,0,P|40:212|83:254,1,121.500000463486,10|2,0:2|3:2,0:0:0:0:
221,215,37049,2,0,P|238:157|195:115,1,121.500000463486,2|2,0:2|3:2,0:0:0:0:
420,62,37383,6,0,P|338:38|163:14,1,243.000000926971,2|2,3:2|0:2,0:0:0:0:
154,34,37799,1,0,0:0:0:0:
154,34,37883,1,2,0:2:0:0:
303,110,38049,38,0,P|324:188|329:250,1,121.500000463486,10|2,0:2|0:2,0:0:0:0:
474,270,38383,2,0,P|482:209|499:151,1,121.500000463486,2|10,3:2|0:2,0:0:0:0:
361,311,38716,5,2,0:2:0:0:
444,358,38883,1,10,0:2:0:0:
474,270,39049,2,0,P|482:209|499:151,1,121.500000463486,2|0,3:2|0:0,0:0:0:0:
301,32,39383,37,10,0:2:0:0:
381,54,39549,1,2,3:2:0:0:
359,135,39716,1,2,0:2:0:0:
279,113,39882,1,2,0:2:0:0:
15,233,40049,5,2,3:2:0:0:
57,154,40216,1,2,3:2:0:0:
137,193,40383,1,2,0:2:0:0:
101,309,40549,37,2,0:2:0:0:
235,195,40716,2,0,P|302:212|366:236,1,121.500000463486,10|2,0:2|0:2,0:0:0:0:
173,119,41049,2,0,P|115:139|56:153,1,121.500000463486,2|10,3:2|0:2,0:0:0:0:
283,337,41383,6,0,B|345:378|403:326|366:298|425:251|501:297,1,243.000000926971,2|2,0:2|3:2,0:0:0:0:
476,323,41799,1,0,0:0:0:0:
476,323,41883,1,0,0:0:0:0:
355,219,42049,1,10,3:2:0:0:
431,145,42216,1,0,0:0:0:0:
431,145,42299,1,0,0:0:0:0:
431,145,42383,2,0,P|452:52|451:17,1,121.500000463486,2|8,3:2|0:2,0:0:0:0:
235,195,42716,38,0,B|93:168|93:168|68:129|103:87,1,222.75000212431,6|0,3:2|0:0,0:0:0:0:
128,55,43049,2,0,P|187:94|183:143,1,121.500000463486,2|0,0:2|0:0,0:0:0:0:
86,338,43383,5,10,0:2:0:0:
56,264,43549,1,2,0:2:0:0:
235,195,43716,1,2,3:2:0:0:
265,269,43882,1,10,0:2:0:0:
376,384,44049,38,0,P|417:320|396:288,1,121.500000463486,2|10,0:2|0:2,0:0:0:0:
265,269,44383,2,0,P|224:333|245:365,1,121.500000463486,2|2,3:2|0:2,0:0:0:0:
483,237,44716,6,0,P|401:203|245:165,1,243.000000926971,10|2,0:2|0:2,0:0:0:0:
343,85,45216,1,2,0:2:0:0:
136,38,45383,38,0,B|99:98|128:146|153:130|190:176|168:242,1,222.75000212431,2|0,3:2|0:0,0:0:0:0:
139,271,45716,2,0,P|74:225|73:185,1,121.500000463486,2|0,0:2|0:0,0:0:0:0:
233,346,46049,5,10,0:2:0:0:
315,327,46216,1,2,0:2:0:0:
368,255,46383,1,2,3:2:0:0:
453,279,46549,1,10,0:2:0:0:
287,180,46716,38,0,L|256:53,1,121.500000463486,2|10,0:2|0:2,0:0:0:0:
394,28,47049,2,0,L|425:155,1,121.500000463486,2|2,3:2|0:2,0:0:0:0:
396,341,47383,5,10,0:2:0:0:
287,180,47549,2,0,B|191:154|210:224|112:213,1,182.250000695229,2|0,3:2|0:0,0:0:0:0:
77,183,47883,1,2,3:2:0:0:
247,375,48049,38,0,B|298:325|276:256|276:256|236:250|210:224|206:172,1,243.000000926971,0|0,3:2|0:0,0:0:0:0:
238,95,48549,1,0,3:2:0:0:
34,76,48716,6,0,P|-2:145|84:215,1,182.250000695229,10|2,0:2|0:2,0:0:0:0:
77,183,49049,1,0,3:2:0:0:
41,290,49216,1,10,0:2:0:0:
182,363,49383,38,0,B|300:343|224:303|346:282,1,182.250000695229,2|2,0:2|0:2,0:0:0:0:
379,306,49716,1,0,3:2:0:0:
442,231,49883,1,2,0:2:0:0:
302,122,50049,6,0,P|371:92|481:84,1,182.250000695229,10|2,0:2|0:2,0:0:0:0:
494,118,50383,1,0,0:0:0:0:
387,9,50549,1,2,3:2:0:0:
272,202,50716,38,0,P|197:179|81:158,1,182.250000695229,2|0,3:2|0:0,0:0:0:0:
50,181,51049,2,0,P|87:190|123:202,2,60.7500002317429,2|0|0,0:2|0:0|3:2,0:0:0:0:
187,44,51383,6,0,P|220:98|204:155,1,121.500000463486,10|0,0:2|0:0,0:0:0:0:
50,181,51716,2,0,P|17:127|33:70,1,121.500000463486,2|8,3:2|0:2,0:0:0:0:
246,269,52049,1,2,3:2:0:0:
246,269,52133,1,8,0:2:0:0:
246,269,52216,1,8,0:2:0:0:
181,369,52383,2,0,P|160:275|143:215,1,144,2|0,0:2|3:2,0:0:0:0:
317,136,52716,37,2,3:2:0:0:
313,157,52799,1,8,0:2:0:0:
310,178,52883,1,8,0:2:0:0:
128,64,53049,5,2,0:2:0:0:
48,97,53216,1,0,3:2:0:0:
249,20,53383,5,0,0:0:0:0:
280,384,64049,6,0,P|217:371|197:269,1,180,2|0,0:2|0:0,0:0:0:0:
269,307,64549,1,2,0:2:0:0:
169,185,64716,38,0,P|108:193|84:211,1,90,10|2,0:2|0:2,0:0:0:0:
113,293,65049,2,0,P|174:285|198:267,1,90,2|2,0:2|0:2,0:0:0:0:
93,95,65383,6,0,P|186:92|270:141,1,180,2|0,0:2|0:0,0:0:0:0:
270,221,65883,1,2,0:2:0:0:
441,97,66049,38,0,P|462:147|458:184,1,90,10|2,0:2|0:2,0:0:0:0:
370,198,66383,2,0,P|349:148|353:111,1,90,2|2,0:2|0:2,0:0:0:0:
460,315,66716,6,0,P|404:339|280:351,1,180,2|2,0:2|0:2,0:0:0:0:
256,321,67133,1,0,0:0:0:0:
256,321,67216,2,0,P|205:316|158:317,1,90,2|8,0:2|0:2,0:0:0:0:
15,365,67549,2,0,P|59:369|104:369,1,90,2|0,0:2|0:0,0:0:0:0:
187,234,67883,1,2,0:2:0:0:
64,202,68049,38,0,P|36:145|119:70,1,180,0|2,0:0|0:2,0:0:0:0:
187,124,68549,2,0,B|291:97|236:65|346:42,1,180,2|0,0:2|0:0,0:0:0:0:
416,89,69049,2,0,P|471:70|487:32,1,90,0|2,0:0|0:2,0:0:0:0:
346,149,69383,6,0,P|351:204|436:293,1,180,2|2,0:2|0:2,0:0:0:0:
498,384,69883,2,0,P|435:371|403:372,1,90,2|8,0:2|0:2,0:0:0:0:
238,334,70216,2,0,P|282:332|326:321,1,90,2|0,0:2|0:0,0:0:0:0:
389,221,70549,1,2,0:2:0:0:
282,109,70716,38,0,P|219:99|152:193,1,180,0|2,0:0|0:2,0:0:0:0:
88,243,71216,2,0,P|109:199|93:69,1,180,2|0,0:2|0:0,0:0:0:0:
184,13,71716,2,0,P|208:68|215:97,1,90,0|2,0:0|0:2,0:0:0:0:
186,202,72049,5,2,0:2:0:0:
256,192,72133,12,0,74633,0:0:0:0:
147,328,74716,5,6,3:2:0:0:
81,225,74883,2,0,P|44:207|24:204,1,53.9999983520508,2|0,0:2|0:0,0:0:0:0:
167,246,75049,1,2,0:2:0:0:
192,235,75133,1,2,0:2:0:0:
212,217,75216,1,2,0:2:0:0:
33,293,75383,6,0,P|47:214|77:123,1,161.999995056153,8|0,0:2|0:0,0:0:0:0:
93,100,75716,1,2,3:2:0:0:
187,37,75883,1,10,0:2:0:0:
211,47,75966,1,2,0:2:0:0:
235,57,76049,1,2,0:2:0:0:
94,6,76216,1,10,0:2:0:0:
225,137,76383,37,2,3:2:0:0:
251,131,76466,1,2,0:2:0:0:
277,125,76549,1,2,0:2:0:0:
395,100,76716,2,0,P|426:153|408:202,1,107.999996704102,10|0,0:2|3:2,0:0:0:0:
331,292,77049,5,2,0:2:0:0:
331,292,77133,2,0,P|323:318|315:351,1,53.9999983520508,2|0,0:2|3:2,0:0:0:0:
228,217,77383,38,0,P|166:232|123:258,1,107.999996704102,2|2,3:2|0:2,0:0:0:0:
103,299,77633,2,0,P|41:284|-2:258,1,107.999996704102,2|2,0:2|0:2,0:0:0:0:
20,225,77883,2,0,P|33:181|34:168,2,53.9999983520508,2|2|10,0:2|0:2|0:2,0:0:0:0:
149,131,78216,5,0,0:0:0:0:
149,131,78299,1,2,0:2:0:0:
149,131,78383,1,2,3:2:0:0:
81,55,78549,1,10,0:2:0:0:
216,188,78716,37,2,0:2:0:0:
241,195,78799,1,2,0:2:0:0:
266,203,78883,1,10,3:2:0:0:
149,131,79049,6,0,P|124:176|138:236,1,107.999996704102,2|2,3:2|0:2,0:0:0:0:
174,261,79299,1,2,0:2:0:0:
174,261,79383,1,10,0:2:0:0:
110,338,79549,2,0,P|79:328|52:324,1,53.9999983520508,2|2,3:2|0:2,0:0:0:0:
216,188,79716,38,0,P|274:173|321:148,1,107.999996704102,0|0,0:0|3:2,0:0:0:0:
356,345,80049,6,0,P|307:321|255:308,1,107.999996704102,0|0,3:2|0:0,0:0:0:0:
449,367,80383,2,0,P|475:284|473:130,1,233.999989288331,2|10,0:2|0:2,0:0:0:0:
347,37,80883,1,2,0:2:0:0:
495,153,81049,1,2,3:2:0:0:
397,225,81216,1,10,0:2:0:0:
508,48,81383,38,0,P|434:49|314:117,1,207.000003948212,2|2,0:2|3:2,0:0:0:0:
240,75,81883,1,2,0:2:0:0:
89,9,82049,6,0,P|108:71|117:120,1,103.500001974106,10|0,0:2|3:2,0:0:0:0:
26,125,82383,2,0,P|15:74|0:25,1,103.500001974106,2|0,0:2|0:0,0:0:0:0:
91,202,82716,37,0,3:2:0:0:
91,202,82883,1,0,3:2:0:0:
24,293,83049,1,2,0:2:0:0:
34,317,83133,1,0,0:0:0:0:
44,340,83216,1,0,0:0:0:0:
170,258,83383,6,0,B|252:239|233:309|322:295,1,155.250002961159,10|0,0:2|0:0,0:0:0:0:
349,269,83716,2,0,P|362:223|324:189,1,103.500001974106,2|8,3:2|0:2,0:0:0:0:
483,299,84049,38,0,P|496:245|509:193,1,103.500001974106,2|10,0:2|3:2,0:0:0:0:
373,168,84383,2,0,P|360:218|348:268,1,103.500001974106,2|2,3:2|0:2,0:0:0:0:
473,100,84716,5,10,3:2:0:0:
273,138,84883,1,0,0:0:0:0:
273,138,84966,1,0,0:0:0:0:
273,138,85049,1,2,3:2:0:0:
304,36,85216,1,8,0:2:0:0:
131,14,85383,38,0,B|71:57|71:57|125:187,1,207.000003948212,2|2,3:2|0:2,0:0:0:0:
52,313,85883,1,2,0:2:0:0:
139,158,86049,5,10,0:2:0:0:
222,345,86216,1,2,0:2:0:0:
38,300,86383,2,0,P|18:251|32:197,1,103.500001974106,2|10,3:2|0:2,0:0:0:0:
144,358,86716,38,0,P|205:326|351:316,1,207.000003948212,2|2,0:2|3:2,0:0:0:0:
496,377,87216,1,2,0:2:0:0:
328,295,87383,1,10,0:2:0:0:
499,225,87549,1,0,3:2:0:0:
406,120,87716,5,2,0:2:0:0:
383,198,87883,1,2,0:2:0:0:
296,38,88049,37,2,3:2:0:0:
500,145,88216,1,2,3:2:0:0:
328,295,88383,1,2,0:2:0:0:
259,234,88549,1,2,0:2:0:0:
150,329,88716,6,0,P|108:351|47:342,1,103.500001974106,10|2,0:2|0:2,0:0:0:0:
39,255,89049,2,0,P|81:233|142:242,1,103.500001974106,2|10,3:2|0:2,0:0:0:0:
310,173,89383,38,0,P|259:179|213:156,1,103.500001974106,2|10,0:2|0:2,0:0:0:0:
228,66,89716,2,0,P|278:59|324:82,1,103.500001974106,2|2,3:2|0:2,0:0:0:0:
76,40,90049,5,10,0:2:0:0:
98,121,90216,1,2,3:2:0:0:
213,156,90383,37,2,0:2:0:0:
235,237,90550,1,2,3:2:0:0:
376,346,90716,6,0,B|364:292|398:241|438:279|476:220|439:152,1,207.000003948212,2|0,3:2|0:0,0:0:0:0:
408,143,91133,1,0,0:0:0:0:
408,143,91216,1,0,3:2:0:0:
244,82,91383,38,0,P|168:86|87:129,1,155.250002961159,10|2,0:2|0:2,0:0:0:0:
84,152,91716,1,0,3:2:0:0:
138,220,91883,1,10,0:2:0:0:
25,377,92049,6,0,P|27:300|69:217,2,155.250002961159,2|2|2,0:2|0:2|0:2,0:0:0:0:
232,271,92716,2,0,P|229:193|198:123,2,155.250002961159,10|2|2,0:2|0:2|3:2,0:0:0:0:
344,360,93383,38,0,P|374:352|402:338,1,53.9999983520508,2|0,0:2|0:0,0:0:0:0:
344,360,94716,5,2,3:2:0:0:
350,333,94800,1,8,0:2:0:0:
356,306,94883,1,8,0:2:0:0:
210,249,95049,38,0,P|191:313|187:355,1,107.999996704102,2|0,0:2|3:2,0:0:0:0:
26,333,95383,6,0,P|32:279|48:228,1,107.999996704102,10|2,0:2|0:2,0:0:0:0:
48,227,96050,38,0,B|20:189|23:158|23:158|45:116|45:116|28:94|17:47,1,188.999994232178,6|0,3:2|0:0,0:0:0:0:
41,17,96383,2,0,P|107:29|126:89,1,125.999996154785,2|0,0:2|0:0,0:0:0:0:
376,112,96716,6,0,P|252:89|126:78,1,251.999992309571,10|2,0:2|3:2,0:0:0:0:
259,9,97216,1,8,0:2:0:0:
147,179,97383,37,2,0:2:0:0:
147,179,97466,2,0,P|141:254|236:313,1,188.999994232178,0|2,0:0|3:2,0:0:0:0:
304,367,97883,1,0,0:0:0:0:
444,226,98049,6,0,P|436:292|442:352,1,125.999996154785,10|0,0:2|3:2,0:0:0:0:
290,258,98383,2,0,P|298:192|292:123,1,135.000005149842,2|0,0:2|3:2,0:0:0:0:
463,33,98716,37,2,3:2:0:0:
409,107,98883,1,2,0:2:0:0:
343,50,99049,1,2,0:2:0:0:
343,50,99383,6,0,P|291:35|223:59,1,121.500000463486,10|2,0:2|0:2,0:0:0:0:
227,156,99716,2,0,P|279:171|347:147,1,121.500000463486,2|10,3:2|0:2,0:0:0:0:
141,38,100049,37,2,0:2:0:0:
51,95,100216,2,0,B|111:146|114:203|114:203|57:229|42:306,1,243.000000926971,10|0,3:2|0:0,0:0:0:0:
260,278,100716,5,10,0:2:0:0:
226,167,100883,1,2,3:2:0:0:
115,201,101049,1,2,0:2:0:0:
149,311,101216,1,2,3:2:0:0:
339,227,101383,38,0,P|414:251|488:332,1,182.250000695229,2|0,3:2|0:0,0:0:0:0:
470,365,101716,2,0,P|405:341|397:296,1,121.500000463486,2|2,0:2|0:2,0:0:0:0:
476,119,102049,5,10,0:2:0:0:
495,195,102216,1,2,0:2:0:0:
418,214,102383,1,2,3:2:0:0:
399,138,102549,1,10,0:2:0:0:
262,44,102716,38,0,P|192:27|136:23,1,121.500000463486,2|10,0:2|0:2,0:0:0:0:
308,162,103049,6,0,P|182:197|74:265,1,243.000000926971,2|10,3:2|0:2,0:0:0:0:
176,299,103549,1,2,3:2:0:0:
23,167,103716,37,2,0:2:0:0:
78,106,103883,1,2,0:2:0:0:
13,307,104049,5,2,3:2:0:0:
92,360,104216,1,2,3:2:0:0:
176,299,104383,2,0,P|184:266|194:237,2,60.7500002317429,2|0|2,0:2|0:0|0:2,0:0:0:0:
389,255,104716,38,0,P|345:254|270:283,1,121.500000463486,10|2,0:2|0:2,0:0:0:0:
291,366,105049,2,0,P|335:367|410:338,1,121.500000463486,2|10,3:2|0:2,0:0:0:0:
308,156,105383,5,2,0:2:0:0:
374,108,105549,1,8,3:2:0:0:
240,28,105716,1,2,3:2:0:0:
210,35,105799,1,0,0:0:0:0:
180,42,105883,1,0,0:0:0:0:
451,58,106049,38,0,P|400:130|372:293,1,243.000000926971,10|2,3:2|3:2,0:0:0:0:
465,237,106549,1,8,0:2:0:0:
281,157,106716,6,0,B|221:131|164:166|186:194|147:233|74:210,1,216,6|0,3:2|0:0,0:0:0:0:
56,179,107049,2,0,P|71:131|141:115,1,121.500000463486,2|0,0:2|0:0,0:0:0:0:
20,269,107383,38,0,P|5:337|34:382,1,121.500000463486,10|2,0:2|0:2,0:0:0:0:
136,370,107716,2,0,P|151:302|122:257,1,121.500000463486,2|10,3:2|0:2,0:0:0:0:
292,356,108049,5,2,0:2:0:0:
379,333,108216,1,10,0:2:0:0:
456,238,108383,1,2,3:2:0:0:
365,202,108549,1,2,0:2:0:0:
463,63,108716,38,0,P|375:78|325:98,1,121.500000463486,10|2,0:2|3:2,0:0:0:0:
210,24,109049,1,2,0:2:0:0:
344,88,109216,1,2,0:2:0:0:
216,230,109383,6,0,B|133:212|133:212|65:176|65:176|42:201|13:208,1,216,2|0,3:2|0:0,0:0:0:0:
0,177,109716,2,0,P|51:145|73:84,1,121.500000463486,2|0,0:2|0:0,0:0:0:0:
76,280,110049,37,10,0:2:0:0:
39,360,110216,1,2,0:2:0:0:
179,295,110383,1,2,3:2:0:0:
140,199,110549,1,10,0:2:0:0:
26,42,110716,6,0,P|86:12|150:23,1,121.500000463486,2|10,0:2|0:2,0:0:0:0:
156,100,111049,2,0,P|96:130|32:119,1,121.500000463486,2|2,3:2|0:2,0:0:0:0:
235,176,111383,37,10,0:2:0:0:
322,106,111549,2,0,P|351:44|304:1,1,121.500000463486,2|0,3:2|0:0,0:0:0:0:
235,176,111883,1,2,3:2:0:0:
436,65,112049,6,0,P|465:150|490:311,1,243.000000926971,0|0,3:2|0:0,0:0:0:0:
470,341,112466,1,0,0:0:0:0:
470,341,112549,1,0,3:2:0:0:
349,264,112716,38,0,P|260:266|222:353,1,182.250000695229,10|2,0:2|0:2,0:0:0:0:
247,379,113049,1,0,3:2:0:0:
136,337,113216,1,10,0:2:0:0:
46,249,113383,6,0,B|11:152|78:155|43:66,1,182.250000695229,2|2,0:2|0:2,0:0:0:0:
13,41,113716,1,0,3:2:0:0:
131,82,113883,1,2,0:2:0:0:
255,18,114049,38,0,P|221:95|208:211,1,182.250000695229,10|2,0:2|0:2,0:0:0:0:
235,231,114383,1,0,0:0:0:0:
167,287,114549,1,2,3:2:0:0:
326,131,114716,6,0,B|469:182|469:182|493:231|453:263,1,243.000000926971,2|2,3:2|0:2,0:0:0:0:
408,272,115133,1,0,0:0:0:0:
408,272,115216,1,0,3:2:0:0:
226,142,115383,38,0,P|266:236|298:378,1,243.000000926971,10|2,0:2|3:2,0:0:0:0:
408,272,115883,1,8,0:2:0:0:
163,380,116049,2,0,P|269:359|294:355,1,121.500000463486,2|8,3:2|0:2,0:0:0:0:
146,234,116383,1,2,0:2:0:0:
252,128,116549,1,0,3:2:0:0:
139,47,116716,6,0,P|41:27|6:26,1,121.500000463486,10|0,3:2|0:0,0:0:0:0:
252,128,117049,2,0,P|312:122|371:107,1,121.500000463486,2|0,0:2|3:2,0:0:0:0:
432,41,117383,5,0,0:0:0:0:
