osu file format v14

[General]
AudioFilename: audio.mp3
AudioLeadIn: 0
PreviewTime: 32071
Countdown: 0
SampleSet: Soft
StackLeniency: 0.7
Mode: 0
LetterboxInBreaks: 0
WidescreenStoryboard: 1

[Editor]
Bookmarks: 74737
DistanceSpacing: 0.9
BeatDivisor: 8
GridSize: 4
TimelineZoom: 2

[Metadata]
Title:Be Alright
TitleUnicode:大丈夫
Artist:Takayan
ArtistUnicode:たかやん
Creator:imaginative
Version:Normal
Source:
Tags:daijōbu daijobu daijoubu kazuma tycani fuiba_fuyu fuiba fuyu narrative japanese hip hop hiphop hip-hop j-rap jrap rap ずっと生きてね zutto ikite ne please live forever Nugodesuga ぬごですが F8 Entertainment
BeatmapID:3050019
BeatmapSetID:1476172

[Difficulty]
HPDrainRate:4
CircleSize:3.5
OverallDifficulty:4
ApproachRate:5.5
SliderMultiplier:2.34
SliderTickRate:1

[Events]
//Background and Video events
0,0,"among us.jpg",0,0
Video,0,"when the file name is sus.mp4"
//Break Periods
//Storyboard Layer 0 (Background)
//Storyboard Layer 1 (Fail)
//Storyboard Layer 2 (Pass)
//Storyboard Layer 3 (Foreground)
//Storyboard Layer 4 (Overlay)
//Storyboard Sound Samples

[TimingPoints]
50,666.666666666667,4,2,1,40,1,0
10716,-105.263157894737,4,2,1,60,0,0
11882,-105.263157894737,4,2,2,60,0,0
12715,-105.263157894737,4,2,1,60,0,0
14549,-105.263157894737,4,2,2,60,0,0
15382,-105.263157894737,4,2,1,60,0,0
17215,-105.263157894737,4,2,2,60,0,0
18049,-105.263157894737,4,2,1,60,0,0
19882,-105.263157894737,4,2,2,60,0,0
20715,-105.263157894737,4,2,1,60,0,0
21215,-105.263157894737,4,2,2,60,0,0
22049,-105.263157894737,4,2,1,60,0,0
22549,-105.263157894737,4,2,2,60,0,0
23382,-105.263157894737,4,2,1,60,0,0
25215,-105.263157894737,4,2,2,60,0,0
26049,-105.263157894737,4,2,1,60,0,0
27882,-105.263157894737,4,2,2,60,0,0
28715,-105.263157894737,4,2,1,60,0,0
29216,-100,4,2,1,60,0,0
30049,-100,4,2,1,50,0,0
32050,-100,4,2,1,75,0,1
33215,-100,4,2,2,75,0,1
34048,-100,4,2,1,75,0,1
35882,-100,4,2,2,75,0,1
36715,-100,4,2,1,75,0,1
38548,-100,4,2,2,75,0,1
39382,-100,4,2,1,75,0,1
41215,-100,4,2,2,75,0,1
42049,-100,4,2,1,75,0,1
42549,-100,4,2,2,75,0,1
42716,-97.0873786407767,4,2,2,75,0,1
43382,-97.0873786407767,4,2,1,75,0,1
43882,-97.0873786407767,4,2,2,75,0,1
44715,-97.0873786407767,4,2,1,75,0,1
46548,-97.0873786407767,4,2,2,75,0,1
47382,-97.0873786407767,4,2,1,75,0,1
48716,-97.0873786407767,4,2,1,75,0,1
49215,-97.0873786407767,4,2,2,75,0,1
50048,-97.0873786407767,4,2,1,75,0,1
51882,-97.0873786407767,4,2,2,75,0,1
53383,-105.263157894737,4,2,1,40,0,0
64049,-105.263157894737,4,2,1,57,0,0
72050,-105.263157894737,4,2,1,50,0,0
74716,-103.092783505155,4,2,1,60,0,0
75882,-103.092783505155,4,2,2,60,0,0
76715,-103.092783505155,4,2,1,60,0,0
78549,-103.092783505155,4,2,2,60,0,0
79382,-103.092783505155,4,2,1,60,0,0
81215,-103.092783505155,4,2,2,60,0,0
82049,-103.092783505155,4,2,1,60,0,0
83882,-103.092783505155,4,2,2,60,0,0
84715,-103.092783505155,4,2,1,60,0,0
85215,-103.092783505155,4,2,2,60,0,0
86049,-103.092783505155,4,2,1,60,0,0
86549,-103.092783505155,4,2,2,60,0,0
87382,-103.092783505155,4,2,1,60,0,0
89215,-103.092783505155,4,2,2,60,0,0
90049,-103.092783505155,4,2,1,60,0,0
91882,-103.092783505155,4,2,2,60,0,0
92715,-103.092783505155,4,2,1,60,0,0
93383,-105.263157894737,4,2,1,50,0,0
94716,-105.263157894737,4,2,1,60,0,0
94799,-105.263157894737,4,2,2,60,0,0
95383,-105.263157894737,4,2,1,60,0,0
96050,-100,4,2,1,75,0,1
97215,-100,4,2,2,75,0,1
98048,-100,4,2,1,75,0,1
99882,-100,4,2,2,75,0,1
100715,-100,4,2,1,75,0,1
102548,-100,4,2,2,75,0,1
103382,-100,4,2,1,75,0,1
105215,-100,4,2,2,75,0,1
106049,-100,4,2,1,75,0,1
106549,-100,4,2,2,75,0,1
106716,-97.0873786407767,4,2,2,75,0,1
107382,-97.0873786407767,4,2,1,75,0,1
107882,-97.0873786407767,4,2,2,75,0,1
108715,-97.0873786407767,4,2,1,75,0,1
110548,-97.0873786407767,4,2,2,75,0,1
111382,-97.0873786407767,4,2,1,75,0,1
113215,-97.0873786407767,4,2,2,75,0,1
114048,-97.0873786407767,4,2,1,75,0,1
115882,-97.0873786407767,4,2,2,75,0,1
116716,-97.0873786407767,4,2,1,75,0,1
117383,-105.263157894737,4,2,1,40,0,0

[Colours]
Combo1 : 212,212,212
Combo2 : 255,128,128
Combo3 : 255,198,170
Combo4 : 148,148,148

[HitObjects]
72,81,10383,38,0,L|133:73,1,58.5,2|2,0:2|0:2,0:0:0:0:
170,102,10716,22,0,L|165:170,2,55.5749985159874,6|2|2,3:2|0:2|0:2,0:0:0:0:
247,39,11383,2,0,P|301:19|361:45,1,111.149997031975,10|2,0:2|3:2,0:0:0:0:
391,72,11883,1,10,0:2:0:0:
391,72,12049,1,2,0:2:0:0:
387,173,12383,2,0,L|384:233,1,55.5749985159874,2|2,3:2|0:2,0:0:0:0:
380,278,12716,2,0,L|318:282,2,55.5749985159874,10|2|2,0:2|3:2|0:2,0:0:0:0:
473,242,13383,6,0,B|476:183,1,55.5749985159874,2|2,3:2|0:2,0:0:0:0:
454,141,13716,2,0,L|395:138,1,55.5749985159874,2|2,0:2|0:2,0:0:0:0:
348,133,14049,2,0,L|351:74,2,55.5749985159874,10|2|2,0:2|0:2|3:2,0:0:0:0:
271,197,14716,2,0,P|240:203|210:195,1,55.5749985159874,2|10,0:2|3:2,0:0:0:0:
170,178,15049,2,0,P|141:171|109:180,1,55.5749985159874,2|2,3:2|0:2,0:0:0:0:
74,205,15383,2,0,B|105:238|105:238|77:311,1,111.149997031975,10|0,0:2|0:0,0:0:0:0:
155,366,16049,38,0,L|219:359,1,55.5749985159874,2|2,3:2|0:2,0:0:0:0:
260,354,16382,1,2,0:2:0:0:
237,256,16716,2,0,L|301:249,1,55.5749985159874,10|2,0:2|0:2,0:0:0:0:
342,244,17049,1,2,3:2:0:0:
317,147,17383,2,0,L|381:140,1,55.5749985159874,2|10,0:2|0:2,0:0:0:0:
420,125,17716,2,0,P|432:98|418:61,1,55.5749985159874,2|2,3:2|0:2,0:0:0:0:
407,27,18049,2,0,B|379:6|379:6|289:21,1,111.149997031975,10|2,0:2|0:2,0:0:0:0:
206,42,18716,6,0,L|213:101,1,55.5749985159874,2|2,3:2|3:2,0:0:0:0:
218,146,19049,1,2,0:2:0:0:
117,144,19383,2,0,L|124:203,1,55.5749985159874,10|2,0:2|0:2,0:0:0:0:
129,248,19716,1,2,3:2:0:0:
29,241,20049,2,0,L|36:300,1,55.5749985159874,2|10,0:2|3:2,0:0:0:0:
41,345,20383,2,0,P|71:353|106:346,1,55.5749985159874,2|2,3:2|0:2,0:0:0:0:
141,332,20716,2,0,B|170:322|202:339|188:353|221:366|249:354,1,111.149997031975,10|2,3:2|3:2,0:0:0:0:
344,350,21383,38,0,L|349:294,1,55.5749985159874,2|2,3:2|0:2,0:0:0:0:
322,251,21716,2,0,L|327:195,1,55.5749985159874,2|2,0:2|0:2,0:0:0:0:
296,155,22049,2,0,P|244:169|188:127,1,111.149997031975,10|2,0:2|3:2,0:0:0:0:
173,98,22549,1,10,0:2:0:0:
260,46,22883,1,10,0:2:0:0:
260,46,23049,2,0,L|319:40,1,55.5749985159874,2|2,3:2|0:2,0:0:0:0:
362,22,23382,2,0,P|388:69|374:126,1,111.149997031975,10|2,0:2|0:2,0:0:0:0:
338,215,24049,6,0,L|342:279,1,55.5749985159874,2|2,3:2|3:2,0:0:0:0:
365,315,24383,2,0,P|398:322|427:313,1,55.5749985159874,2|2,0:2|0:2,0:0:0:0:
467,304,24716,2,0,B|470:265|487:252|487:252|469:232|463:198,1,111.149997031975,10|2,0:2|3:2,0:0:0:0:
437,161,25216,1,10,0:2:0:0:
437,161,25383,1,2,0:2:0:0:
351,109,25716,2,0,P|320:118|289:106,1,55.5749985159874,2|2,3:2|0:2,0:0:0:0:
251,94,26049,2,0,B|212:91|199:74|199:74|179:92|145:98,1,111.149997031975,10|2,0:2|0:2,0:0:0:0:
99,182,26716,2,0,L|106:252,1,55.5749985159874,2|2,3:2|0:2,0:0:0:0:
107,341,27216,1,0,3:2:0:0:
107,341,27383,38,0,B|166:335|166:335|194:361,2,83.3624977739812,10|2|10,0:2|0:2|0:2,0:0:0:0:
85,295,28050,2,0,B|26:289|26:289|-2:315,2,83.3624977739812,2|2|2,0:2|0:2|0:2,0:0:0:0:
115,255,28716,1,10,0:2:0:0:
55,173,29050,2,0,L|128:163,1,55.5749985159874,2|2,0:0|3:2,0:0:0:0:
146,128,29383,2,0,B|187:105|240:128|217:154|268:179|313:153,1,175.5,2|0,3:2|3:2,0:0:0:0:
355,7,30383,1,2,0:2:0:0:
355,7,30549,6,0,L|477:13,1,117,2|2,0:2|0:2,0:0:0:0:
500,57,31049,1,2,0:2:0:0:
493,162,31383,2,0,L|486:227,2,58.5,2|2|2,0:2|0:2|0:2,0:0:0:0:
391,190,32050,38,0,L|329:180,1,58.5,6|0,3:2|0:0,0:0:0:0:
290,211,32383,2,0,L|228:201,1,58.5,2|0,0:2|0:0,0:0:0:0:
180,197,32716,2,0,P|121:219|112:276,1,117,10|2,0:2|3:2,0:0:0:0:
114,319,33216,1,8,0:2:0:0:
114,319,33383,2,0,P|145:333|174:317,1,58.5,2|8,0:2|0:2,0:0:0:0:
213,300,33716,1,2,3:2:0:0:
287,225,34049,2,0,L|285:166,1,58.5,10|0,0:2|3:2,0:0:0:0:
250,129,34383,2,0,L|248:70,1,58.5,2|0,0:2|3:2,0:0:0:0:
226,21,34716,6,0,P|195:14|160:25,2,58.5,2|2|2,3:2|0:2|0:2,0:0:0:0:
329,39,35383,2,0,P|372:60|441:38,1,117,10|2,0:2|3:2,0:0:0:0:
484,27,35883,1,10,0:2:0:0:
484,27,36049,2,0,L|483:96,1,58.5,2|10,0:2|3:2,0:0:0:0:
481,138,36382,1,0,3:2:0:0:
423,226,36716,2,0,L|357:218,1,58.5,10|2,0:2|3:2,0:0:0:0:
315,237,37049,1,2,0:2:0:0:
209,235,37382,38,0,B|239:275|239:275|213:349,1,117,2|2,3:2|0:2,0:0:0:0:
170,363,37883,1,2,0:2:0:0:
170,363,38049,2,0,L|100:368,1,58.5,10|2,0:2|0:2,0:0:0:0:
59,359,38383,2,0,P|50:325|59:298,1,58.5,2|10,3:2|0:2,0:0:0:0:
67,251,38716,2,0,P|76:217|67:190,2,58.5,2|10|2,0:2|0:2|3:2,0:0:0:0:
171,261,39383,2,0,L|234:267,1,58.5,10|2,0:2|3:2,0:0:0:0:
281,275,39716,1,2,0:2:0:0:
351,353,40049,6,0,L|414:359,1,58.5,2|2,3:2|3:2,0:0:0:0:
459,341,40383,2,0,L|459:280,1,58.5,2|2,0:2|0:2,0:0:0:0:
434,235,40716,2,0,P|425:201|434:174,1,58.5,10|2,0:2|0:2,0:0:0:0:
421,127,41049,2,0,P|429:98|419:61,1,58.5,2|10,3:2|0:2,0:0:0:0:
400,22,41383,1,2,0:2:0:0:
294,19,41716,2,0,L|232:21,1,58.5,2|0,3:2|0:0,0:0:0:0:
191,39,42049,2,0,B|159:89|159:89|193:141,1,117,10|2,3:2|3:2,0:0:0:0:
224,184,42549,1,8,0:2:0:0:
224,184,42716,37,6,3:2:0:0:
149,262,43049,1,2,0:2:0:0:
46,225,43383,2,0,L|43:163,1,60.2549994943199,10|2,0:2|0:2,0:0:0:0:
68,116,43716,1,2,3:2:0:0:
155,51,44049,6,0,P|188:42|215:52,1,60.2549994943199,2|10,0:2|0:2,0:0:0:0:
262,71,44383,2,0,P|295:80|322:70,1,60.2549994943199,2|2,3:2|0:2,0:0:0:0:
368,50,44716,2,0,L|363:117,2,60.2549994943199,10|2|2,0:2|3:2|0:2,0:0:0:0:
419,27,45216,1,2,0:2:0:0:
419,27,45383,37,2,3:2:0:0:
469,122,45716,1,2,0:2:0:0:
434,224,46049,2,0,L|372:227,1,60.2549994943199,10|2,0:2|0:2,0:0:0:0:
323,204,46383,1,2,3:2:0:0:
236,269,46716,6,0,P|206:277|171:268,1,60.2549994943199,2|10,0:2|0:2,0:0:0:0:
128,248,47050,2,0,P|98:240|63:249,1,60.2549994943199,2|2,3:2|0:2,0:0:0:0:
23,270,47383,1,10,0:2:0:0:
23,270,47549,1,2,3:2:0:0:
105,348,47883,1,2,3:2:0:0:
105,348,48049,2,0,B|134:336|167:355|153:369|187:382|216:370,1,120.50999898864,0|0,3:2|0:0,0:0:0:0:
319,333,48716,38,0,B|365:317|365:317|406:338,2,90.3824992414799,10|2|10,0:2|0:2|0:2,0:0:0:0:
289,287,49383,2,0,B|243:271|243:271|202:292,2,90.3824992414799,2|2|2,0:2|0:2|0:2,0:0:0:0:
326,247,50049,1,10,0:2:0:0:
270,187,50299,1,2,0:2:0:0:
291,102,50549,1,2,3:2:0:0:
291,102,50716,6,0,B|220:136|220:136|182:112,1,120.50999898864,2|2,3:2|0:2,0:0:0:0:
136,107,51216,1,0,3:2:0:0:
136,107,51383,1,10,0:2:0:0:
178,7,51716,1,2,3:2:0:0:
286,4,52049,38,0,L|350:6,1,60.2549994943199,2|8,3:2|0:2,0:0:0:0:
400,7,52383,2,0,L|399:92,1,60.2549994943199,2|0,0:2|3:2,0:0:0:0:
391,121,52716,2,0,L|455:123,1,60.2549994943199,2|8,3:2|0:2,0:0:0:0:
505,124,53049,2,0,L|504:209,1,60.2549994943199,2|0,0:2|3:2,0:0:0:0:
500,234,53383,1,0,0:0:0:0:
353,371,54049,21,2,0:2:0:0:
292,290,54383,1,2,0:2:0:0:
230,211,54716,2,0,L|236:146,2,55.5749985159874,2|2|2,0:2|0:2|0:2,0:0:0:0:
203,254,55216,1,2,0:2:0:0:
203,254,55383,1,2,0:2:0:0:
67,308,55883,1,2,0:2:0:0:
67,308,56049,6,0,P|72:335|60:370,2,55.5749985159874,2|2|2,0:2|0:2|0:2,0:0:0:0:
38,212,56716,2,0,P|33:185|45:150,2,55.5749985159874,2|2|2,0:2|0:2|0:2,0:0:0:0:
138,213,57383,2,0,L|199:206,1,55.5749985159874,2|2,0:2|0:2,0:0:0:0:
234,177,57716,2,0,L|295:170,1,55.5749985159874,2|2,0:2|0:2,0:0:0:0:
338,162,58049,1,2,0:2:0:0:
438,160,58383,2,0,P|450:128|441:96,1,55.5749985159874,2|2,0:2|0:2,0:0:0:0:
434,58,58716,38,0,L|438:-5,2,55.5749985159874,2|2|0,0:2|0:2|0:0,0:0:0:0:
334,68,59383,2,0,L|338:5,2,55.5749985159874,2|2|2,0:2|0:2|0:2,0:0:0:0:
235,83,60049,2,0,L|239:20,2,55.5749985159874,2|2|2,0:2|0:2|0:2,0:0:0:0:
197,114,60549,1,2,0:2:0:0:
197,114,60716,2,0,L|192:176,1,55.5749985159874,2|2,0:2|0:2,0:0:0:0:
168,213,61049,1,2,0:2:0:0:
68,225,61383,6,0,B|40:224|11:227|11:227|7:201|0:165,1,111.149997031975,2|2,0:2|0:2,0:0:0:0:
8,127,61883,1,2,0:2:0:0:
8,127,62049,2,0,L|11:71,1,55.5749985159874,2|2,0:2|0:2,0:0:0:0:
15,21,62383,1,2,0:2:0:0:
114,31,62716,2,0,L|169:37,1,55.5749985159874,2|2,0:2|0:2,0:0:0:0:
218,29,63049,2,0,L|273:35,1,55.5749985159874,2|2,0:2|0:2,0:0:0:0:
309,69,63383,2,0,P|305:102|311:128,2,55.5749985159874,2|2|2,0:2|0:2|0:2,0:0:0:0:
399,26,64049,38,0,P|450:38|463:93,1,111.149997031975,2|0,0:2|0:0,0:0:0:0:
451,140,64549,1,2,0:2:0:0:
451,140,64716,2,0,L|453:203,1,55.5749985159874,10|2,0:2|0:2,0:0:0:0:
427,238,65049,1,2,0:2:0:0:
459,332,65383,6,0,B|427:320|401:330|411:347|377:359|348:342,1,111.149997031975,2|0,0:2|0:0,0:0:0:0:
310,361,65883,1,2,0:2:0:0:
310,361,66049,2,0,L|250:358,1,55.5749985159874,10|2,0:2|0:2,0:0:0:0:
211,331,66383,1,2,0:2:0:0:
166,241,66716,38,0,B|92:228|92:228|53:263,1,111.149997031975,2|2,0:2|0:2,0:0:0:0:
29,287,67216,2,0,L|33:345,1,55.5749985159874,2|8,0:2|0:2,0:0:0:0:
64,381,67550,1,2,0:2:0:0:
157,346,67883,2,0,P|205:319|270:345,1,111.149997031975,2|2,0:2|0:2,0:0:0:0:
302,353,68383,2,0,L|305:285,1,55.5749985159874,2|2,0:2|0:2,0:0:0:0:
310,247,68716,2,0,P|363:241|422:239,1,111.149997031975,8|0,0:2|0:0,0:0:0:0:
481,159,69383,6,0,B|508:111|508:111|478:64,1,111.149997031975,2|2,0:2|0:2,0:0:0:0:
443,28,69883,2,0,L|380:25,1,55.5749985159874,2|8,0:2|0:2,0:0:0:0:
344,51,70216,1,2,0:2:0:0:
251,12,70549,2,0,P|193:-3|140:30,1,111.149997031975,2|2,0:2|0:2,0:0:0:0:
113,54,71049,2,0,L|116:122,1,55.5749985159874,2|2,0:2|0:2,0:0:0:0:
119,159,71383,2,0,B|191:147|191:147|202:171|224:186,1,111.149997031975,8|0,0:2|0:0,0:0:0:0:
266,262,72049,38,0,L|258:330,2,55.5749985159874,2|0|2,0:2|0:0|0:2,0:0:0:0:
313,244,72549,2,0,P|367:238|431:231,1,111.149997031975,2|2,0:2|0:2,0:0:0:0:
473,226,73050,1,0,0:0:0:0:
447,129,73383,6,0,B|415:117|389:127|399:144|365:156|336:139,1,111.149997031975,0|2,0:0|0:2,0:0:0:0:
243,125,74049,2,0,B|211:113|185:123|195:140|161:152|132:135,1,111.149997031975,2|2,0:2|0:2,0:0:0:0:
40,167,74716,6,0,L|36:102,1,56.745001342083,6|2,3:2|0:2,0:0:0:0:
33,59,75049,2,0,L|98:55,1,56.745001342083,2|2,0:2|0:2,0:0:0:0:
124,17,75383,2,0,B|179:-7|179:-7|238:19,1,113.490002684166,8|2,0:2|3:2,0:0:0:0:
258,112,76049,2,0,L|317:109,1,56.745001342083,2|10,0:2|0:2,0:0:0:0:
348,70,76383,2,0,L|407:67,1,56.745001342083,2|2,3:2|0:2,0:0:0:0:
452,48,76716,2,0,P|482:104|459:145,1,113.490002684166,10|2,0:2|0:2,0:0:0:0:
505,236,77383,6,0,L|499:330,1,85.1175020131245,2|2,3:2|0:2,0:0:0:0:
439,368,77883,2,0,B|394:379|394:379|356:356,1,85.1175020131245,2|2,0:2|0:2,0:0:0:0:
301,310,78383,2,0,L|299:251,1,56.745001342083,2|10,3:2|0:2,0:0:0:0:
325,209,78716,2,0,L|323:152,1,56.745001342083,2|10,0:2|3:2,0:0:0:0:
304,104,79049,1,2,3:2:0:0:
203,83,79383,2,0,P|220:123|201:163,2,85.1175020131245,10|2|0,0:2|0:2|3:2,0:0:0:0:
159,55,80049,37,0,3:2:0:0:
80,120,80383,1,2,0:2:0:0:
17,200,80716,2,0,L|19:269,1,56.745001342083,10|2,0:2|0:2,0:0:0:0:
40,302,81049,1,2,3:2:0:0:
138,273,81383,2,0,B|207:254|207:254|247:283,1,113.490002684166,2|2,0:2|3:2,0:0:0:0:
276,314,81883,1,2,0:2:0:0:
276,314,82049,2,0,P|323:291|384:321,1,113.490002684166,10|2,0:2|0:2,0:0:0:0:
457,374,82716,6,0,L|462:301,1,56.745001342083,0|0,3:2|3:2,0:0:0:0:
492,277,83049,1,2,0:2:0:0:
402,227,83383,2,0,P|382:178|411:124,1,113.490002684166,10|2,0:2|3:2,0:0:0:0:
455,123,83883,1,8,0:2:0:0:
455,123,84049,2,0,L|518:126,2,56.745001342083,2|10|2,0:2|3:2|3:2,0:0:0:0:
383,49,84716,2,0,B|327:27|327:27|269:53,1,113.490002684166,10|2,3:2|3:2,0:0:0:0:
234,72,85216,1,8,0:2:0:0:
234,72,85383,37,2,3:2:0:0:
154,135,85716,2,0,L|154:192,1,56.745001342083,2|2,0:2|0:2,0:0:0:0:
186,231,86050,2,0,P|222:237|252:221,1,56.745001342083,10|2,0:2|0:2,0:0:0:0:
280,197,86383,1,2,3:2:0:0:
376,164,86716,2,0,B|363:288,1,113.490002684166,2|2,0:2|3:2,0:0:0:0:
391,326,87216,1,2,0:2:0:0:
391,326,87383,2,0,P|336:306|284:335,1,113.490002684166,10|2,0:2|0:2,0:0:0:0:
188,314,88049,6,0,L|184:376,2,56.745001342083,2|2|2,3:2|3:2|0:2,0:0:0:0:
174,269,88549,1,2,0:2:0:0:
174,269,88716,2,0,L|178:207,2,56.745001342083,10|2|2,0:2|0:2|3:2,0:0:0:0:
94,334,89383,2,0,P|63:339|32:325,1,56.745001342083,2|10,0:2|0:2,0:0:0:0:
7,291,89716,2,0,L|15:228,1,56.745001342083,2|2,3:2|0:2,0:0:0:0:
45,192,90049,2,0,L|53:129,2,56.745001342083,10|2|2,0:2|3:2|0:2,0:0:0:0:
137,235,90716,37,2,3:2:0:0:
267,152,91216,1,0,3:2:0:0:
267,152,91383,2,0,B|303:151|303:151|318:161|318:161|353:160,2,85.1175020131245,10|2|10,0:2|0:2|0:2,0:0:0:0:
237,109,92049,2,0,B|201:108|201:108|186:118|186:118|151:117,2,85.1175020131245,2|2|2,0:2|0:2|0:2,0:0:0:0:
258,62,92716,2,0,P|293:32|342:39,1,85.1175020131245,10|2,0:2|0:2,0:0:0:0:
417,55,93216,1,2,3:2:0:0:
417,55,93383,5,2,0:2:0:0:
389,257,94716,2,0,L|383:319,2,55.5749985159874,2|8|2,3:2|0:2|0:2,0:0:0:0:
367,217,95216,1,0,3:2:0:0:
367,217,95383,1,10,0:2:0:0:
195,338,96050,38,0,L|124:335,1,58.5,6|0,3:2|0:0,0:0:0:0:
108,290,96383,2,0,L|37:287,1,58.5,2|0,0:2|0:0,0:0:0:0:
3,262,96716,2,0,B|-23:213|-23:213|5:157,1,117,10|2,0:2|3:2,0:0:0:0:
33,113,97216,1,8,0:2:0:0:
33,113,97383,2,0,L|30:55,2,58.5,2|8|2,0:2|0:2|3:2,0:0:0:0:
112,182,98049,2,0,P|143:189|178:178,1,58.5,10|0,0:2|3:2,0:0:0:0:
215,158,98383,2,0,P|246:151|281:162,1,58.5,2|0,0:2|3:2,0:0:0:0:
319,179,98716,6,0,L|312:248,2,58.5,2|2|2,3:2|0:2|0:2,0:0:0:0:
394,105,99383,2,0,B|429:132|429:132|422:208,1,117,10|2,0:2|3:2,0:0:0:0:
418,260,99882,1,10,0:2:0:0:
418,260,100049,2,0,L|413:328,1,58.5,2|10,0:2|3:2,0:0:0:0:
385,363,100383,1,0,3:2:0:0:
297,304,100716,2,0,P|266:295|234:305,1,58.5,10|2,0:2|3:2,0:0:0:0:
192,321,101049,1,2,0:2:0:0:
93,358,101383,38,0,P|95:304|98:236,1,117,2|2,3:2|0:2,0:0:0:0:
66,205,101883,1,2,0:2:0:0:
66,205,102049,2,0,L|58:139,1,58.5,10|2,0:2|0:2,0:0:0:0:
87,102,102383,2,0,P|117:92|152:100,1,58.5,2|10,3:2|0:2,0:0:0:0:
186,125,102716,2,0,L|178:183,2,58.5,2|10|2,0:2|0:2|3:2,0:0:0:0:
283,166,103383,2,0,L|276:238,1,58.5,10|2,0:2|3:2,0:0:0:0:
268,276,103716,1,2,0:2:0:0:
241,377,104049,6,0,L|303:374,1,58.5,2|2,3:2|3:2,0:0:0:0:
347,351,104383,2,0,L|409:348,1,58.5,2|2,0:2|0:2,0:0:0:0:
449,319,104716,2,0,P|458:285|449:258,1,58.5,10|2,0:2|0:2,0:0:0:0:
426,217,105049,2,0,P|418:188|428:151,1,58.5,2|10,3:2|0:2,0:0:0:0:
451,116,105383,2,0,B|412:113|398:93|398:93|379:114|345:120,1,117,2|2,0:2|3:2,0:0:0:0:
253,165,106049,2,0,P|203:190|147:159,1,117,10|2,3:2|3:2,0:0:0:0:
118,132,106549,1,8,0:2:0:0:
118,132,106716,37,6,3:2:0:0:
208,71,107049,1,2,0:2:0:0:
305,23,107383,2,0,L|301:98,1,60.2549994943199,10|2,0:2|0:2,0:0:0:0:
301,137,107716,1,2,3:2:0:0:
374,216,108049,6,0,L|370:282,1,60.2549994943199,2|10,0:2|0:2,0:0:0:0:
334,316,108383,2,0,P|305:322|275:310,1,60.2549994943199,2|2,3:2|0:2,0:0:0:0:
227,289,108716,2,0,L|223:357,2,60.2549994943199,10|2|2,0:2|3:2|0:2,0:0:0:0:
186,262,109216,1,2,0:2:0:0:
186,262,109383,37,2,3:2:0:0:
95,321,109716,1,2,0:2:0:0:
36,230,110049,2,0,L|33:158,1,60.2549994943199,10|2,0:2|0:2,0:0:0:0:
49,117,110383,1,2,3:2:0:0:
131,46,110716,6,0,P|164:38|195:46,1,60.2549994943199,2|10,0:2|0:2,0:0:0:0:
239,63,111049,2,0,P|272:71|303:63,1,60.2549994943199,2|2,3:2|0:2,0:0:0:0:
344,36,111383,1,10,0:2:0:0:
344,36,111549,1,2,3:2:0:0:
394,138,111883,1,2,3:2:0:0:
394,138,112049,2,0,B|473:129|473:129|481:156|507:174,1,120.50999898864,0|0,3:2|0:0,0:0:0:0:
469,269,112716,38,0,B|452:295|457:324|457:324|492:357,2,90.3824992414799,10|2|10,0:2|0:2|0:2,0:0:0:0:
421,242,113383,2,0,B|403:216|409:187|409:187|444:154,2,90.3824992414799,2|2|2,0:2|0:2|0:2,0:0:0:0:
379,277,114049,1,10,0:2:0:0:
318,222,114299,1,2,0:2:0:0:
272,149,114549,1,2,3:2:0:0:
272,149,114716,6,0,B|243:137|210:156|224:170|190:183|161:171,1,120.50999898864,2|2,3:2|0:2,0:0:0:0:
117,146,115216,1,0,3:2:0:0:
117,146,115383,1,10,0:2:0:0:
62,239,115716,1,2,3:2:0:0:
132,319,116049,38,0,L|197:320,1,60.2549994943199,2|8,3:2|0:2,0:0:0:0:
246,326,116383,2,0,L|247:261,1,60.2549994943199,2|0,0:2|3:2,0:0:0:0:
244,211,116716,1,10,3:2:0:0:
352,212,117049,2,0,L|353:147,1,60.2549994943199,2|0,0:2|3:2,0:0:0:0:
351,101,117383,21,0,0:0:0:0:
