osu file format v14

[General]
AudioFilename: audio.mp3
AudioLeadIn: 0
PreviewTime: 32071
Countdown: 0
SampleSet: Soft
StackLeniency: 0.7
Mode: 0
LetterboxInBreaks: 0
WidescreenStoryboard: 1

[Editor]
Bookmarks: 74737
DistanceSpacing: 1
BeatDivisor: 8
GridSize: 16
TimelineZoom: 2

[Metadata]
Title:Be Alright
TitleUnicode:大丈夫
Artist:Takayan
ArtistUnicode:たかやん
Creator:imaginative
Version:Kazuma's Easy
Source:
Tags:daijōbu daijobu daijoubu kazuma tycani fuiba_fuyu fuiba fuyu narrative japanese hip hop hiphop hip-hop j-rap jrap rap ずっと生きてね zutto ikite ne please live forever Nugodesuga ぬごですが F8 Entertainment
BeatmapID:3112359
BeatmapSetID:1476172

[Difficulty]
HPDrainRate:2
CircleSize:3
OverallDifficulty:2
ApproachRate:3
SliderMultiplier:1.7
SliderTickRate:1

[Events]
//Background and Video events
0,0,"among us.jpg",0,0
Video,0,"when the file name is sus.mp4"
//Break Periods
2,7916,9276
2,53583,62609
2,71916,73276
//Storyboard Layer 0 (Background)
//Storyboard Layer 1 (Fail)
//Storyboard Layer 2 (Pass)
//Storyboard Layer 3 (Foreground)
//Storyboard Layer 4 (Overlay)
//Storyboard Sound Samples

[TimingPoints]
50,666.666666666667,4,2,1,40,1,0
10716,-100,4,2,1,60,0,0
11882,-100,4,2,2,60,0,0
12715,-100,4,2,1,60,0,0
14549,-100,4,2,2,60,0,0
15382,-100,4,2,1,60,0,0
17215,-100,4,2,2,60,0,0
18049,-100,4,2,1,60,0,0
19882,-100,4,2,2,60,0,0
20715,-100,4,2,1,60,0,0
21215,-100,4,2,2,60,0,0
22049,-100,4,2,1,60,0,0
22549,-100,4,2,2,60,0,0
23382,-100,4,2,1,60,0,0
25215,-100,4,2,2,60,0,0
26049,-100,4,2,1,60,0,0
27882,-100,4,2,2,60,0,0
28715,-100,4,2,1,60,0,0
30049,-100,4,2,1,50,0,0
32050,-100,4,2,1,75,0,1
33215,-100,4,2,2,75,0,1
34048,-100,4,2,1,75,0,1
35882,-100,4,2,2,75,0,1
36715,-100,4,2,1,75,0,1
38548,-100,4,2,2,75,0,1
39382,-100,4,2,1,75,0,1
41215,-100,4,2,2,75,0,1
42049,-100,4,2,1,75,0,1
42549,-100,4,2,2,75,0,1
43382,-100,4,2,1,75,0,1
43882,-100,4,2,2,75,0,1
44715,-100,4,2,1,75,0,1
46548,-100,4,2,2,75,0,1
47382,-100,4,2,1,75,0,1
49215,-100,4,2,2,75,0,1
50048,-100,4,2,1,75,0,1
51882,-100,4,2,2,75,0,1
53383,-100,4,2,1,40,0,0
64049,-100,4,2,1,57,0,0
72050,-100,4,2,1,50,0,0
74716,-100,4,2,1,60,0,0
75882,-100,4,2,2,60,0,0
76715,-100,4,2,1,60,0,0
78549,-100,4,2,2,60,0,0
79382,-100,4,2,1,60,0,0
81215,-100,4,2,2,60,0,0
82049,-100,4,2,1,60,0,0
83882,-100,4,2,2,60,0,0
84715,-100,4,2,1,60,0,0
85215,-100,4,2,2,60,0,0
86049,-100,4,2,1,60,0,0
86549,-100,4,2,2,60,0,0
87382,-100,4,2,1,60,0,0
89215,-100,4,2,2,60,0,0
90049,-100,4,2,1,60,0,0
91882,-100,4,2,2,60,0,0
92715,-100,4,2,1,60,0,0
93383,-100,4,2,1,50,0,0
94716,-100,4,2,1,60,0,0
94799,-100,4,2,2,60,0,0
95383,-100,4,2,1,60,0,0
96050,-100,4,2,1,75,0,1
97215,-100,4,2,2,75,0,1
98048,-100,4,2,1,75,0,1
99882,-100,4,2,2,75,0,1
100715,-100,4,2,1,75,0,1
102548,-100,4,2,2,75,0,1
103382,-100,4,2,1,75,0,1
105215,-100,4,2,2,75,0,1
106049,-100,4,2,1,75,0,1
106549,-100,4,2,2,75,0,1
107382,-100,4,2,1,75,0,1
107882,-100,4,2,2,75,0,1
108715,-100,4,2,1,75,0,1
110548,-100,4,2,2,75,0,1
111382,-100,4,2,1,75,0,1
113215,-100,4,2,2,75,0,1
114048,-100,4,2,1,75,0,1
115882,-100,4,2,2,75,0,1
116716,-100,4,2,1,75,0,1
117383,-100,4,2,1,40,0,0

[Colours]
Combo1 : 212,212,212
Combo2 : 255,128,128
Combo3 : 255,198,170
Combo4 : 148,148,148

[HitObjects]
34,268,383,38,0,P|73:252|112:268,1,85,2|2,0:2|0:2,0:0:0:0:
175,324,1049,1,2,0:2:0:0:
239,268,1383,6,0,P|265:213|234:156,2,127.5,2|2|2,0:2|0:2|0:2,0:0:0:0:
47,48,3716,1,2,0:2:0:0:
112,101,4050,38,0,B|166:133|166:133|222:102,2,127.5,2|2|2,0:2|0:2|0:2,0:0:0:0:
382,41,6383,1,2,0:2:0:0:
339,114,6716,5,2,0:2:0:0:
449,178,7216,1,2,0:2:0:0:
339,243,7716,1,2,0:2:0:0:
60,280,10716,6,0,B|108:252|153:277|135:295|186:317|234:288,1,170,6|10,3:2|0:2,0:0:0:0:
284,238,11716,1,2,3:2:0:0:
220,181,12049,2,0,P|208:143|225:98,1,85,2|2,0:2|3:2,0:0:0:0:
276,36,12716,2,0,L|366:36,1,85,10|2,0:2|0:2,0:0:0:0:
423,94,13383,5,2,3:2:0:0:
423,263,14049,1,10,0:2:0:0:
368,328,14383,1,2,3:2:0:0:
313,263,14716,2,0,P|274:251|228:265,2,85,2|2|10,0:2|3:2|0:2,0:0:0:0:
452,164,16049,38,0,L|452:66,1,85,2|2,3:2|0:2,0:0:0:0:
392,18,16716,2,0,P|349:4|302:23,1,85,10|2,0:2|3:2,0:0:0:0:
247,71,17383,2,0,P|262:112|242:156,2,85,2|2|10,0:2|3:2|0:2,0:0:0:0:
182,15,18383,1,2,0:2:0:0:
118,71,18716,5,2,3:2:0:0:
26,214,19383,2,0,L|26:304,1,85,10|2,0:2|3:2,0:0:0:0:
91,353,20049,2,0,P|129:367|176:354,2,85,2|2|10,0:2|3:2|3:2,0:0:0:0:
26,299,21049,1,2,3:2:0:0:
91,244,21383,37,2,3:2:0:0:
40,81,22049,2,0,B|80:63|80:63|133:88,1,85,10|2,0:2|3:2,0:0:0:0:
185,130,22716,2,0,P|173:170|189:208,2,85,2|2|10,0:2|3:2|0:2,0:0:0:0:
248,73,23716,1,2,0:2:0:0:
310,130,24049,6,0,P|321:170|305:208,1,85,2|2,3:2|0:2,0:0:0:0:
248,272,24716,2,0,P|236:318|257:365,1,85,10|2,0:2|3:2,0:0:0:0:
332,353,25383,2,0,B|390:353|390:353|406:347|406:347|475:347,2,127.5,2|2|2,0:2|0:2|0:2,0:0:0:0:
247,352,26716,37,2,3:2:0:0:
135,223,27383,2,0,P|178:239|223:221,1,85,10|0,0:2|3:2,0:0:0:0:
281,176,28049,2,0,P|272:129|294:85,2,85,2|0|10,0:2|3:2|0:2,0:0:0:0:
348,228,29049,1,2,0:0:0:0:
415,176,29383,6,0,B|448:165|461:110|461:110|478:165|520:184,1,170,2|0,3:2|0:0,0:0:0:0:
466,303,32050,38,0,P|426:288|386:303,1,85,6|2,3:2|0:2,0:0:0:0:
321,354,32716,2,0,P|281:367|242:352,1,85,10|2,0:2|3:2,0:0:0:0:
187,287,33383,1,2,0:2:0:0:
187,202,33716,1,2,3:2:0:0:
124,144,34049,2,0,L|39:144,1,85,10|2,0:2|0:2,0:0:0:0:
39,58,34716,6,0,B|113:58|113:58|133:44|133:44|219:44,1,170,2|10,3:2|0:2,0:0:0:0:
289,43,35716,1,2,3:2:0:0:
349,102,36049,2,0,P|337:147|363:193,2,85,2|0|10,0:2|3:2|0:2,0:0:0:0:
412,45,37049,1,2,0:2:0:0:
474,102,37383,38,0,B|516:189|440:189|471:264,1,170,2|10,3:2|0:2,0:0:0:0:
430,339,38383,1,2,3:2:0:0:
345,339,38716,2,0,P|330:304|344:252,1,85,2|2,0:2|3:2,0:0:0:0:
376,182,39383,1,10,0:2:0:0:
376,97,39716,1,2,0:2:0:0:
317,35,40049,6,0,L|227:35,1,85,2|2,3:2|0:2,0:0:0:0:
146,35,40716,1,10,0:2:0:0:
81,89,41049,1,2,3:2:0:0:
146,143,41383,2,0,P|162:183|143:229,2,85,2|2|10,0:2|3:2|3:2,0:0:0:0:
81,89,42383,1,2,3:2:0:0:
15,143,42716,38,0,B|-10:191|12:237|25:218|49:271|17:318,1,170,6|10,3:2|0:2,0:0:0:0:
193,288,44049,2,0,B|177:245|177:245|202:198,2,85,2|2|10,0:2|3:2|0:2,0:0:0:0:
249,351,45049,1,2,0:2:0:0:
306,288,45383,6,0,B|379:288|379:288|403:306|403:306|488:306,1,170,2|10,3:2|0:2,0:0:0:0:
412,145,46716,2,0,P|371:157|322:135,2,85,2|2|10,0:2|3:2|0:2,0:0:0:0:
479,93,47716,1,0,0:0:0:0:
412,40,48049,38,0,B|364:15|318:37|337:50|284:74|237:42,1,170,0|10,3:2|0:2,0:0:0:0:
177,3,49049,1,0,3:2:0:0:
105,49,49383,2,0,L|105:137,1,85,2|0,0:2|3:2,0:0:0:0:
105,218,50049,1,10,0:2:0:0:
42,275,50383,1,0,0:0:0:0:
105,331,50716,6,0,P|146:344|198:322,2,85,2|2|10,3:2|0:2|0:2,0:0:0:0:
42,275,51716,1,2,3:2:0:0:
105,218,52049,2,0,P|147:204|195:223,1,85,2|2,3:2|0:2,0:0:0:0:
255,263,52716,2,0,P|295:274|334:260,1,85,2|2,3:2|0:2,0:0:0:0:
406,209,53383,5,0,0:0:0:0:
433,42,64049,6,0,B|408:90|430:136|443:117|467:170|435:217,1,170,2|10,0:2|0:2,0:0:0:0:
381,263,65049,1,2,0:2:0:0:
315,208,65383,2,0,P|258:179|199:221,2,127.5,2|2|2,0:2|0:2|0:2,0:0:0:0:
381,263,66716,37,2,0:2:0:0:
233,346,67383,2,0,P|190:361|147:343,1,85,8|0,0:2|0:0,0:0:0:0:
107,277,68049,2,0,P|51:305|-8:265,2,127.5,0|2|0,0:0|0:2|0:0,0:0:0:0:
165,214,69383,5,2,0:2:0:0:
76,69,70049,2,0,B|116:51|116:51|164:75,1,85,8|0,0:2|0:0,0:0:0:0:
221,119,70716,1,0,0:0:0:0:
304,22,71216,1,2,0:2:0:0:
386,119,71716,1,0,0:0:0:0:
473,359,74716,6,0,P|486:321|462:276,1,85,6|2,3:2|0:2,0:0:0:0:
407,222,75383,1,8,0:2:0:0:
407,137,75716,1,2,3:2:0:0:
341,82,76049,2,0,P|356:45|337:-4,2,85,2|2|10,0:2|3:2|0:2,0:0:0:0:
276,137,77049,1,2,0:2:0:0:
210,190,77383,6,0,B|153:219|153:219|91:183,2,127.5,2|2|2,3:2|0:2|3:2,0:0:0:0:
276,137,78716,2,0,P|287:96|273:57,1,85,2|2,0:2|3:2,0:0:0:0:
201,10,79383,2,0,L|111:10,1,85,10|0,0:2|0:0,0:0:0:0:
45,57,80049,37,0,3:2:0:0:
45,227,80716,2,0,B|84:211|84:211|132:231,1,85,10|2,0:2|3:2,0:0:0:0:
192,277,81383,2,0,B|231:293|231:293|270:277,1,85,2|2,0:2|3:2,0:0:0:0:
346,239,82049,1,10,0:2:0:0:
346,153,82383,1,2,0:2:0:0:
275,105,82716,6,0,P|343:66|421:111,1,170,0|10,3:2|0:2,0:0:0:0:
471,266,84049,2,0,L|471:361,2,85,2|2|10,0:2|3:2|3:2,0:0:0:0:
471,180,85049,1,2,3:2:0:0:
399,129,85383,38,0,B|322:96|322:167|236:134,1,170,2|10,3:2|0:2,0:0:0:0:
164,89,86383,1,2,3:2:0:0:
92,134,86716,2,0,P|78:178|100:226,2,85,2|2|10,0:2|3:2|0:2,0:0:0:0:
229,232,88049,6,0,P|246:271|233:311,1,85,2|2,3:2|0:2,0:0:0:0:
168,366,88716,2,0,L|83:366,1,85,10|2,0:2|3:2,0:0:0:0:
17,311,89383,2,0,P|2:271|21:222,2,85,2|2|10,0:2|3:2|0:2,0:0:0:0:
83,366,90383,1,2,0:2:0:0:
168,366,90716,37,2,3:2:0:0:
314,279,91383,2,0,B|331:238|331:238|309:195,1,85,10|0,0:2|3:2,0:0:0:0:
251,142,92049,1,2,0:2:0:0:
194,205,92383,1,0,3:2:0:0:
136,142,92716,2,0,P|124:99|146:59,1,85,10|0,0:2|0:0,0:0:0:0:
211,17,93383,5,2,0:2:0:0:
469,151,94716,2,0,L|469:243,1,85,2|2,3:2|0:2,0:0:0:0:
427,310,95383,1,10,0:2:0:0:
321,188,96049,38,0,L|321:96,1,85,6|2,3:2|0:2,0:0:0:0:
267,36,96716,2,0,P|227:23|188:37,1,85,10|2,0:2|3:2,0:0:0:0:
126,96,97383,1,2,0:2:0:0:
41,96,97716,1,2,3:2:0:0:
41,180,98049,2,0,L|40:274,1,85,10|2,0:2|0:2,0:0:0:0:
95,329,98716,6,0,B|143:354|189:332|170:319|223:295|270:327,1,170,2|10,3:2|0:2,0:0:0:0:
326,368,99716,1,2,3:2:0:0:
394,317,100049,2,0,P|408:277|395:237,2,85,2|0|10,0:2|3:2|0:2,0:0:0:0:
326,368,101049,1,2,0:2:0:0:
257,319,101383,38,0,B|257:254|257:254|236:227|236:227|236:156,1,170,2|10,3:2|0:2,0:0:0:0:
182,89,102383,1,2,3:2:0:0:
130,156,102716,2,0,L|130:252,1,85,2|2,0:2|3:2,0:0:0:0:
128,326,103383,1,10,0:2:0:0:
200,369,103716,1,2,0:2:0:0:
273,326,104049,6,0,P|311:341|352:324,1,85,2|2,3:2|0:2,0:0:0:0:
404,260,104716,1,10,0:2:0:0:
404,175,105049,1,2,3:2:0:0:
330,129,105383,2,0,P|314:89|333:43,2,85,2|2|10,0:2|3:2|3:2,0:0:0:0:
404,175,106383,1,2,3:2:0:0:
488,175,106716,38,0,B|512:209|488:262|475:243|453:289|478:335,1,170,6|10,3:2|0:2,0:0:0:0:
286,331,108049,2,0,P|299:291|284:253,2,85,2|2|10,0:2|3:2|0:2,0:0:0:0:
208,367,109049,1,2,0:2:0:0:
130,331,109383,6,0,B|130:258|130:258|112:234|112:234|112:149,1,170,2|10,3:2|0:2,0:0:0:0:
78,0,110716,2,0,P|37:-12|0:2,2,85,2|2|10,0:2|3:2|0:2,0:0:0:0:
139,63,111716,1,0,0:0:0:0:
204,116,112049,38,0,B|274:161|274:161|350:119,1,170,0|10,3:2|0:2,0:0:0:0:
411,60,113049,1,0,3:2:0:0:
472,119,113383,2,0,L|472:207,1,85,2|0,0:2|3:2,0:0:0:0:
398,246,114049,1,10,0:2:0:0:
330,297,114383,1,0,0:0:0:0:
261,246,114716,6,0,P|250:205|275:155,2,85,2|2|10,3:2|0:2|0:2,0:0:0:0:
330,297,115716,1,2,3:2:0:0:
261,346,116049,2,0,B|224:367|224:367|174:339,1,85,2|2,3:2|0:2,0:0:0:0:
139,275,116716,2,0,B|101:254|101:254|64:275,1,85,10|2,3:2|0:2,0:0:0:0:
3,333,117383,5,0,0:0:0:0:
