osu file format v14

[General]
AudioFilename: audio.mp3
AudioLeadIn: 0
PreviewTime: 32071
Countdown: 0
SampleSet: Soft
StackLeniency: 0.4
Mode: 0
LetterboxInBreaks: 0
WidescreenStoryboard: 1

[Editor]
Bookmarks: 74737
DistanceSpacing: 0.6
BeatDivisor: 8
GridSize: 32
TimelineZoom: 1.7

[Metadata]
Title:Be Alright
TitleUnicode:大丈夫
Artist:Takayan
ArtistUnicode:たかやん
Creator:imaginative
Version:Affection
Source:
Tags:daijōbu daijobu daijoubu kazuma tycani fuiba_fuyu fuiba fuyu narrative japanese hip hop hiphop hip-hop j-rap jrap rap ずっと生きてね zutto ikite ne please live forever Nugodesuga ぬごですが F8 Entertainment
BeatmapID:3029050
BeatmapSetID:1476172

[Difficulty]
HPDrainRate:5.5
CircleSize:4.3
OverallDifficulty:8.7
ApproachRate:9.2
SliderMultiplier:3.59999990463257
SliderTickRate:1

[Events]
//Background and Video events
0,0,"among us.jpg",0,0
Video,0,"when the file name is sus.mp4"
//Break Periods
//Storyboard Layer 0 (Background)
//Storyboard Layer 1 (Fail)
//Storyboard Layer 2 (Pass)
//Storyboard Layer 3 (Foreground)
//Storyboard Layer 4 (Overlay)
//Storyboard Sound Samples

[TimingPoints]
50,666.666666666667,4,2,1,40,1,0
10716,-100,4,2,1,60,0,0
11049,-90.9090909090909,4,2,1,60,0,0
11882,-90.9090909090909,4,2,2,60,0,0
12715,-90.9090909090909,4,2,1,60,0,0
14549,-90.9090909090909,4,2,2,60,0,0
15382,-90.9090909090909,4,2,1,60,0,0
17215,-90.9090909090909,4,2,2,60,0,0
18049,-90.9090909090909,4,2,1,60,0,0
19882,-90.9090909090909,4,2,2,60,0,0
20383,-76.9230769230769,4,2,2,60,0,0
20632,-76.9230769230769,4,2,2,60,0,0
20716,-76.9230769230769,4,2,1,60,0,0
20965,-76.9230769230769,4,2,1,5,0,0
21049,-76.9230769230769,4,2,1,60,0,0
21215,-76.9230769230769,4,2,2,60,0,0
21383,-90.9090909090909,4,2,2,60,0,0
22049,-90.9090909090909,4,2,1,60,0,0
22299,-90.9090909090909,4,2,1,5,0,0
22383,-90.9090909090909,4,2,1,60,0,0
22549,-90.9090909090909,4,2,2,60,0,0
23383,-76.9230769230769,4,2,1,60,0,0
23632,-76.9230769230769,4,2,1,5,0,0
23716,-90.9090909090909,4,2,1,60,0,0
24966,-90.9090909090909,4,2,1,5,0,0
25049,-90.9090909090909,4,2,1,60,0,0
25215,-90.9090909090909,4,2,2,60,0,0
26049,-90.9090909090909,4,2,1,60,0,0
26299,-90.9090909090909,4,2,1,5,0,0
26383,-90.9090909090909,4,2,1,60,0,0
26633,-90.9090909090909,4,2,1,5,0,0
26716,-90.9090909090909,4,2,1,60,0,0
27882,-90.9090909090909,4,2,2,60,0,0
28715,-90.9090909090909,4,2,1,60,0,0
29633,-90.9090909090909,4,2,1,5,0,0
29716,-142.857142857143,4,2,1,60,0,0
30049,-142.857142857143,4,2,1,50,0,0
32050,-71.4285714285714,4,2,1,75,0,1
32298,-71.4285714285714,4,2,1,5,0,1
32383,-71.4285714285714,4,2,1,75,0,1
32632,-71.4285714285714,4,2,1,5,0,1
32716,-71.4285714285714,4,2,1,75,0,1
32965,-71.4285714285714,4,2,1,5,0,1
33049,-71.4285714285714,4,2,1,75,0,1
33215,-71.4285714285714,4,2,2,75,0,1
33954,-71.4285714285714,4,2,2,75,0,1
33965,-71.4285714285714,4,2,2,5,0,1
34049,-71.4285714285714,4,2,1,75,0,1
34216,-64.5161290322581,4,2,1,75,0,1
34466,-64.5161290322581,4,2,1,5,0,1
34549,-64.5161290322581,4,2,1,75,0,1
35049,-74.0740740740741,4,2,1,75,0,1
35299,-74.0740740740741,4,2,1,5,0,1
35383,-74.0740740740741,4,2,1,75,0,1
35882,-74.0740740740741,4,2,2,75,0,1
36633,-74.0740740740741,4,2,2,5,0,1
36716,-74.0740740740741,4,2,1,75,0,1
38548,-74.0740740740741,4,2,2,75,0,1
39382,-74.0740740740741,4,2,1,75,0,1
41215,-74.0740740740741,4,2,2,75,0,1
41966,-74.0740740740741,4,2,2,5,0,1
42049,-74.0740740740741,4,2,1,75,0,1
42549,-74.0740740740741,4,2,2,75,0,1
42716,-60.6060606060606,4,2,2,75,0,1
42966,-60.6060606060606,4,2,2,5,0,1
43049,-74.0740740740741,4,2,2,75,0,1
43382,-74.0740740740741,4,2,1,75,0,1
43882,-74.0740740740741,4,2,2,75,0,1
44715,-74.0740740740741,4,2,1,75,0,1
45383,-60.6060606060606,4,2,1,75,0,1
45632,-60.6060606060606,4,2,1,5,0,1
45716,-74.0740740740741,4,2,1,75,0,1
46548,-74.0740740740741,4,2,2,75,0,1
47382,-74.0740740740741,4,2,1,75,0,1
47799,-74.0740740740741,4,2,1,5,0,1
47883,-74.0740740740741,4,2,1,75,0,1
49215,-74.0740740740741,4,2,2,75,0,1
50048,-74.0740740740741,4,2,1,75,0,1
50966,-74.0740740740741,4,2,1,5,0,1
51049,-74.0740740740741,4,2,1,75,0,1
51299,-74.0740740740741,4,2,1,5,0,1
51383,-74.0740740740741,4,2,1,75,0,1
51633,-74.0740740740741,4,2,1,5,0,1
51716,-74.0740740740741,4,2,1,75,0,1
51882,-74.0740740740741,4,2,2,75,0,1
51966,-74.0740740740741,4,2,2,5,0,1
52049,-74.0740740740741,4,2,2,75,0,1
52216,-71.4285714285714,4,2,2,75,0,1
52299,-71.4285714285714,4,2,2,5,0,1
52383,-41.6666666666667,4,2,2,75,0,1
52883,-71.4285714285714,4,2,2,75,0,1
52966,-71.4285714285714,4,2,2,5,0,1
53049,-41.6666666666667,4,2,2,75,0,1
53383,-41.6666666666667,4,2,1,40,0,0
54049,-111.111111111111,4,2,1,40,0,0
64049,-100,4,2,1,57,0,0
72049,-111.111111111111,4,2,1,50,0,0
74633,-111.111111111111,4,2,1,5,0,0
74716,-83.3333333333333,4,2,1,60,0,0
75632,-83.3333333333333,4,2,1,5,0,0
75716,-83.3333333333333,4,2,1,60,0,0
75882,-83.3333333333333,4,2,2,60,0,0
76715,-83.3333333333333,4,2,1,60,0,0
78549,-83.3333333333333,4,2,2,60,0,0
79382,-83.3333333333333,4,2,1,60,0,0
80298,-83.3333333333333,4,2,1,5,0,0
80383,-76.9230769230769,4,2,1,60,0,0
80632,-76.9230769230769,4,2,1,5,0,0
80716,-86.9565217391304,4,2,1,60,0,0
81215,-86.9565217391304,4,2,2,60,0,0
82049,-86.9565217391304,4,2,1,60,0,0
82633,-86.9565217391304,4,2,1,5,0,0
82716,-86.9565217391304,4,2,1,60,0,0
83633,-86.9565217391304,4,2,1,5,0,0
83716,-86.9565217391304,4,2,1,60,0,0
83882,-86.9565217391304,4,2,2,60,0,0
84633,-86.9565217391304,4,2,2,5,0,0
84716,-86.9565217391304,4,2,1,60,0,0
85215,-86.9565217391304,4,2,2,60,0,0
85633,-86.9565217391304,4,2,2,5,0,0
85716,-86.9565217391304,4,2,2,60,0,0
86049,-86.9565217391304,4,2,1,60,0,0
86549,-86.9565217391304,4,2,2,60,0,0
86633,-86.9565217391304,4,2,2,5,0,0
86716,-86.9565217391304,4,2,2,60,0,0
86966,-86.9565217391304,4,2,2,5,0,0
87049,-86.9565217391304,4,2,2,60,0,0
87382,-86.9565217391304,4,2,1,60,0,0
89215,-86.9565217391304,4,2,2,60,0,0
90049,-86.9565217391304,4,2,1,60,0,0
90966,-86.9565217391304,4,2,1,5,0,0
91049,-86.9565217391304,4,2,1,60,0,0
91882,-86.9565217391304,4,2,2,60,0,0
92715,-86.9565217391304,4,2,1,60,0,0
93383,-83.3333333333333,4,2,1,50,0,0
94633,-83.3333333333333,4,2,1,5,0,0
94716,-83.3333333333333,4,2,1,60,0,0
94799,-83.3333333333333,4,2,2,60,0,0
95383,-83.3333333333333,4,2,1,60,0,0
96050,-71.4285714285714,4,2,1,75,0,1
96298,-71.4285714285714,4,2,1,5,0,1
96383,-71.4285714285714,4,2,1,75,0,1
96632,-71.4285714285714,4,2,1,5,0,1
96716,-71.4285714285714,4,2,1,75,0,1
96965,-71.4285714285714,4,2,1,5,0,1
97049,-71.4285714285714,4,2,1,75,0,1
97215,-71.4285714285714,4,2,2,75,0,1
97965,-71.4285714285714,4,2,2,5,0,1
98049,-71.4285714285714,4,2,1,75,0,1
98216,-64.5161290322581,4,2,1,75,0,1
98466,-64.5161290322581,4,2,1,5,0,1
98549,-64.5161290322581,4,2,1,75,0,1
98716,-74.0740740740741,4,2,1,75,0,1
99299,-74.0740740740741,4,2,1,5,0,1
99383,-74.0740740740741,4,2,1,75,0,1
99882,-74.0740740740741,4,2,2,75,0,1
100633,-74.0740740740741,4,2,2,5,0,1
100716,-74.0740740740741,4,2,1,75,0,1
102548,-74.0740740740741,4,2,2,75,0,1
103382,-74.0740740740741,4,2,1,75,0,1
105215,-74.0740740740741,4,2,2,75,0,1
105966,-74.0740740740741,4,2,2,5,0,1
106049,-74.0740740740741,4,2,1,75,0,1
106549,-74.0740740740741,4,2,2,75,0,1
106716,-60.6060606060606,4,2,2,75,0,1
106966,-60.6060606060606,4,2,2,5,0,1
107049,-74.0740740740741,4,2,2,75,0,1
107382,-74.0740740740741,4,2,1,75,0,1
107882,-74.0740740740741,4,2,2,75,0,1
108715,-74.0740740740741,4,2,1,75,0,1
109383,-60.6060606060606,4,2,1,75,0,1
109716,-74.0740740740741,4,2,1,75,0,1
110548,-74.0740740740741,4,2,2,75,0,1
111382,-74.0740740740741,4,2,1,75,0,1
111549,-68.9655172413793,4,2,1,75,0,1
111799,-68.9655172413793,4,2,1,5,0,1
111883,-74.0740740740741,4,2,1,75,0,1
112299,-74.0740740740741,4,2,1,5,0,1
112383,-74.0740740740741,4,2,1,75,0,1
113215,-74.0740740740741,4,2,2,75,0,1
114048,-74.0740740740741,4,2,1,75,0,1
114966,-74.0740740740741,4,2,1,5,0,1
115049,-74.0740740740741,4,2,1,75,0,1
115633,-74.0740740740741,4,2,1,5,0,1
115716,-74.0740740740741,4,2,1,75,0,1
115882,-74.0740740740741,4,2,2,75,0,1
115966,-74.0740740740741,4,2,2,5,0,1
116049,-71.4285714285714,4,2,2,75,0,1
116383,-41.6666666666667,4,2,2,75,0,1
116716,-71.4285714285714,4,2,1,75,0,1
117049,-41.6666666666667,4,2,1,75,0,1
117383,-111.111111111111,4,2,1,40,0,0

[Colours]
Combo1 : 212,212,212
Combo2 : 255,128,128
Combo3 : 255,198,170
Combo4 : 148,148,148

[HitObjects]
232,55,10384,37,2,0:2:0:0:
58,204,10550,1,2,0:2:0:0:
58,204,10633,1,2,0:2:0:0:
58,204,10717,21,6,3:2:0:0:
139,332,10884,1,2,0:2:0:0:
47,186,11050,2,0,B|61:72,1,99.0000030212403,2|0,0:2|0:0,0:0:0:0:
250,32,11384,2,0,B|264:146,1,99.0000030212403,10|0,0:2|0:0,0:0:0:0:
334,170,11634,1,2,0:2:0:0:
334,170,11717,1,2,3:2:0:0:
484,70,11884,1,10,0:2:0:0:
420,256,12050,6,0,B|423:141,1,99.0000030212403,2|8,0:2|0:2,0:0:0:0:
485,352,12384,1,2,3:2:0:0:
324,376,12550,1,2,0:2:0:0:
420,256,12717,1,10,0:2:0:0:
259,280,12884,1,2,3:2:0:0:
349,88,13050,2,0,B|344:192,1,99.0000030212403,2|0,0:2|3:2,0:0:0:0:
240,22,13384,37,2,3:2:0:0:
124,130,13550,1,2,0:2:0:0:
124,130,13634,1,2,0:2:0:0:
124,130,13717,1,2,0:2:0:0:
227,268,13884,1,2,0:2:0:0:
22,279,14050,5,10,0:2:0:0:
119,171,14217,1,2,0:2:0:0:
130,376,14384,1,2,3:2:0:0:
227,268,14550,1,10,0:2:0:0:
359,381,14717,37,2,0:2:0:0:
330,298,14884,1,10,3:2:0:0:
418,140,15050,1,2,3:2:0:0:
389,223,15217,1,2,0:2:0:0:
306,59,15384,2,0,P|350:39|396:53,1,99.0000030212403,10|0,0:2|3:2,0:0:0:0:
306,217,15717,2,0,P|265:237|216:223,1,99.0000030212403,0|0,0:0|3:2,0:0:0:0:
164,39,16050,5,2,3:2:0:0:
187,121,16217,1,2,0:2:0:0:
16,112,16384,1,2,0:2:0:0:
39,194,16550,1,2,0:2:0:0:
187,121,16717,1,10,0:2:0:0:
210,203,16884,1,2,0:2:0:0:
39,194,17050,1,2,3:2:0:0:
62,276,17217,1,10,0:2:0:0:
251,292,17384,37,2,0:2:0:0:
168,317,17550,1,10,0:2:0:0:
317,169,17717,1,2,3:2:0:0:
236,190,17884,1,2,0:2:0:0:
433,250,18050,2,0,P|396:273|337:258,1,99.0000030212403,10|0,0:2|3:2,0:0:0:0:
493,65,18384,2,0,B|506:175,1,99.0000030212403,2|0,0:2|0:0,0:0:0:0:
369,22,18717,5,2,3:2:0:0:
325,100,18884,1,2,3:2:0:0:
144,53,19050,1,2,0:2:0:0:
188,131,19217,1,2,0:2:0:0:
377,180,19384,1,10,0:2:0:0:
333,258,19550,1,2,0:2:0:0:
152,211,19717,1,2,3:2:0:0:
196,289,19884,1,10,0:2:0:0:
385,338,20050,37,2,0:2:0:0:
441,236,20217,1,10,3:2:0:0:
319,117,20383,1,2,3:2:0:0:
457,162,20550,1,2,0:2:0:0:
330,100,20717,2,0,B|354:156|354:156|480:144,1,175.499991966248,10|0,3:2|0:0,0:0:0:0:
344,83,21050,1,2,3:2:0:0:
479,128,21217,1,8,0:2:0:0:
382,15,21384,6,0,P|330:2|290:31,1,99.0000030212403,2|2,3:2|0:2,0:0:0:0:
186,149,21717,2,0,P|238:162|278:133,1,99.0000030212403,2|2,0:2|0:2,0:0:0:0:
69,25,22050,2,0,B|42:40|13:46|13:46|33:135,1,148.50000453186,10|0,0:2|0:0,0:0:0:0:
54,204,22384,1,2,3:2:0:0:
213,162,22550,1,10,0:2:0:0:
87,295,22717,38,0,P|35:308|-5:279,1,99.0000030212403,2|10,0:2|0:2,0:0:0:0:
201,338,23051,2,0,P|242:361|288:347,1,99.0000030212403,2|2,3:2|0:2,0:0:0:0:
79,176,23384,2,0,B|43:142|42:106|53:61|99:51|126:80,1,175.499991966248,10|0,0:2|0:0,0:0:0:0:
179,136,23717,2,0,P|228:154|282:135,1,99.0000030212403,2|0,0:2|0:0,0:0:0:0:
434,33,24050,5,2,3:2:0:0:
364,144,24217,1,2,3:2:0:0:
508,290,24384,1,2,0:2:0:0:
438,179,24550,1,2,0:2:0:0:
284,303,24717,2,0,B|322:286|363:307|342:326|384:348|420:335,1,148.50000453186,10|0,0:2|0:0,0:0:0:0:
489,309,25050,1,2,3:2:0:0:
379,225,25217,1,10,0:2:0:0:
303,372,25384,38,0,B|252:387|252:387|206:359,1,99.0000030212403,2|10,0:2|0:2,0:0:0:0:
25,270,25717,2,0,B|76:255|76:255|122:283,1,99.0000030212403,2|2,3:2|0:2,0:0:0:0:
153,304,25967,1,2,0:2:0:0:
153,304,26050,2,0,B|114:277|114:277|144:170,1,148.50000453186,10|0,0:2|0:0,0:0:0:0:
169,108,26384,2,0,P|120:127|159:91,1,148.50000453186,2|0,0:2|0:0,0:0:0:0:
142,114,26717,1,2,3:2:0:0:
142,114,26884,1,2,0:2:0:0:
283,50,27050,2,0,L|274:104,2,49.5000015106202,0|0|0,0:0|0:0|3:2,0:0:0:0:
410,142,27384,6,0,B|389:157|367:159|367:159|380:189|380:225,1,99.0000030212403,10|0,0:2|0:0,0:0:0:0:
395,248,27634,2,0,B|416:263|438:265|438:265|425:295|425:331,1,99.0000030212403,2|0,0:2|0:0,0:0:0:0:
417,358,27884,1,10,0:2:0:0:
266,297,28050,2,0,B|233:301|233:301|209:328|209:328|168:333,1,99.0000030212403,2|8,0:2|0:2,0:0:0:0:
137,334,28300,2,0,B|104:330|104:330|80:303|80:303|39:298,1,99.0000030212403,2|0,0:2|0:0,0:0:0:0:
12,294,28550,1,2,0:2:0:0:
98,203,28717,2,0,P|118:158|101:110,1,99.0000030212403,10|0,0:2|3:2,0:0:0:0:
67,93,28966,1,2,0:2:0:0:
67,93,29050,1,2,0:0:0:0:
189,56,29217,1,2,3:2:0:0:
288,229,29384,38,0,P|338:226|375:136,1,148.50000453186,2|0,3:2|0:0,0:0:0:0:
360,77,29717,2,0,L|365:34,2,31.4999990386963,2|0|0,0:2|0:0|3:2,0:0:0:0:
307,159,30050,1,0,0:0:0:0:
146,44,30384,1,2,0:2:0:0:
126,118,30550,1,2,0:2:0:0:
87,229,30717,6,0,P|84:262|79:299,2,62.9999964084627,0|2|2,0:0|0:2|0:2,0:0:0:0:
202,270,31216,1,2,0:2:0:0:
80,291,31383,2,0,P|84:260|87:229,2,62.9999964084627,2|2|2,0:2|0:2|0:2,0:0:0:0:
480,87,32050,38,0,B|433:61|384:91|402:114|346:137|302:104,1,188.999994232178,6|0,3:2|0:0,0:0:0:0:
186,48,32384,2,0,B|289:28|289:28|312:55|317:76|301:113,1,188.999994232178,2|0,0:2|0:0,0:0:0:0:
288,185,32717,2,0,B|234:263|234:263|169:190,1,188.999994232178,10|0,0:2|0:0,0:0:0:0:
122,132,33050,2,0,B|88:190|88:190|116:243,1,125.999996154785,2|8,3:2|0:2,0:0:0:0:
342,340,33384,6,0,B|287:372|287:372|223:349,1,125.999996154785,2|8,0:2|0:2,0:0:0:0:
89,189,33717,2,0,B|42:203|1:211|1:211|12:255|19:316,1,188.999994232178,2|0,3:2|0:0,0:0:0:0:
27,376,34050,1,10,0:2:0:0:
162,164,34217,2,0,B|213:135|266:168|247:193|308:218|356:182,1,209.250001596451,0|0,3:2|0:0,0:0:0:0:
308,125,34550,1,0,3:2:0:0:
450,312,34717,37,2,3:2:0:0:
512,145,34884,1,2,0:2:0:0:
331,66,35050,2,0,P|273:99|340:97,1,182.250000695229,2|0,0:2|0:0,0:0:0:0:
307,91,35384,1,10,0:2:0:0:
267,239,35550,1,2,0:2:0:0:
110,251,35717,1,2,3:2:0:0:
56,119,35884,1,10,0:2:0:0:
287,255,36050,6,0,B|324:207|324:207|290:154,1,121.500000463486,2|10,0:2|3:2,0:0:0:0:
7,308,36384,2,0,B|52:334|102:304|84:281|139:259|178:282,1,182.250000695229,0|0,3:2|0:0,0:0:0:0:
144,351,36717,1,10,0:2:0:0:
39,241,36884,1,2,3:2:0:0:
198,159,37050,1,2,0:2:0:0:
175,281,37217,1,2,3:2:0:0:
291,42,37384,38,0,B|358:45|358:45|401:143|401:143|474:147,1,243.000000926971,2|2,3:2|0:2,0:0:0:0:
358,45,37884,1,2,0:2:0:0:
264,258,38050,1,10,0:2:0:0:
148,208,38217,1,2,0:2:0:0:
256,110,38384,1,2,3:2:0:0:
160,368,38550,1,10,0:2:0:0:
0,135,38717,5,2,0:2:0:0:
127,213,38884,1,10,0:2:0:0:
275,189,39050,2,0,B|328:180|328:180|343:183|343:183|410:173,1,121.500000463486,2|0,3:2|0:0,0:0:0:0:
389,382,39384,1,10,0:2:0:0:
289,275,39550,1,2,3:2:0:0:
494,281,39717,1,2,0:2:0:0:
395,176,39884,1,2,0:2:0:0:
463,347,40050,37,2,3:2:0:0:
289,275,40217,1,2,3:2:0:0:
189,384,40384,1,2,0:2:0:0:
364,327,40551,1,2,0:2:0:0:
207,244,40717,5,10,0:2:0:0:
95,287,40884,1,2,0:2:0:0:
0,148,41050,1,2,3:2:0:0:
145,0,41217,1,10,0:2:0:0:
387,218,41384,38,0,B|331:239|331:239|275:210,1,121.500000463486,2|0,0:2|3:2,0:0:0:0:
510,82,41717,2,0,B|457:108|457:108|474:232,1,182.250000695229,2|0,3:2|0:0,0:0:0:0:
483,299,42050,1,10,3:2:0:0:
222,294,42217,1,0,0:0:0:0:
233,288,42300,1,0,0:0:0:0:
244,279,42383,2,0,B|300:252|300:252|358:289,1,121.500000463486,2|8,3:2|0:2,0:0:0:0:
324,31,42717,6,0,B|356:-4|410:8|423:61|436:103|371:165,1,222.75000212431,6|0,3:2|0:0,0:0:0:0:
197,206,43050,2,0,P|257:200|317:194,1,121.500000463486,2|0,0:2|0:0,0:0:0:0:
69,25,43384,1,10,0:2:0:0:
126,189,43550,1,2,0:2:0:0:
0,377,43717,1,2,3:2:0:0:
57,213,43883,1,10,0:2:0:0:
249,350,44050,37,2,0:2:0:0:
248,143,44217,1,10,0:2:0:0:
364,243,44383,1,2,3:2:0:0:
144,244,44550,1,2,0:2:0:0:
440,86,44717,1,10,0:2:0:0:
375,262,44884,1,2,3:2:0:0:
512,174,45050,1,2,0:2:0:0:
325,104,45217,1,2,0:2:0:0:
511,348,45384,6,0,L|433:353,1,74.2500007081032,2|0,3:2|0:0,0:0:0:0:
422,193,45550,2,0,L|348:198,1,74.2500007081032,0|0,3:2|0:0,0:0:0:0:
255,384,45717,2,0,P|282:334|252:269,1,121.500000463486,2|0,0:2|0:0,0:0:0:0:
59,289,46050,1,10,0:2:0:0:
180,332,46217,1,2,0:2:0:0:
187,164,46384,1,2,3:2:0:0:
75,204,46550,1,10,0:2:0:0:
142,42,46717,37,2,0:2:0:0:
75,204,46884,1,10,0:2:0:0:
288,253,47050,1,2,3:2:0:0:
261,81,47217,1,2,0:2:0:0:
404,38,47384,1,10,0:2:0:0:
186,136,47550,2,0,B|271:168|271:168|366:109,1,182.250000695229,2|0,3:2|0:0,0:0:0:0:
411,66,47884,1,2,3:2:0:0:
186,136,48050,6,0,B|156:80|156:80|188:30,1,121.500000463486,0|0,3:2|0:0,0:0:0:0:
74,286,48384,2,0,L|66:225,2,60.7500002317429,0|0|0,0:0|0:0|3:2,0:0:0:0:
207,349,48717,38,0,B|231:373|263:367|263:367|288:339|318:339,1,121.500000463486,10|0,0:2|0:0,0:0:0:0:
386,325,48967,2,0,B|410:300|442:306|442:306|467:335|497:334,1,121.500000463486,2|0,0:2|0:0,0:0:0:0:
500,264,49217,1,10,0:2:0:0:
351,204,49384,2,0,B|313:177|313:177|321:87,1,121.500000463486,2|8,0:2|0:2,0:0:0:0:
344,37,49634,2,0,B|317:75|317:75|227:67,1,121.500000463486,2|0,0:2|0:0,0:0:0:0:
168,61,49884,1,2,0:2:0:0:
0,233,50050,2,0,P|60:241|105:204,1,121.500000463486,10|0,0:2|3:2,0:0:0:0:
122,136,50300,2,0,P|145:191|199:212,1,121.500000463486,2|0,0:2|0:0,0:0:0:0:
274,212,50550,1,2,3:2:0:0:
59,306,50717,6,0,B|128:309|128:309|158:343|158:343|237:346,1,182.250000695229,2|0,3:2|0:0,0:0:0:0:
260,269,51050,2,0,L|187:266,1,60.7500002317429,2|0,0:2|0:0,0:0:0:0:
314,382,51217,2,0,L|374:384,1,60.7500002317429,0|0,3:2|0:0,0:0:0:0:
498,226,51384,2,0,B|529:194|534:156|509:116|509:116|469:114|450:148,1,182.250000695229,10|0,0:2|0:0,0:0:0:0:
394,214,51717,2,0,B|363:246|358:284|383:324|383:324|423:326|436:300,1,182.250000695229,2|0,3:2|0:0,0:0:0:0:
450,142,52050,37,2,3:2:0:0:
450,142,52134,1,8,0:2:0:0:
450,142,52217,2,0,L|381:140,1,62.9999980773926,8|0,0:2|0:0,0:0:0:0:
201,238,52384,2,0,B|163:138|163:138|212:40,1,215.999993408203,2|0,0:2|3:2,0:0:0:0:
450,142,52717,5,2,3:2:0:0:
450,142,52801,1,8,0:2:0:0:
450,142,52884,2,0,L|381:140,1,62.9999980773926,8|0,0:2|0:0,0:0:0:0:
189,40,53050,2,0,B|140:138|140:138|178:238,1,215.999993408203,2|0,0:2|3:2,0:0:0:0:
472,142,53383,5,0,0:0:0:0:
472,142,54050,6,0,B|390:129|390:129|367:147|363:179|377:204,1,161.999995056153,2|2,0:2|0:2,0:0:0:0:
397,354,54717,1,2,0:2:0:0:
413,265,54884,1,2,0:2:0:0:
308,369,55051,1,2,0:2:0:0:
324,280,55217,1,2,0:2:0:0:
219,384,55384,1,2,0:2:0:0:
219,384,55884,1,2,0:2:0:0:
238,197,56050,37,2,0:2:0:0:
170,251,56217,1,2,0:2:0:0:
67,186,56384,2,0,L|169:168,1,80.9999975280763,2|2,0:2|0:2,0:0:0:0:
301,104,56717,5,2,0:2:0:0:
233,158,56884,1,2,0:2:0:0:
130,93,57051,2,0,L|232:75,1,80.9999975280763,2|2,0:2|0:2,0:0:0:0:
319,246,57384,37,2,0:2:0:0:
303,157,57551,1,2,0:2:0:0:
408,261,57716,1,2,0:2:0:0:
392,172,57884,1,2,0:2:0:0:
497,276,58051,1,2,0:2:0:0:
497,276,58384,1,2,0:2:0:0:
497,276,58550,1,2,0:2:0:0:
402,146,58717,5,2,0:2:0:0:
281,191,58883,2,0,B|330:165|363:192|348:211|393:232|434:209,1,161.999995056153,2|2,0:2|0:2,0:0:0:0:
375,50,59384,1,2,0:2:0:0:
229,109,59550,2,0,P|268:117|313:98,1,80.9999975280763,2|2,0:2|0:2,0:0:0:0:
181,28,59884,1,2,0:2:0:0:
69,163,60050,37,2,0:2:0:0:
50,61,60217,1,2,0:2:0:0:
162,203,60384,1,2,0:2:0:0:
181,101,60551,1,2,0:2:0:0:
46,238,60717,2,0,L|59:320,1,80.9999975280763,2|2,0:2|0:2,0:0:0:0:
46,238,61050,1,2,0:2:0:0:
344,333,61384,6,0,B|264:317,1,80.9999975280763,2|2,0:2|0:2,0:0:0:0:
175,301,61717,1,2,0:2:0:0:
272,227,61884,1,2,0:2:0:0:
200,133,62050,2,0,P|184:169|194:207,1,80.9999975280763,2|2,0:2|0:2,0:0:0:0:
300,82,62384,2,0,P|315:45|305:7,1,80.9999975280763,2|2,0:2|0:2,0:0:0:0:
69,70,62717,37,2,0:2:0:0:
179,45,62884,1,2,0:2:0:0:
61,154,63050,1,2,0:2:0:0:
171,129,63217,1,2,0:2:0:0:
38,305,63384,2,0,L|32:224,1,80.9999975280763,2|2,0:2|0:2,0:0:0:0:
170,284,63717,2,0,L|164:365,1,80.9999975280763,2|2,0:2|0:2,0:0:0:0:
290,124,64050,6,0,B|352:127|352:127|398:168|398:168|458:171,1,180,2|0,0:2|0:0,0:0:0:0:
325,200,64550,1,2,0:2:0:0:
433,101,64717,2,0,L|440:11,1,90,10|2,0:2|0:2,0:0:0:0:
312,27,65050,1,2,0:2:0:0:
312,27,65217,1,2,0:2:0:0:
151,189,65384,38,0,B|267:166|267:166|310:222,1,180,2|0,0:2|0:0,0:0:0:0:
235,246,65884,1,2,0:2:0:0:
135,118,66050,2,0,L|230:100,1,90,10|2,0:2|0:2,0:0:0:0:
42,141,66384,1,2,0:2:0:0:
42,141,66550,1,2,0:2:0:0:
145,288,66717,6,0,P|82:305|33:217,1,180,2|2,0:2|0:2,0:0:0:0:
46,114,67217,2,0,B|86:92|86:92|135:113,1,90,2|8,0:2|0:2,0:0:0:0:
272,185,67550,2,0,B|232:207|232:207|183:186,1,90,2|0,0:2|0:0,0:0:0:0:
303,48,67884,38,0,B|346:23|392:51|375:73|427:94|468:63,1,180,2|2,0:2|0:2,0:0:0:0:
333,111,68384,1,2,0:2:0:0:
474,214,68550,1,2,0:2:0:0:
474,214,68717,2,0,B|437:233|400:262|400:262|375:221|340:190,1,180,8|0,0:2|0:0,0:0:0:0:
341,191,69217,1,2,0:2:0:0:
219,329,69384,6,0,P|276:308|217:319,1,180,2|2,0:2|0:2,0:0:0:0:
251,321,69884,2,0,P|212:343|165:329,1,90,2|8,0:2|0:2,0:0:0:0:
147,195,70217,2,0,P|186:173|233:187,1,90,2|0,0:2|0:0,0:0:0:0:
65,336,70550,38,0,B|47:357|48:384|48:384|29:250,1,180,2|2,0:2|0:2,0:0:0:0:
8,151,71050,1,2,0:2:0:0:
149,267,71217,1,2,0:2:0:0:
149,267,71384,2,0,B|196:253|237:245|237:245|227:204|221:158,1,180,8|0,0:2|0:0,0:0:0:0:
205,44,71883,1,2,0:2:0:0:
147,190,72050,6,0,L|132:102,2,80.9999975280763,2|0|2,0:2|0:0|0:2,0:0:0:0:
49,157,72550,1,2,0:2:0:0:
149,267,72882,1,2,0:2:0:0:
249,150,73216,1,2,0:2:0:0:
256,192,73384,12,0,74634,0:0:0:0:
256,192,74717,5,6,3:2:0:0:
371,320,74884,2,0,L|376:267,1,53.9999983520508,2|0,0:2|0:0,0:0:0:0:
463,153,75050,1,2,0:2:0:0:
463,153,75134,1,2,0:2:0:0:
463,153,75217,2,0,L|458:206,1,53.9999983520508,2|0,0:2|0:0,0:0:0:0:
357,344,75384,6,0,B|315:352|285:314|285:314|239:300|198:336,1,161.999995056153,8|0,0:2|0:0,0:0:0:0:
148,362,75717,1,2,3:2:0:0:
219,203,75884,37,10,0:2:0:0:
219,203,75967,1,2,0:2:0:0:
219,203,76050,1,2,0:2:0:0:
44,270,76217,1,10,0:2:0:0:
196,95,76384,1,2,3:2:0:0:
196,95,76467,1,2,0:2:0:0:
196,95,76550,2,0,L|251:75,1,53.9999983520508,2|0,0:2|0:0,0:0:0:0:
2,174,76717,5,10,0:2:0:0:
200,215,76884,1,0,3:2:0:0:
25,282,77051,1,2,0:2:0:0:
25,282,77134,2,0,B|79:262|79:262|125:288,1,107.999996704102,2|0,0:2|0:0,0:0:0:0:
213,135,77383,38,0,L|207:190,1,53.9999969215394,2|0,3:2|0:0,0:0:0:0:
348,161,77549,1,2,0:2:0:0:
348,161,77632,2,0,L|342:216,1,53.9999983520508,2|0,0:2|0:0,0:0:0:0:
472,181,77799,1,2,0:2:0:0:
472,181,77883,6,0,L|466:236,2,53.9999983520508,2|2|10,0:2|0:2|0:2,0:0:0:0:
452,313,78132,1,2,0:2:0:0:
348,161,78300,1,2,0:2:0:0:
348,161,78384,2,0,L|342:216,1,53.9999983520508,2|0,3:2|0:0,0:0:0:0:
359,45,78550,1,10,0:2:0:0:
186,168,78717,37,2,0:2:0:0:
186,168,78800,1,2,0:2:0:0:
186,168,78884,1,10,3:2:0:0:
348,161,79050,1,2,3:2:0:0:
74,45,79217,5,2,0:2:0:0:
74,45,79300,1,2,0:2:0:0:
74,45,79384,2,0,B|125:70|125:70|174:44,1,107.999996704102,10|2,0:2|3:2,0:0:0:0:
231,0,79634,2,0,B|206:51|206:51|232:100,1,107.999996704102,2|0,0:2|0:0,0:0:0:0:
261,161,79884,1,0,3:2:0:0:
148,230,80050,38,0,B|205:219|205:219|245:242|245:242|303:231,1,161.999995056153,0|0,3:2|0:0,0:0:0:0:
358,173,80384,2,0,B|377:142|420:143|445:173|444:221|398:260,1,175.499991966248,2|0,0:2|0:0,0:0:0:0:
369,297,80717,1,10,0:2:0:0:
512,316,80884,1,2,0:2:0:0:
361,370,81050,2,0,P|407:389|457:371,1,103.500001974106,2|10,3:2|0:2,0:0:0:0:
326,211,81383,6,0,P|280:192|230:210,1,103.500001974106,2|8,0:2|0:2,0:0:0:0:
151,312,81717,1,2,3:2:0:0:
231,208,81884,1,2,0:2:0:0:
86,110,82050,2,0,L|96:215,1,103.500001974106,10|0,0:2|3:2,0:0:0:0:
267,357,82384,2,0,B|231:336|185:356|203:379|154:395|112:370,1,155.250002961159,2|0,0:2|0:0,0:0:0:0:
50,349,82717,38,0,L|44:294,1,51.7500009870529,0|0,3:2|0:0,0:0:0:0:
227,255,82884,1,0,3:2:0:0:
76,189,83050,2,0,P|128:203|169:173,1,103.500001974106,2|0,0:2|0:0,0:0:0:0:
328,41,83384,6,0,B|307:26|302:3|302:3|316:124,1,155.250002961159,10|0,0:2|0:0,0:0:0:0:
362,168,83717,2,0,P|315:148|259:173,1,103.500001974106,2|8,3:2|0:2,0:0:0:0:
343,304,84050,1,2,0:2:0:0:
267,164,84217,1,10,3:2:0:0:
179,363,84384,2,0,B|219:350|255:343|255:343|246:308|241:268,1,155.250002961159,2|0,3:2|0:0,0:0:0:0:
170,290,84717,37,10,3:2:0:0:
91,184,84884,1,0,0:0:0:0:
91,184,84967,1,0,0:0:0:0:
91,184,85050,1,2,3:2:0:0:
183,60,85217,1,8,0:2:0:0:
1,63,85384,6,0,B|37:42|83:62|65:85|114:101|156:76,1,155.250002961159,2|0,3:2|0:0,0:0:0:0:
183,60,85717,1,2,0:2:0:0:
143,179,85884,1,2,0:2:0:0:
315,191,86050,1,10,0:2:0:0:
275,72,86217,1,2,0:2:0:0:
434,33,86384,2,0,B|407:44|370:45|370:45|387:137,1,155.250002961159,2|0,3:2|0:0,0:0:0:0:
420,197,86717,38,0,P|354:168|296:221,1,155.250002961159,2|0,0:2|0:0,0:0:0:0:
272,284,87050,1,2,3:2:0:0:
187,154,87217,1,2,0:2:0:0:
58,306,87384,2,0,B|113:316|152:260|152:260|209:251|256:290,1,207.000003948212,10|2,0:2|0:2,0:0:0:0:
192,351,87884,1,2,0:2:0:0:
43,122,88050,5,2,3:2:0:0:
78,232,88217,1,2,3:2:0:0:
158,156,88384,1,2,0:2:0:0:
123,46,88551,1,2,0:2:0:0:
240,80,88717,37,10,0:2:0:0:
275,190,88884,1,2,0:2:0:0:
354,113,89051,1,2,3:2:0:0:
320,4,89217,1,10,0:2:0:0:
437,38,89384,5,2,0:2:0:0:
472,148,89551,1,10,0:2:0:0:
435,215,89717,1,2,3:2:0:0:
470,325,89884,1,2,0:2:0:0:
301,299,90051,37,10,0:2:0:0:
216,326,90217,1,2,3:2:0:0:
118,356,90384,2,0,P|138:310|117:252,1,103.500001974106,2|2,0:2|3:2,0:0:0:0:
25,104,90717,6,0,B|40:134|43:161|43:161|147:147,1,155.250002961159,2|0,3:2|0:0,0:0:0:0:
210,136,91050,2,0,L|206:193,2,51.7500009870529,0|0|0,0:0|0:0|3:2,0:0:0:0:
345,31,91384,38,0,P|343:79|339:138,1,103.500001974106,10|0,0:2|0:0,0:0:0:0:
308,164,91634,2,0,P|309:212|314:271,1,103.500001974106,2|0,0:2|0:0,0:0:0:0:
333,311,91884,1,10,0:2:0:0:
495,201,92050,2,0,B|450:178|450:178|403:206,1,103.500001974106,2|8,0:2|0:2,0:0:0:0:
368,229,92301,2,0,B|323:252|323:252|276:224,1,103.500001974106,2|0,0:2|0:0,0:0:0:0:
245,206,92550,1,2,0:2:0:0:
160,325,92717,2,0,B|129:308|129:308|140:235,1,103.500001974106,10|0,0:2|3:2,0:0:0:0:
166,216,92967,2,0,B|197:199|197:199|186:126,1,103.500001974106,2|0,0:2|0:0,0:0:0:0:
177,93,93217,1,2,3:2:0:0:
42,209,93384,6,0,L|48:264,1,53.9999983520508,2|0,0:2|0:0,0:0:0:0:
256,192,93551,12,0,94634,0:0:0:0:
256,192,94717,37,2,3:2:0:0:
256,192,94801,1,8,0:2:0:0:
256,192,94884,2,0,L|260:248,1,53.9999983520508,8|0,0:2|0:0,0:0:0:0:
345,356,95050,1,2,0:2:0:0:
381,239,95217,1,0,3:2:0:0:
422,70,95384,5,10,0:2:0:0:
422,70,96050,38,0,B|375:44|326:74|344:97|288:120|244:87,1,188.999994232178,6|0,3:2|0:0,0:0:0:0:
159,50,96384,2,0,P|202:97|168:44,1,188.999994232178,2|0,0:2|0:0,0:0:0:0:
182,73,96717,2,0,B|65:52|65:52|47:80|11:111,1,188.999994232178,10|0,0:2|0:0,0:0:0:0:
98,239,97050,2,0,B|129:187|129:187|98:127,1,125.999996154785,2|8,3:2|0:2,0:0:0:0:
20,353,97384,6,0,B|71:384|71:384|131:353,1,125.999996154785,2|8,0:2|0:2,0:0:0:0:
311,146,97717,2,0,B|246:130|200:178|200:178|241:164|266:170,1,188.999994232178,2|0,3:2|0:0,0:0:0:0:
315,225,98050,1,10,0:2:0:0:
428,72,98217,2,0,B|475:86|526:98|526:98|513:154|502:213,1,209.250001596451,0|0,3:2|0:0,0:0:0:0:
493,273,98550,1,0,3:2:0:0:
348,34,98717,37,2,3:2:0:0:
241,176,98884,1,2,0:2:0:0:
141,26,99050,2,0,B|188:0|237:30|219:53|275:76|319:43,1,182.250000695229,2|0,0:2|0:0,0:0:0:0:
348,34,99384,1,10,0:2:0:0:
319,173,99550,1,2,0:2:0:0:
500,222,99717,1,2,3:2:0:0:
450,59,99883,1,10,0:2:0:0:
269,231,100050,6,0,P|328:250|383:213,1,121.500000463486,2|10,0:2|3:2,0:0:0:0:
196,63,100384,2,0,B|88:43|88:43|65:77|38:103,1,182.250000695229,0|0,3:2|0:0,0:0:0:0:
14,163,100717,1,10,0:2:0:0:
150,189,100884,1,2,3:2:0:0:
215,244,101051,1,2,0:2:0:0:
351,270,101217,1,2,3:2:0:0:
425,21,101384,38,0,B|465:62|472:113|438:166|438:166|390:169|363:130,1,243.000000926971,2|2,3:2|0:2,0:0:0:0:
296,24,101884,1,2,0:2:0:0:
219,222,102050,1,10,0:2:0:0:
269,124,102217,1,2,0:2:0:0:
70,99,102384,1,2,3:2:0:0:
139,332,102550,1,10,0:2:0:0:
172,142,102717,5,2,0:2:0:0:
294,243,102884,1,10,0:2:0:0:
397,205,103050,2,0,B|338:214|338:214|326:207|326:207|268:216,1,121.500000463486,2|0,3:2|0:0,0:0:0:0:
141,25,103384,1,10,0:2:0:0:
58,145,103550,1,2,3:2:0:0:
260,111,103717,1,2,0:2:0:0:
175,229,103884,1,2,0:2:0:0:
90,347,104050,37,2,3:2:0:0:
210,321,104217,1,2,3:2:0:0:
408,376,104383,1,2,0:2:0:0:
288,350,104550,1,2,0:2:0:0:
480,231,104717,5,10,0:2:0:0:
364,308,104883,1,2,0:2:0:0:
199,177,105050,1,2,3:2:0:0:
325,0,105217,1,10,0:2:0:0:
506,256,105384,38,0,B|450:283|450:283|392:246,1,121.500000463486,2|8,0:2|3:2,0:0:0:0:
178,101,105717,2,0,B|214:65|262:74|262:74|289:119|344:116,1,182.250000695229,2|0,3:2|0:0,0:0:0:0:
411,108,106050,1,10,3:2:0:0:
237,281,106217,1,0,0:0:0:0:
231,270,106301,1,0,0:0:0:0:
222,259,106384,2,0,B|195:203|195:203|232:145,1,121.500000463486,2|8,3:2|0:2,0:0:0:0:
512,375,106717,6,0,B|441:366|441:366|403:289|403:289|329:281,1,222.75000212431,6|0,3:2|0:0,0:0:0:0:
232,344,107050,2,0,B|352:357,1,121.500000463486,2|0,0:2|0:0,0:0:0:0:
19,169,107384,1,10,0:2:0:0:
55,322,107551,1,2,0:2:0:0:
187,269,107717,1,2,3:2:0:0:
151,116,107884,1,10,0:2:0:0:
281,1,108051,37,2,0:2:0:0:
249,138,108217,1,10,0:2:0:0:
414,48,108384,1,2,3:2:0:0:
381,185,108551,1,2,0:2:0:0:
301,298,108717,1,10,0:2:0:0:
311,151,108884,1,2,3:2:0:0:
458,161,109051,1,2,0:2:0:0:
448,308,109217,1,2,0:2:0:0:
286,317,109384,6,0,L|211:312,1,74.2500007081032,2|0,3:2|0:0,0:0:0:0:
278,139,109550,2,0,L|203:134,1,74.2500007081032,0|0,3:2|0:0,0:0:0:0:
68,292,109717,2,0,B|92:239|92:239|60:184,1,121.500000463486,2|0,0:2|0:0,0:0:0:0:
138,359,110050,1,10,0:2:0:0:
180,240,110217,1,2,0:2:0:0:
255,369,110384,1,2,3:2:0:0:
297,250,110550,1,10,0:2:0:0:
391,384,110716,37,2,0:2:0:0:
309,266,110883,1,10,0:2:0:0:
444,109,111050,1,2,3:2:0:0:
376,237,111216,1,2,0:2:0:0:
273,61,111384,1,10,0:2:0:0:
277,200,111550,2,0,B|297:248|350:234|368:208|368:142|322:115,1,195.750005973816,2|0,3:2|0:0,0:0:0:0:
273,61,111884,1,2,3:2:0:0:
44,221,112050,6,0,B|161:200|161:200|196:260,1,182.250000695229,0|0,3:2|0:0,0:0:0:0:
223,322,112384,2,0,L|216:385,2,60.7500002317429,0|0|0,0:0|0:0|3:2,0:0:0:0:
58,341,112717,38,0,P|49:279|43:209,1,121.500000463486,10|0,0:2|0:0,0:0:0:0:
98,170,112967,2,0,P|106:108|113:38,1,121.500000463486,2|0,0:2|0:0,0:0:0:0:
58,4,113217,1,10,0:2:0:0:
262,143,113384,2,0,B|261:173|242:210|242:210|247:182|228:149,1,121.500000463486,2|8,0:2|0:2,0:0:0:0:
204,80,113634,2,0,B|203:50|184:13|184:13|189:41|170:74,1,121.500000463486,2|0,0:2|0:0,0:0:0:0:
134,135,113884,1,2,0:2:0:0:
310,48,114050,2,0,B|343:30|373:50|362:66|394:79|424:64,1,121.500000463486,10|0,0:2|3:2,0:0:0:0:
422,103,114300,2,0,B|393:116|362:104|373:88|343:68|309:83,1,121.500000463486,2|0,0:2|0:0,0:0:0:0:
244,108,114550,1,2,3:2:0:0:
343,276,114717,6,0,P|398:235|334:254,1,182.250000695229,2|0,3:2|0:0,0:0:0:0:
368,253,115050,2,0,L|296:267,1,60.7500002317429,2|0,0:2|0:0,0:0:0:0:
178,142,115217,2,0,L|250:128,1,60.7500002317429,0|0,3:2|0:0,0:0:0:0:
82,303,115384,2,0,B|121:325|149:360|149:360|175:323|212:292,1,182.250000695229,10|0,0:2|0:0,0:0:0:0:
84,275,115717,2,0,B|123:297|151:332|151:332|177:295|214:264,1,182.250000695229,2|0,3:2|0:0,0:0:0:0:
133,129,116050,37,2,3:2:0:0:
133,129,116134,1,8,0:2:0:0:
133,129,116217,2,0,L|140:196,1,62.9999980773926,8|0,0:2|0:0,0:0:0:0:
408,52,116384,2,0,B|370:16|316:19|274:49|274:49|306:68|308:113,1,215.999993408203,2|0,0:2|3:2,0:0:0:0:
139,191,116717,5,10,3:2:0:0:
139,191,116800,1,0,0:0:0:0:
140,192,116883,2,0,L|133:129,1,62.9999980773926
412,246,117050,2,0,B|374:282|320:279|278:249|278:249|310:230|312:185,1,215.999993408203,2|0,0:2|3:2,0:0:0:0:
481,125,117384,5,0,0:0:0:0:
