osu file format v14

[General]
AudioFilename: audio.mp3
AudioLeadIn: 0
PreviewTime: 38762
Countdown: 0
SampleSet: Soft
StackLeniency: 0.4
Mode: 0
LetterboxInBreaks: 0
EpilepsyWarning: 1
WidescreenStoryboard: 1

[Editor]
Bookmarks: 7398,29519,68288,87379
DistanceSpacing: 1.2
BeatDivisor: 4
GridSize: 32
TimelineZoom: 1.3

[Metadata]
Title:Antithesis
TitleUnicode:あんちてーぜ
Artist:Takayan
ArtistUnicode:たかやん
Creator:Fanboyyou
Version:muya-'s Hard
Source:
Tags:japanese hip-hop j-rap zutto ikite ne please live forever ずっと生きてね hiphop hip hop rap jrap trap muya- tilda
BeatmapID:3149090
BeatmapSetID:1531683

[Difficulty]
HPDrainRate:4
CircleSize:3.4
OverallDifficulty:7
ApproachRate:8
SliderMultiplier:1.4
SliderTickRate:1

[Events]
//Background and Video events
0,0,"bruh.jpg",0,0
//Break Periods
//Storyboard Layer 0 (Background)
//Storyboard Layer 1 (Fail)
//Storyboard Layer 2 (Pass)
//Storyboard Layer 3 (Foreground)
//Storyboard Layer 4 (Overlay)
//Storyboard Sound Samples

[TimingPoints]
125,303.030303030303,4,2,0,70,1,0
7397,-83.3333333333333,4,2,1,70,0,0
9821,-95.2380952380952,4,2,1,70,0,0
10125,-95.2380952380952,4,2,1,80,0,0
29215,-111.111111111111,4,2,1,80,0,0
30731,-111.111111111111,4,2,1,30,0,0
30845,-111.111111111111,4,2,1,40,0,0
30883,-111.111111111111,4,2,1,50,0,0
30921,-111.111111111111,4,2,1,55,0,0
30959,-111.111111111111,4,2,1,60,0,0
31034,-111.111111111111,4,2,1,70,0,0
31640,-95.2380952380952,4,2,1,70,0,0
35883,-95.2380952380952,4,2,2,70,0,0
36337,-95.2380952380952,4,2,1,70,0,0
38231,-95.2380952380952,4,2,1,5,0,0
38306,-95.2380952380952,4,2,1,70,0,0
38913,302.267002518892,4,2,1,60,1,0
38913,-111.111111111111,4,2,1,60,0,0
46167,303.030303030303,4,2,1,70,1,0
46167,-90.9090909090909,4,2,1,70,0,0
47379,-83.3333333333333,4,2,1,70,0,0
48288,-83.3333333333333,4,2,1,80,0,0
48591,-86.9565217391304,4,2,1,80,0,0
52454,-86.9565217391304,4,2,1,5,0,0
52530,-86.9565217391304,4,2,1,80,0,0
54879,-86.9565217391304,4,2,1,5,0,0
54954,-86.9565217391304,4,2,1,80,0,0
55257,-86.9565217391304,4,2,2,80,0,0
55712,-86.9565217391304,4,2,1,80,0,0
61924,-111.111111111111,4,2,1,80,0,0
63136,-95.2380952380952,4,2,1,80,0,0
64954,-95.2380952380952,4,2,2,80,0,0
65560,-90.9090909090909,4,2,1,70,0,0
66772,-83.3333333333333,4,2,1,70,0,0
67984,-95.2380952380952,4,2,1,70,0,0
68288,-95.2380952380952,4,2,1,80,0,0
86167,-90.9090909090909,4,2,1,80,0,0
87379,-76.9230769230769,4,2,1,80,0,0

[Colours]
Combo1 : 255,130,255
Combo2 : 155,0,78
Combo3 : 255,83,169
Combo4 : 187,11,37

[HitObjects]
335,186,7397,6,0,B|280:120|280:120|244:214,1,167.999994873047,8|2,3:0|0:0,0:0:0:0:
335,186,8003,2,0,B|304:162|280:120|280:120|270:170|239:212,1,167.999994873047,8|2,3:0|0:0,0:0:0:0:
335,186,8609,2,0,B|297:168|280:120|280:120|281:172|228:215,1,167.999994873047,8|2,3:0|0:0,0:0:0:0:
335,186,9215,6,0,P|377:171|397:125,1,83.9999974365235,8|0,3:0|0:0,0:0:0:0:
492,109,9518,2,0,P|500:65|470:24,1,83.9999974365235,8|0,3:0|0:0,0:0:0:0:
353,15,9821,6,0,B|274:-10|286:67|198:40,1,146.999995513916,8|2,3:0|0:0,0:0:0:0:
136,17,10276,1,2,0:0:0:0:
136,17,10428,2,0,P|180:43|162:139,1,146.999995513916,8|2,0:0|0:0,0:0:0:0:
105,184,10882,6,0,B|60:176|11:168|11:168|43:168|69:153,1,146.999995513916,2|2,1:2|1:2,0:0:0:0:
173,129,11337,2,0,L|251:138,1,73.4999977569581,2|0,3:2|0:0,0:0:0:0:
333,147,11640,1,10,0:0:0:0:
478,246,11943,2,0,P|439:248|405:279,1,73.4999977569581,2|2,0:0|0:0,0:0:0:0:
317,340,12246,6,0,B|239:321|255:392|172:384,1,146.999995513916,8|2,3:0|0:0,0:0:0:0:
109,348,12700,1,2,0:0:0:0:
109,348,12852,2,0,B|119:276|119:276|117:277|117:277|129:183,1,146.999995513916,10|2,0:0|0:0,0:0:0:0:
149,114,13306,6,0,P|77:106|45:178,1,146.999995513916,2|2,0:0|0:0,0:0:0:0:
126,205,13761,2,0,P|164:212|215:185,1,73.4999977569581,8|2,3:0|0:0,0:0:0:0:
262,142,14064,1,10,0:0:0:0:
262,142,14215,1,8,3:0:0:0:
300,62,14367,2,0,P|333:40|385:46,1,73.4999977569581,2|2,0:0|0:0,0:0:0:0:
475,80,14670,6,0,B|467:141|467:141|484:168|484:168|476:227,1,146.999995513916,8|2,3:0|0:0,0:0:0:0:
463,311,15125,1,2,0:0:0:0:
463,311,15276,2,0,P|500:313|541:291,2,73.4999977569581,10|2|2,0:0|0:0|0:0,0:0:0:0:
399,248,15731,6,0,P|347:224|275:289,1,146.999995513916,2|2,1:2|1:2,0:0:0:0:
243,351,16185,2,0,P|278:362|322:349,1,73.4999977569581,2|2,3:2|0:0,0:0:0:0:
279,270,16488,2,0,P|245:257|207:264,1,73.4999977569581,10|2,1:2|0:0,0:0:0:0:
128,299,16791,2,0,L|137:381,1,73.4999977569581,2|2,0:0|0:0,0:0:0:0:
22,384,17094,6,0,L|4:228,1,146.999995513916,8|2,3:0|0:0,0:0:0:0:
53,163,17549,1,2,0:0:0:0:
53,163,17700,2,0,P|93:171|122:194,2,73.4999977569581,10|2|2,0:0|0:0|0:0,0:0:0:0:
45,74,18155,6,0,P|124:83|191:139,1,146.999995513916,2|2,0:0|0:0,0:0:0:0:
221,197,18609,2,0,P|255:219|302:216,1,73.4999977569581,8|2,3:0|0:0,0:0:0:0:
375,196,18912,1,10,0:0:0:0:
375,196,19064,1,8,3:0:0:0:
432,129,19215,2,0,L|422:43,1,73.4999977569581,2|2,0:0|0:0,0:0:0:0:
299,0,19518,6,0,B|287:75|287:75|289:74|289:74|276:158,1,146.999995513916,8|0,3:0|0:0,0:0:0:0:
112,250,20124,2,0,B|193:260|158:312|251:324,1,146.999995513916,10|2,0:0|0:0,0:0:0:0:
411,335,20731,6,0,B|419:299|419:299|393:265,1,73.4999977569581,2|2,0:0|1:2,0:0:0:0:
452,191,21034,2,0,B|424:166|424:166|382:171,1,73.4999977569581,2|2,3:2|0:0,0:0:0:0:
305,229,21337,1,10,0:0:0:0:
510,266,21640,1,2,0:0:0:0:
305,229,21943,6,0,B|267:228|240:194|240:194|238:242|206:268,1,146.999995513916,8|2,3:0|0:0,0:0:0:0:
165,332,22397,1,2,0:0:0:0:
165,332,22549,2,0,P|99:370|24:331,1,146.999995513916,10|2,0:0|0:0,0:0:0:0:
7,269,23003,1,2,0:0:0:0:
7,269,23155,6,0,L|18:177,1,73.4999977569581,2|2,0:0|0:0,0:0:0:0:
32,109,23458,1,8,3:0:0:0:
175,5,23761,1,10,0:0:0:0:
175,5,23912,1,8,3:0:0:0:
242,62,24064,2,0,P|268:85|313:90,1,73.4999977569581,2|2,0:0|0:0,0:0:0:0:
410,89,24367,6,0,B|329:116|372:151|292:181,1,146.999995513916,8|2,3:0|0:0,0:0:0:0:
126,286,24973,2,0,P|106:259|104:209,1,73.4999977569581,10|2,0:0|0:0,0:0:0:0:
84,133,25276,2,0,P|117:129|161:152,1,73.4999977569581,0|2,0:0|1:2,0:0:0:0:
200,225,25579,5,2,0:0:0:0:
200,225,25731,2,0,B|282:225|243:291|347:298,1,146.999995513916,2|2,1:2|0:0,0:0:0:0:
407,271,26185,1,10,0:0:0:0:
221,351,26488,1,2,0:0:0:0:
407,271,26791,6,0,B|437:181|437:181|412:168|399:136,1,146.999995513916,8|0,3:0|0:0,0:0:0:0:
256,20,27397,2,0,L|246:97,1,73.4999977569581,10|0,0:0|0:0,0:0:0:0:
240,190,27700,1,2,0:0:0:0:
240,190,27852,1,2,0:0:0:0:
176,251,28003,6,0,P|144:266|95:257,1,73.4999977569581,2|0,0:0|0:0,0:0:0:0:
19,175,28306,2,0,B|29:106|29:106|27:102|27:102|39:17,2,146.999995513916,8|8|0,3:0|0:0|0:0,0:0:0:0:
0,363,29215,6,0,B|69:343|57:403|147:380,1,125.999996154785,8|2,3:0|0:0,0:0:0:0:
234,302,29821,1,2,0:0:0:0:
76,259,30124,1,2,0:0:0:0:
234,302,30428,6,0,L|311:322,1,62.9999980773926,2|0,0:0|1:0,0:0:0:0:
366,277,30731,2,0,L|417:263,3,31.4999990386963,2|2|2|2,0:0|0:0|0:0|0:0,0:0:0:0:
327,243,31034,2,0,P|319:205|331:172,1,62.9999980773926,10|2,0:0|0:0,0:0:0:0:
263,132,31337,2,0,P|291:106|326:99,1,62.9999980773926,2|2,0:0|0:0,0:0:0:0:
417,128,31640,5,8,3:0:0:0:
417,128,31791,1,2,0:0:0:0:
501,101,31943,2,0,P|520:71|519:24,1,73.4999977569581,2|2,0:0|0:0,0:0:0:0:
434,1,32246,2,0,L|354:8,1,73.4999977569581,10|2,0:0|0:0,0:0:0:0:
267,17,32549,2,0,B|206:28|206:28|192:48|192:48|123:61,1,146.999995513916,2|2,0:0|0:0,0:0:0:0:
17,187,33155,5,8,3:0:0:0:
17,187,33306,1,2,0:0:0:0:
52,268,33458,2,0,B|131:269|109:327|186:333,1,146.999995513916,10|2,0:0|0:0,0:0:0:0:
265,298,33912,1,2,0:0:0:0:
265,298,34064,6,0,L|250:205,1,73.4999977569581,8|2,3:0|0:0,0:0:0:0:
198,156,34367,2,0,L|213:63,1,73.4999977569581,2|2,0:0|0:0,0:0:0:0:
261,13,34670,1,10,0:0:0:0:
261,13,34821,1,2,0:0:0:0:
330,67,34973,2,0,B|378:74|431:84|431:84|404:70|391:48,1,146.999995513916,2|2,0:0|0:0,0:0:0:0:
506,218,35579,5,8,3:0:0:0:
431,170,35731,2,0,P|366:168|339:252,1,146.999995513916,2|2,0:0|1:2,0:0:0:0:
360,323,36185,1,2,1:2:0:0:
360,323,36337,1,2,0:0:0:0:
287,373,36488,6,0,B|247:374|247:374|213:339,1,73.4999977569581,8|2,3:0|0:0,0:0:0:0:
136,333,36791,2,0,B|115:298|115:298|127:252,1,73.4999977569581,2|2,0:0|0:0,0:0:0:0:
178,193,37094,1,8,0:0:0:0:
178,193,37245,1,2,0:0:0:0:
131,117,37397,2,0,B|79:92|36:132|36:132|69:122|98:138,1,146.999995513916,2|2,0:0|0:0,0:0:0:0:
263,218,38003,6,0,B|270:168|270:168|276:162|276:162|285:87,1,110.249996635437,8|0,3:0|0:0,0:0:0:0:
297,69,38306,2,0,P|331:54|370:63,1,73.4999977569581,10|8,0:0|3:0,0:0:0:0:
454,60,38609,2,0,P|449:96|422:126,1,73.4999977569581,2|0,0:0|0:0,0:0:0:0:
416,226,38913,6,0,B|361:203|323:255|338:259|313:321|238:298,1,188.999994232178,8|2,3:0|0:0,0:0:0:0:
192,267,39517,1,2,0:0:0:0:
196,252,40122,1,2,0:0:0:0:
200,237,40726,1,2,0:0:0:0:
9,178,41331,5,2,3:2:0:0:
13,193,41935,1,2,0:0:0:0:
17,208,42540,1,2,0:0:0:0:
21,223,43144,1,2,0:0:0:0:
181,112,43749,6,0,B|219:89|220:32|220:32|234:91|291:104,1,188.999994232178,2|2,3:2|0:0,0:0:0:0:
350,128,44353,2,0,B|418:122|399:169|463:171,1,125.999996154785,2|2,0:0|0:0,0:0:0:0:
463,10,44958,2,0,P|391:7|364:54,1,125.999996154785,2|2,0:0|0:0,0:0:0:0:
354,133,45411,1,0,0:0:0:0:
354,133,45562,1,2,0:0:0:0:
456,255,45865,1,2,0:0:0:0:
250,381,46167,6,0,B|217:306|276:293|229:218,1,154.000004699707,8|2,3:0|0:0,0:0:0:0:
250,381,46773,2,0,B|203:311|288:294|229:218,1,154.000004699707,8|2,3:0|0:0,0:0:0:0:
66,129,47379,6,0,L|83:219,1,83.9999974365235,8|0,3:0|0:0,0:0:0:0:
190,84,47682,2,0,B|181:123|181:123|173:174,1,83.9999974365235,8|0,3:0|0:0,0:0:0:0:
54,125,47985,2,0,B|63:166|63:166|62:170|62:170|71:215,1,83.9999974365235,8|0,3:0|0:0,0:0:0:0:
111,330,48288,1,8,3:0:0:0:
16,299,48439,1,2,0:0:0:0:
163,254,48591,6,0,P|202:259|249:275,1,80.5000015354157,8|2,3:0|0:0,0:0:0:0:
325,318,48894,1,2,0:0:0:0:
482,204,49197,1,10,0:0:0:0:
482,204,49348,1,2,0:0:0:0:
462,113,49500,1,2,0:0:0:0:
462,113,49651,1,2,1:2:0:0:
368,88,49803,6,0,B|322:72|295:111|300:114|290:173|226:155,2,161.000003070831,2|2|2,0:0|3:2|0:0,0:0:0:0:
368,88,50712,2,0,P|392:132|379:176,1,80.5000015354157,2|2,0:0|0:0,0:0:0:0:
326,253,51015,5,8,3:0:0:0:
231,272,51167,1,2,0:0:0:0:
158,208,51318,2,0,P|151:166|142:121,1,80.5000015354157,2|2,0:0|0:0,0:0:0:0:
96,17,51621,1,10,0:0:0:0:
96,17,51773,1,2,0:0:0:0:
6,45,51924,1,2,0:0:0:0:
6,45,52076,1,2,0:0:0:0:
2,141,52227,6,0,B|6:196|6:196|12:204|12:204|18:278,1,120.750002303124,2|0,0:0|0:0,0:0:0:0:
25,307,52530,2,0,B|114:292|81:374|201:355,1,161.000003070831,8|10,3:0|0:0,0:0:0:0:
237,280,52985,2,0,P|171:279|189:368,1,161.000003070831,8|2,3:0|0:0,0:0:0:0:
291,382,53439,5,8,3:0:0:0:
291,382,53591,1,2,0:0:0:0:
362,317,53742,1,2,0:0:0:0:
362,317,53894,1,2,0:0:0:0:
311,235,54045,2,0,B|288:201|288:201|303:146,1,80.5000015354157,10|2,0:0|0:0,0:0:0:0:
216,110,54348,2,0,B|233:73|233:73|289:58,1,80.5000015354157,2|2,0:0|0:0,0:0:0:0:
375,118,54651,6,0,B|439:110|430:156|496:149,1,120.750002303124,2|0,0:0|0:0,0:0:0:0:
511,107,54954,2,0,P|513:69|487:29,1,80.5000015354157,8|0,3:0|0:0,0:0:0:0:
383,4,55257,2,0,L|341:-1,3,40.2500007677078,10|0|0|0,1:2|1:2|1:2|1:2,0:0:0:0:
400,46,55560,2,0,P|401:74|367:123,1,80.5000015354157,2|2,1:2|0:0,0:0:0:0:
282,172,55863,5,8,3:0:0:0:
192,151,56015,1,2,0:0:0:0:
192,151,56167,1,2,0:0:0:0:
164,58,56318,2,0,P|87:58|57:137,1,161.000003070831,2|2,3:2|0:0,0:0:0:0:
11,213,56773,2,0,L|22:310,1,80.5000015354157,2|0,3:2|0:0,0:0:0:0:
136,384,57076,5,2,0:0:0:0:
136,384,57227,1,2,0:0:0:0:
227,311,57379,1,8,3:0:0:0:
227,311,57530,1,2,0:0:0:0:
331,373,57682,2,0,P|371:382|416:367,1,80.5000015354157,10|8,0:0|3:0,0:0:0:0:
451,347,57909,1,0,0:0:0:0:
451,347,57985,2,0,P|454:323|458:302,2,40.2500007677078,2|0|0,0:0|0:0|0:0,0:0:0:0:
387,249,58288,6,0,P|367:214|373:159,1,80.5000015354157,8|2,3:0|0:0,0:0:0:0:
279,134,58591,2,0,P|299:99|349:76,1,80.5000015354157,2|2,0:0|0:0,0:0:0:0:
427,57,58894,1,10,0:0:0:0:
500,106,59045,2,0,B|461:90|422:129|439:133|417:185|353:173,1,161.000003070831,2|2,0:0|1:2,0:0:0:0:
279,134,59500,5,2,0:0:0:0:
210,65,59651,1,2,1:2:0:0:
118,97,59803,2,0,B|65:128|21:95|21:95|58:106|87:88,1,161.000003070831,2|10,3:2|0:0,0:0:0:0:
288,54,60409,2,0,L|278:139,1,80.5000015354157,2|2,0:0|0:0,0:0:0:0:
265,229,60712,5,8,3:0:0:0:
351,270,60863,1,2,0:0:0:0:
419,201,61015,2,0,P|418:163|381:124,1,80.5000015354157,2|0,0:0|0:0,0:0:0:0:
278,133,61318,2,0,B|190:119|209:189|120:177,1,161.000003070831,10|2,0:0|0:0,0:0:0:0:
41,137,61773,1,2,0:0:0:0:
0,219,61924,6,0,L|7:297,1,62.9999980773926,2|2,0:0|0:0,0:0:0:0:
22,370,62227,1,2,0:0:0:0:
148,276,62530,1,2,0:0:0:0:
281,351,62833,2,0,P|305:366|358:370,1,62.9999980773926,2|0,0:0|0:0,0:0:0:0:
439,339,63136,5,8,3:0:0:0:
389,265,63288,1,2,0:0:0:0:
433,189,63439,2,0,P|445:154|438:106,1,73.4999977569581,2|2,0:0|0:0,0:0:0:0:
393,43,63742,1,10,0:0:0:0:
307,21,63894,2,0,B|249:33|249:33|225:22|225:22|156:33,1,146.999995513916,2|2,0:0|0:0,0:0:0:0:
81,2,64348,6,0,P|73:42|98:85,1,73.4999977569581,2|2,0:0|0:0,0:0:0:0:
145,135,64651,2,0,P|186:141|229:152,1,73.4999977569581,8|0,3:0|0:0,0:0:0:0:
307,185,64954,2,0,P|327:194|352:201,3,36.749998878479,10|0|0|0,1:2|1:2|1:2|1:2,0:0:0:0:
299,138,65257,1,2,1:0:0:0:
161,304,65560,6,0,B|97:321|97:321|84:340|84:340|5:359,1,154.000004699707,8|2,3:0|0:1,0:0:0:0:
161,304,66167,2,0,B|143:299|143:299|96:317|96:317|83:334|83:334|40:356|40:356|11:349,1,154.000004699707,8|2,3:0|0:1,0:0:0:0:
264,352,66773,6,0,L|273:267,1,83.9999974365235,8|0,3:0|0:0,0:0:0:0:
392,377,67076,2,0,B|388:339|388:339|383:292,1,83.9999974365235,8|0,3:0|0:0,0:0:0:0:
273,352,67379,2,0,B|280:314|280:314|278:309|278:309|284:267,1,83.9999974365235,8|0,3:0|0:0,0:0:0:0:
403,374,67682,2,0,B|400:350|399:334|399:334|397:329|397:329|397:316|394:289,1,83.9999974365235,8|0,3:0|0:0,0:0:0:0:
398,171,67985,6,0,P|463:160|438:239,1,146.999995513916,8|2,3:0|0:0,0:0:0:0:
399,295,68440,1,2,0:0:0:0:
399,295,68592,2,0,B|318:278|339:344|244:326,1,146.999995513916,8|2,0:0|0:0,0:0:0:0:
167,309,69046,6,0,B|141:338|102:340|102:340|148:348|180:368,1,146.999995513916,2|2,1:2|1:2,0:0:0:0:
261,328,69500,2,0,P|269:294|246:238,1,73.4999977569581,2|0,3:2|0:0,0:0:0:0:
194,194,69804,1,10,0:0:0:0:
15,111,70107,2,0,L|24:206,1,73.4999977569581,2|2,0:0|0:0,0:0:0:0:
112,244,70409,6,0,B|105:171|105:171|103:173|103:173|95:94,1,146.999995513916,8|2,3:0|0:0,0:0:0:0:
151,36,70864,1,2,0:0:0:0:
151,36,71016,2,0,P|208:9|267:65,1,146.999995513916,10|2,0:0|0:0,0:0:0:0:
317,128,71470,6,0,L|306:285,1,146.999995513916,2|2,0:0|0:0,0:0:0:0:
303,363,71925,2,0,P|338:378|398:367,1,73.4999977569581,8|2,3:0|0:0,0:0:0:0:
448,329,72228,1,10,0:0:0:0:
448,329,72379,1,8,3:0:0:0:
481,246,72531,2,0,L|468:169,1,73.4999977569581,2|2,0:0|0:0,0:0:0:0:
446,70,72834,6,0,B|370:49|402:3|293:-4,1,146.999995513916,8|2,3:0|0:0,0:0:0:0:
251,52,73289,1,2,0:0:0:0:
251,52,73440,2,0,P|275:78|330:85,2,73.4999977569581,10|2|2,0:0|0:0|0:0,0:0:0:0:
173,9,73895,6,0,P|103:13|63:86,1,146.999995513916,2|2,1:2|1:2,0:0:0:0:
13,144,74349,2,0,P|5:187|16:223,1,73.4999977569581,2|2,3:2|0:0,0:0:0:0:
23,302,74651,2,0,P|64:287|89:259,1,73.4999977569581,10|2,1:2|0:0,0:0:0:0:
154,214,74954,2,0,P|120:185|84:177,1,73.4999977569581,2|2,0:0|0:0,0:0:0:0:
23,302,75258,6,0,B|107:294|77:356|178:353,1,146.999995513916,8|2,3:0|0:0,0:0:0:0:
238,316,75713,1,2,0:0:0:0:
238,316,75864,2,0,L|229:232,2,73.4999977569581,10|2|2,0:0|0:0|0:0,0:0:0:0:
322,340,76319,6,0,L|307:186,1,146.999995513916,2|2,0:0|0:0,0:0:0:0:
256,122,76773,2,0,P|241:79|255:31,1,73.4999977569581,8|2,3:0|0:0,0:0:0:0:
321,5,77076,1,10,0:0:0:0:
321,5,77228,1,8,3:0:0:0:
398,45,77379,2,0,P|413:88|399:136,1,73.4999977569581,2|2,0:0|0:0,0:0:0:0:
472,188,77682,6,0,B|390:191|421:248|331:250,1,146.999995513916,8|0,3:0|0:0,0:0:0:0:
157,123,78288,2,0,P|224:132|247:206,1,146.999995513916,10|2,0:0|0:0,0:0:0:0:
137,355,78895,6,0,B|64:364,1,73.4999977569581,2|2,0:0|1:2,0:0:0:0:
26,284,79197,2,0,B|99:275,1,73.4999977569581,2|2,3:2|0:0,0:0:0:0:
187,263,79501,1,10,1:2:0:0:
20,186,79804,1,2,0:0:0:0:
187,263,80107,6,0,B|287:280|287:280|264:270|250:251,1,146.999995513916,8|2,3:0|0:0,0:0:0:0:
320,196,80561,1,2,0:0:0:0:
320,196,80713,2,0,P|366:231|368:317,1,146.999995513916,10|2,0:0|0:0,0:0:0:0:
447,366,81167,1,2,0:0:0:0:
447,366,81319,6,0,P|462:334|470:278,1,73.4999977569581,2|2,0:0|0:0,0:0:0:0:
455,209,81621,1,8,3:0:0:0:
383,52,81925,1,10,0:0:0:0:
383,52,82076,1,8,3:0:0:0:
302,16,82228,2,0,B|263:11|263:11|233:42,1,73.4999977569581,2|2,0:0|0:0,0:0:0:0:
197,136,82531,6,0,B|132:117|154:72|64:50,1,146.999995513916,8|2,3:0|0:0,0:0:0:0:
4,224,83136,1,10,0:0:0:0:
4,224,83288,2,0,B|63:235|63:235|79:253|79:253|158:270,1,146.999995513916,2|2,0:0|1:2,0:0:0:0:
231,286,83743,5,2,0:0:0:0:
231,286,83894,2,0,P|236:251|202:197,1,73.4999977569581,2|2,1:2|3:2,0:0:0:0:
140,266,84197,1,2,0:0:0:0:
163,348,84349,1,10,0:0:0:0:
324,264,84652,1,2,0:0:0:0:
163,348,84955,6,0,B|119:352|119:352|66:380|66:380|7:387,1,146.999995513916,8|0,3:0|0:0,0:0:0:0:
221,215,85561,2,0,P|254:194|291:197,1,73.4999977569581,8|0,3:0|0:0,0:0:0:0:
366,245,85864,1,2,0:0:0:0:
366,245,86016,1,2,0:0:0:0:
473,195,86167,6,0,L|483:103,1,77.0000023498536,8|0,3:0|0:0,0:0:0:0:
384,147,86470,2,0,L|375:70,1,77.0000023498536,8|0,3:0|0:0,0:0:0:0:
281,168,86773,2,0,L|291:76,1,77.0000023498536,8|0,3:0|0:0,0:0:0:0:
194,135,87076,2,0,L|185:58,1,77.0000023498536,8|0,3:0|0:0,0:0:0:0:
47,41,87379,6,0,B|-14:79|12:152|51:154|97:139|98:102,1,181.999991668702,10|0,3:0|0:0,0:0:0:0:
