osu file format v14

[General]
AudioFilename: audio.mp3
AudioLeadIn: 0
PreviewTime: 38762
Countdown: 0
SampleSet: Soft
StackLeniency: 0.7
Mode: 0
LetterboxInBreaks: 0
EpilepsyWarning: 1
WidescreenStoryboard: 1

[Editor]
DistanceSpacing: 1
BeatDivisor: 4
GridSize: 16
TimelineZoom: 0.8200001

[Metadata]
Title:Antithesis
TitleUnicode:あんちてーぜ
Artist:Takayan
ArtistUnicode:たかやん
Creator:Fanboyyou
Version:Normal
Source:
Tags:japanese hip-hop j-rap zutto ikite ne please live forever ずっと生きてね hiphop hip hop rap jrap trap muya- tilda
BeatmapID:3159351
BeatmapSetID:1531683

[Difficulty]
HPDrainRate:3
CircleSize:2.7
OverallDifficulty:4
ApproachRate:6
SliderMultiplier:1
SliderTickRate:1

[Events]
//Background and Video events
0,0,"bruh.jpg",0,0
//Break Periods
2,39113,44847
//Storyboard Layer 0 (Background)
//Storyboard Layer 1 (Fail)
//Storyboard Layer 2 (Pass)
//Storyboard Layer 3 (Foreground)
//Storyboard Layer 4 (Overlay)
//Storyboard Sound Samples

[TimingPoints]
125,303.030303030303,4,2,1,70,1,0
10125,-100,4,2,1,80,0,0
31034,-100,4,2,1,70,0,0
35883,-100,4,2,2,70,0,0
36337,-100,4,2,1,70,0,0
38913,302.267002518892,4,2,1,60,1,0
46167,303.030303030303,4,2,1,70,1,0
48288,-100,4,2,1,80,0,0
55257,-100,4,2,2,80,0,0
55712,-100,4,2,1,80,0,0
64954,-100,4,2,2,80,0,0
65560,-100,4,2,1,70,0,0
68288,-100,4,2,1,80,0,0

[Colours]
Combo1 : 255,130,255
Combo2 : 155,0,78
Combo3 : 255,83,169
Combo4 : 187,11,37

[HitObjects]
70,27,7398,6,0,P|83:76|87:140,1,100,8|2,3:0|0:0,0:0:0:0:
174,173,8004,2,0,P|178:123|191:75,1,100,8|2,3:0|0:0,0:0:0:0:
276,23,8610,2,0,P|280:72|293:120,1,100,8|2,3:0|0:0,0:0:0:0:
391,98,9216,1,8,3:0:0:0:
472,155,9519,1,8,3:0:0:0:
418,239,9822,6,0,P|423:284|428:349,1,100,8|2,3:0|0:0,0:0:0:0:
396,378,10277,1,2,0:0:0:0:
396,378,10428,2,0,P|332:370|303:328,1,100,8|2,0:0|0:0,0:0:0:0:
283,303,10883,2,0,B|243:285|243:285|180:318,1,100,2|2,1:2|1:2,0:0:0:0:
154,342,11337,1,2,3:2:0:0:
59,313,11640,1,10,0:0:0:0:
9,227,11943,2,0,P|1:203|5:179,1,50,2|2,0:0|0:0,0:0:0:0:
18,130,12246,6,0,P|64:131|106:94,1,100,8|2,3:0|0:0,0:0:0:0:
132,58,12700,1,2,0:0:0:0:
132,58,12852,1,10,0:0:0:0:
232,36,13155,1,2,0:0:0:0:
232,36,13306,2,0,L|242:154,1,100,2|2,0:0|0:0,0:0:0:0:
227,184,13762,2,0,P|192:202|191:271,1,100,8|10,3:0|0:0,0:0:0:0:
220,289,14215,2,0,L|327:281,1,100,8|2,3:0|0:0,0:0:0:0:
368,269,14670,1,8,3:0:0:0:
466,286,14973,6,0,P|460:314|468:335,2,50,2|2|10,0:0|0:0|0:0,0:0:0:0:
504,253,15428,2,0,L|508:183,1,50,2|2,0:0|0:0,0:0:0:0:
489,156,15731,1,2,1:2:0:0:
503,60,16034,1,2,1:2:0:0:
503,60,16186,2,0,B|482:36|448:43,1,50,2|2,3:2|0:0,0:0:0:0:
413,19,16488,1,10,1:2:0:0:
369,108,16791,1,2,0:0:0:0:
276,72,17094,6,0,L|149:78,1,100,8|2,3:0|0:0,0:0:0:0:
119,159,17700,1,10,0:0:0:0:
143,260,18003,1,2,0:0:0:0:
143,260,18155,2,0,P|97:249|44:249,1,100,2|2,0:0|0:0,0:0:0:0:
4,219,18610,2,0,P|-6:167|23:122,1,100,8|10,3:0|0:0,0:0:0:0:
28,79,19064,2,0,P|68:44|121:46,1,100,8|2,3:0|0:0,0:0:0:0:
153,14,19518,1,8,3:0:0:0:
250,38,19821,1,0,0:0:0:0:
344,70,20125,6,0,P|357:124|368:176,1,100,10|2,0:0|0:0,0:0:0:0:
423,249,20731,2,0,P|392:254|366:304,1,50,2|2,0:0|1:2,0:0:0:0:
333,290,21034,2,0,P|321:318|352:365,1,50,2|2,3:2|0:0,0:0:0:0:
288,373,21337,2,0,L|170:352,1,100,10|2,0:0|0:0,0:0:0:0:
154,261,21943,6,0,P|149:194|202:162,1,100,8|2,3:0|0:0,0:0:0:0:
261,134,22549,2,0,L|365:154,1,100,10|2,0:0|0:0,0:0:0:0:
446,202,23156,2,0,P|450:173|461:143,1,50,2|2,0:0|0:0,0:0:0:0:
492,118,23459,2,0,P|495:70|451:39,1,100,8|10,3:0|0:0,0:0:0:0:
417,9,23912,2,0,B|377:14|377:14|361:25|361:25|321:31,1,100,8|2,3:0|0:0,0:0:0:0:
299,76,24367,5,8,3:0:0:0:
202,48,24670,1,2,0:0:0:0:
111,18,24974,1,10,0:0:0:0:
111,18,25125,2,0,L|94:128,1,100,2|2,0:0|1:2,0:0:0:0:
63,155,25580,2,0,P|59:185|75:217,1,50,2|2,0:0|1:2,0:0:0:0:
65,253,25882,2,0,P|88:271|124:273,1,50,2|2,3:2|0:0,0:0:0:0:
150,249,26186,2,0,B|186:232|186:232|253:263,1,100,10|2,0:0|0:0,0:0:0:0:
320,196,26792,6,0,P|327:145|380:116,1,100,8|0,3:0|0:0,0:0:0:0:
462,102,27398,2,0,L|484:235,1,100,10|2,0:0|0:0,0:0:0:0:
512,245,27853,1,2,0:0:0:0:
512,245,28003,1,2,0:0:0:0:
473,337,28306,1,8,3:0:0:0:
385,288,28609,1,8,0:0:0:0:
284,293,28913,1,0,0:0:0:0:
204,353,29216,1,8,3:0:0:0:
133,282,29519,6,0,L|123:183,1,100,2|2,0:0|0:0,0:0:0:0:
23,169,30125,2,0,L|34:269,1,100,2|2,0:0|0:0,0:0:0:0:
2,59,31034,6,0,P|33:54|65:81,1,50,10|2,0:0|0:0,0:0:0:0:
80,100,31337,2,0,P|103:107|127:102,1,50,2|2,0:0|0:0,0:0:0:0:
157,61,31640,1,8,3:0:0:0:
244,12,31943,1,2,0:0:0:0:
316,80,32246,1,10,0:0:0:0:
412,51,32550,2,0,B|443:90|443:90|426:160,1,100,2|2,0:0|0:0,0:0:0:0:
425,238,33155,2,0,L|488:234,2,50,8|2|10,3:0|0:0|0:0,0:0:0:0:
356,310,33761,1,2,0:0:0:0:
299,227,34064,6,0,P|292:196|277:183,1,50,8|2,3:0|0:0,0:0:0:0:
253,141,34367,2,0,P|222:131|203:138,1,50,2|2,0:0|0:0,0:0:0:0:
158,122,34670,1,10,0:0:0:0:
59,141,34973,1,2,0:0:0:0:
26,235,35276,1,2,0:0:0:0:
71,330,35580,5,8,3:0:0:0:
71,330,35732,2,0,P|114:331|165:284,1,100,2|2,0:0|1:2,0:0:0:0:
190,259,36186,2,0,P|189:229|184:198,1,50,2|2,1:2|0:0,0:0:0:0:
154,171,36488,1,8,3:0:0:0:
137,70,36791,1,2,0:0:0:0:
226,22,37094,2,0,L|282:14,1,50,8|2,0:0|0:0,0:0:0:0:
317,41,37397,2,0,P|289:123|299:147,1,100,2|2,0:0|0:0,0:0:0:0:
280,230,38003,5,8,3:0:0:0:
357,293,38306,2,0,P|411:270|471:259,1,100,10|2,0:0|0:0,0:0:0:0:
511,180,38913,1,8,3:0:0:0:
42,368,46167,6,0,L|28:250,1,100,8|2,3:0|0:0,0:0:0:0:
118,220,46773,2,0,L|129:120,1,100,8|2,3:0|0:0,0:0:0:0:
69,41,47379,1,8,3:0:0:0:
163,9,47682,1,8,3:0:0:0:
238,74,47985,1,8,3:0:0:0:
312,7,48288,6,0,L|367:22,1,50,8|2,3:0|0:0,0:0:0:0:
395,56,48591,2,0,L|443:42,1,50,8|2,3:0|0:0,0:0:0:0:
492,33,48894,2,0,P|499:62|511:143,1,100,2|10,0:0|0:0,0:0:0:0:
511,231,49500,1,2,0:0:0:0:
421,275,49803,2,0,P|377:270|317:268,2,100,2|2|2,0:0|3:2|0:0,0:0:0:0:
395,371,50712,1,2,0:0:0:0:
293,365,51015,6,0,P|262:345|253:318,1,50,8|2,3:0|0:0,0:0:0:0:
219,299,51318,2,0,P|220:262|239:241,1,50,2|2,0:0|0:0,0:0:0:0:
207,205,51621,1,10,0:0:0:0:
271,128,51924,1,2,0:0:0:0:
354,182,52227,2,0,L|476:167,2,100,2|8|10,0:0|3:0|0:0,0:0:0:0:
271,128,53136,5,2,0:0:0:0:
197,60,53439,2,0,P|164:44|122:54,1,50,8|2,3:0|0:0,0:0:0:0:
101,51,53742,2,0,P|70:71|58:112,1,50,2|2,0:0|0:0,0:0:0:0:
30,119,54045,1,10,0:0:0:0:
75,207,54348,1,2,0:0:0:0:
66,309,54651,2,0,L|170:320,1,100,2|8,0:0|3:0,0:0:0:0:
249,263,55257,1,10,1:2:0:0:
344,291,55560,6,0,L|351:241,1,50,2|2,1:2|0:0,0:0:0:0:
381,201,55863,2,0,P|410:197|442:217,2,50,8|2|2,3:0|0:0|0:0,0:0:0:0:
351,160,56318,2,0,P|324:123|327:67,1,100,2|2,3:2|0:0,0:0:0:0:
339,22,56773,1,2,3:2:0:0:
439,36,57076,6,0,L|431:117,1,50,2|2,0:0|0:0,0:0:0:0:
464,125,57379,2,0,L|472:206,1,50,8|2,3:0|0:0,0:0:0:0:
429,205,57682,2,0,L|421:286,1,50,10|8,0:0|3:0,0:0:0:0:
451,296,57985,1,2,0:0:0:0:
379,365,58288,5,8,3:0:0:0:
286,327,58591,2,0,L|288:264,2,50,2|2|10,0:0|0:0|0:0,0:0:0:0:
243,352,59045,2,0,P|184:313|183:290,1,100,2|2,0:0|1:2,0:0:0:0:
171,241,59500,1,2,0:0:0:0:
241,170,59803,1,2,3:2:0:0:
168,100,60106,1,10,0:0:0:0:
96,173,60409,6,0,P|65:182|46:168,1,50,2|2,0:0|0:0,0:0:0:0:
23,131,60712,2,0,P|-1:108|1:85,1,50,8|2,3:0|0:0,0:0:0:0:
20,47,61015,1,2,0:0:0:0:
117,24,61318,2,0,B|153:11|153:11|222:51,1,100,10|2,0:0|0:0,0:0:0:0:
244,74,61773,2,0,L|314:64,2,50,2|2|2,0:0|0:0|0:0,0:0:0:0:
241,123,62227,2,0,P|229:166|244:231,1,100,2|2,0:0|0:0,0:0:0:0:
337,228,62833,1,2,0:0:0:0:
331,327,63136,6,0,L|265:334,1,50,8|2,3:0|0:0,0:0:0:0:
235,353,63439,2,0,L|185:347,1,50,2|2,0:0|0:0,0:0:0:0:
143,319,63742,2,0,L|88:325,2,50,10|2|0,0:0|0:0|0:0,0:0:0:0:
162,275,64197,1,2,0:0:0:0:
162,275,64348,2,0,P|165:250|171:225,1,50,2|2,0:0|0:0,0:0:0:0:
135,190,64651,2,0,P|129:153|114:82,1,100,8|10,3:0|1:2,0:0:0:0:
157,0,65257,1,2,1:0:0:0:
256,9,65560,6,0,P|299:30|311:100,1,100,8|2,3:0|0:1,0:0:0:0:
415,96,66167,2,0,P|418:144|364:190,1,100,8|2,3:0|0:1,0:0:0:0:
316,253,66773,1,8,3:0:0:0:
349,347,67076,1,8,3:0:0:0:
448,358,67379,1,8,3:0:0:0:
501,273,67682,1,8,3:0:0:0:
506,172,67985,6,0,L|486:38,1,100,8|2,3:0|0:0,0:0:0:0:
460,42,68439,1,2,0:0:0:0:
459,41,68591,2,0,P|431:3|382:-1,1,100,8|2,0:0|0:0,0:0:0:0:
340,27,69045,2,0,P|295:15|232:9,1,100,2|2,1:2|1:2,0:0:0:0:
206,44,69500,2,0,P|188:53|137:49,1,50,2|0,3:2|0:0,0:0:0:0:
112,35,69803,1,10,0:0:0:0:
22,78,70106,6,0,P|6:115|35:160,1,50,2|2,0:0|0:0,0:0:0:0:
39,161,70409,2,0,B|61:195|61:195|49:283,1,100,8|2,3:0|0:0,0:0:0:0:
31,299,70863,1,2,0:0:0:0:
31,299,71015,1,10,0:0:0:0:
128,339,71318,1,2,0:0:0:0:
128,339,71470,2,0,P|180:307|228:331,1,100,2|2,0:0|0:0,0:0:0:0:
249,351,71924,2,0,P|305:371|353:342,1,100,8|10,3:0|0:0,0:0:0:0:
389,349,72379,2,0,P|434:310|433:254,1,100,8|2,3:0|0:0,0:0:0:0:
463,229,72833,1,8,3:0:0:0:
462,129,73136,6,0,L|521:125,2,50,2|2|10,0:0|0:0|0:0,0:0:0:0:
426,93,73591,2,0,L|358:85,1,50,2|2,0:0|0:0,0:0:0:0:
327,75,73894,1,2,1:2:0:0:
254,16,74197,1,2,1:2:0:0:
254,16,74348,2,0,P|217:12|175:38,1,50,2|2,3:2|0:0,0:0:0:0:
174,54,74651,1,10,1:2:0:0:
74,45,74954,1,2,0:0:0:0:
14,125,75257,6,0,L|23:230,1,100,8|2,3:0|0:0,0:0:0:0:
85,301,75863,1,10,0:0:0:0:
160,235,76167,1,2,0:0:0:0:
160,235,76318,2,0,P|203:223|248:271,1,100,2|2,0:0|0:0,0:0:0:0:
271,297,76773,2,0,P|303:324|371:321,1,100,8|10,3:0|0:0,0:0:0:0:
408,335,77227,2,0,P|447:320|478:260,1,100,8|2,3:0|0:0,0:0:0:0:
511,236,77682,1,8,3:0:0:0:
496,137,77985,1,0,0:0:0:0:
478,38,78288,6,0,B|444:68|444:68|344:53,1,100,10|2,0:0|0:0,0:0:0:0:
308,4,78894,2,0,P|285:14|271:34,1,50,2|2,0:0|1:2,0:0:0:0:
249,79,79197,2,0,P|246:103|256:126,1,50,2|2,3:2|0:0,0:0:0:0:
279,170,79500,2,0,P|199:198|154:239,1,100,10|2,1:2|0:0,0:0:0:0:
93,245,80106,6,0,P|19:200|26:171,1,100,8|2,3:0|0:0,0:0:0:0:
2,103,80712,2,0,L|108:92,1,100,10|2,0:0|0:0,0:0:0:0:
171,20,81318,2,0,P|208:24|237:26,1,50,2|2,0:0|0:0,0:0:0:0:
250,65,81621,2,0,P|274:62|388:54,1,100,8|10,3:0|0:0,0:0:0:0:
386,21,82076,2,0,P|429:36|464:94,1,100,8|2,3:0|0:0,0:0:0:0:
505,99,82530,5,8,3:0:0:0:
485,197,82833,1,2,0:0:0:0:
463,297,83136,1,10,0:0:0:0:
463,297,83287,2,0,L|345:283,1,100,2|2,0:0|1:2,0:0:0:0:
340,329,83742,2,0,P|306:341|255:315,1,50,2|2,0:0|1:2,0:0:0:0:
242,344,84045,2,0,P|214:320|211:263,1,50,2|2,3:2|0:0,0:0:0:0:
178,269,84348,2,0,B|143:249|143:249|77:269,1,100,10|2,0:0|0:0,0:0:0:0:
5,207,84954,6,0,P|-13:160|9:109,1,100,8|0,3:0|0:0,0:0:0:0:
69,39,85560,2,0,P|116:20|167:42,1,100,8|2,3:0|0:0,0:0:0:0:
224,113,86167,5,8,3:0:0:0:
315,75,86470,1,8,3:0:0:0:
412,96,86773,1,8,3:0:0:0:
469,177,87076,1,8,3:0:0:0:
454,275,87379,1,10,3:0:0:0:
