osu file format v14

[General]
AudioFilename: audio.mp3
AudioLeadIn: 0
PreviewTime: 17004
Countdown: 0
SampleSet: Soft
StackLeniency: 0.2
Mode: 2
LetterboxInBreaks: 0
WidescreenStoryboard: 1

[Editor]
Bookmarks: 17078,50182,66733
DistanceSpacing: 0.6
BeatDivisor: 4
GridSize: 32
TimelineZoom: 1.8

[Metadata]
Title:Shounentachi no Natsuyasumi Teki na BGM
TitleUnicode:少年達の夏休み的なBGM
Artist:Takao Masaki
ArtistUnicode:鷹尾まさき
Creator:Secre
Version:Salad
Source:
Tags:electronic instrumental hololive EN holoEN vtuber virtual youtuber english takanashi kiara 小鳥遊キアラ loading screen kfp kentucky fried phoenix bird chicken bottom left タカオマサキ background music tenchou kicky ricky chickenbible
BeatmapID:2689959
BeatmapSetID:1296501

[Difficulty]
HPDrainRate:3
CircleSize:3
OverallDifficulty:6.7
ApproachRate:6.7
SliderMultiplier:1.88
SliderTickRate:0.66

[Events]
//Background and Video events
0,0,"KIKKERIKI.png",0,0
//Break Periods
//Storyboard Layer 0 (Background)
//Storyboard Layer 1 (Fail)
//Storyboard Layer 2 (Pass)
//Storyboard Layer 3 (Foreground)
//Storyboard Layer 4 (Overlay)
//Storyboard Sound Samples

[TimingPoints]
517,517.241379310345,4,2,1,50,1,0
16939,-100,4,2,1,70,0,0
50042,-100,4,2,1,40,0,0
64654,-100,4,2,1,55,0,0
64784,-100,4,2,1,55,0,0
65042,-100,4,1,1,45,0,0
65689,-100,4,2,1,60,0,0
65948,-100,4,1,1,45,0,0
66206,-100,4,3,1,55,0,0
66465,-100,4,3,2,55,0,0
66594,-100,4,3,2,55,0,0
66723,-100,4,2,1,70,0,0

[Colours]
Combo1 : 235,67,48
Combo2 : 236,247,43
Combo3 : 244,128,11
Combo4 : 241,75,245

[HitObjects]
357,172,517,6,0,L|140:170,1,188,8|8,3:0|1:0,0:0:0:0:
261,214,1292,1,2,0:0:0:0:
441,255,1810,2,0,L|445:154,1,94,8|8,1:0|1:0,0:0:0:0:
357,163,2327,1,2,0:0:0:0:
261,245,2585,6,0,L|126:248,1,94,2|2,0:0|0:0,0:0:0:0:
263,243,3103,2,0,L|392:245,1,94,8|2,1:0|0:0,0:0:0:0:
265,243,3620,2,0,P|196:202|289:158,1,188,2|8,0:0|1:0,0:0:0:0:
353,155,4396,1,2,0:0:0:0:
261,177,4654,6,0,L|36:177,1,188,2|8,0:0|1:0,0:0:0:0:
168,230,5430,1,2,0:0:0:0:
360,162,5948,2,0,L|372:259,1,94,8|8,1:0|1:0,0:0:0:0:
267,252,6465,1,2,0:0:0:0:
181,231,6723,6,0,L|301:230,1,94,2|2,0:0|0:0,0:0:0:0:
380,224,7241,2,0,L|272:224,1,94,8|2,1:0|0:0,0:0:0:0:
380,222,7758,2,0,P|438:256|366:333,1,188,2|8,0:0|1:0,0:0:0:0:
284,309,8534,1,2,0:0:0:0:
82,264,8792,6,0,P|96:180|189:150,1,188,2|8,0:0|1:0,0:0:0:0:
278,220,9568,1,2,0:0:0:0:
86,203,10085,1,8,1:0:0:0:
280,198,10603,1,2,0:0:0:0:
184,223,10861,6,0,L|175:111,1,94,2|2,0:0|0:0,0:0:0:0:
272,127,11379,2,0,L|486:129,1,188,8|0,1:0|0:0,0:0:0:0:
359,213,12154,2,0,L|232:214,2,94,8|8|2,1:0|1:0|0:0,0:0:0:0:
262,286,12930,6,0,L|138:287,1,94,2|2,0:0|0:0,0:0:0:0:
263,286,13448,2,0,P|351:258|258:148,1,282,8|8,1:0|1:0,0:0:0:0:
175,217,14482,2,0,L|172:102,1,94,8|2,1:0|0:0,0:0:0:0:
271,98,14999,6,0,P|271:193|54:98,1,470,2|8,0:0|1:0,0:0:0:0:
336,204,17068,6,0,P|337:145|217:101,1,188,4|8,0:0|1:0,0:0:0:0:
135,152,17844,1,2,0:0:0:0:
306,167,18361,2,0,L|315:277,1,94,8|8,1:0|1:0,0:0:0:0:
213,210,18879,2,0,L|208:132,1,47,2|2,0:0|0:0,0:0:0:0:
278,141,19137,6,0,L|401:142,1,94,8|2,3:0|0:0,0:0:0:0:
278,141,19654,2,0,L|170:138,1,94,8|2,1:0|0:0,0:0:0:0:
392,132,20172,2,0,P|446:152|378:232,1,188,2|8,0:0|1:0,0:0:0:0:
286,228,20948,1,2,0:0:0:0:
75,197,21206,6,0,L|275:200,1,188,8|8,3:0|1:0,0:0:0:0:
168,148,21982,1,2,0:0:0:0:
346,155,22499,2,0,L|358:266,1,94,8|8,1:0|1:0,0:0:0:0:
256,232,23017,2,0,L|178:231,1,47,2|2,0:0|0:0,0:0:0:0:
256,232,23275,6,0,L|385:233,1,94,8|2,3:0|0:0,0:0:0:0:
256,232,23792,2,0,L|155:230,1,94,8|2,1:0|0:0,0:0:0:0:
362,113,24310,2,0,P|364:186|251:224,1,188,2|8,0:0|1:0,0:0:0:0:
176,203,25085,1,2,0:0:0:0:
380,157,25344,6,0,P|443:189|358:243,1,188,8|8,3:0|1:0,0:0:0:0:
167,176,26120,1,2,0:0:0:0:
351,152,26637,1,8,1:0:0:0:
139,167,27154,1,2,0:0:0:0:
329,139,27413,6,0,L|339:254,1,94,8|2,3:0|0:0,0:0:0:0:
240,238,27930,1,8,1:0:0:0:
40,233,28189,2,0,P|33:174|155:122,1,188,2|8,0:0|1:0,0:0:0:0:
241,153,28965,2,0,L|357:153,1,94,8|2,1:0|0:0,0:0:0:0:
129,231,29482,6,0,L|124:120,1,94,8|2,3:0|0:0,0:0:0:0:
234,115,29999,2,0,P|334:161|226:252,1,282,8|8,1:0|1:0,0:0:0:0:
146,134,31034,2,0,L|42:134,1,94,8|2,1:0|0:0,0:0:0:0:
249,144,31551,6,0,L|465:142,1,188,8|8,3:0|1:0,0:0:0:0:
347,232,32327,1,2,0:0:0:0:
138,208,32844,2,0,L|130:94,1,94,8|8,1:0|1:0,0:0:0:0:
496,219,33620,6,0,L|286:221,1,188,4|8,0:0|1:0,0:0:0:0:
211,162,34396,1,2,0:0:0:0:
393,168,34913,2,0,L|297:169,1,94,8|8,1:0|1:0,0:0:0:0:
213,210,35431,2,0,L|208:132,1,47,2|2,0:0|0:0,0:0:0:0:
278,141,35689,6,0,L|401:142,1,94,8|2,3:0|0:0,0:0:0:0:
278,141,36206,2,0,L|170:138,1,94,8|2,1:0|0:0,0:0:0:0:
392,132,36724,2,0,P|446:152|378:232,1,188,2|8,0:0|1:0,0:0:0:0:
286,228,37500,1,2,0:0:0:0:
75,197,37758,6,0,L|275:200,1,188,8|8,3:0|1:0,0:0:0:0:
168,148,38534,1,2,0:0:0:0:
346,155,39051,2,0,L|358:266,1,94,8|8,1:0|1:0,0:0:0:0:
256,232,39569,2,0,L|178:231,1,47,2|2,0:0|0:0,0:0:0:0:
256,232,39827,6,0,L|385:233,1,94,8|2,3:0|0:0,0:0:0:0:
256,232,40344,2,0,L|155:230,1,94,8|2,1:0|0:0,0:0:0:0:
360,114,40862,2,0,P|364:182|251:227,1,188,2|8,0:0|1:0,0:0:0:0:
176,203,41637,1,2,0:0:0:0:
380,157,41896,6,0,P|434:126|357:53,1,188,8|8,3:0|1:0,0:0:0:0:
167,176,42672,1,2,0:0:0:0:
351,152,43189,1,8,1:0:0:0:
139,167,43706,1,2,0:0:0:0:
329,139,43965,6,0,L|339:254,1,94,8|2,3:0|0:0,0:0:0:0:
240,238,44482,1,8,1:0:0:0:
40,233,44741,2,0,P|33:174|155:122,1,188,2|8,0:0|1:0,0:0:0:0:
241,153,45517,2,0,L|357:153,1,94,8|2,1:0|0:0,0:0:0:0:
129,231,46034,6,0,L|124:120,1,94,8|2,3:0|0:0,0:0:0:0:
234,115,46551,2,0,P|334:161|226:252,1,282,8|8,1:0|1:0,0:0:0:0:
146,134,47586,2,0,L|44:134,1,94,8|2,1:0|0:0,0:0:0:0:
249,144,48103,6,0,L|465:142,1,188,8|8,3:0|1:0,0:0:0:0:
347,232,48879,1,2,0:0:0:0:
138,208,49396,2,0,L|130:94,1,94,8|8,1:0|1:0,0:0:0:0:
305,149,50172,5,8,3:0:0:0:
125,149,50689,1,8,1:0:0:0:
318,157,51206,2,0,L|321:264,1,94,2|8,0:0|1:0,0:0:0:0:
125,206,51982,6,0,L|243:206,2,94,2|8|2,0:0|3:0|0:0,0:0:0:0:
303,170,53017,2,0,L|189:170,2,94,2|2|8,0:0|0:0|1:0,0:0:0:0:
131,200,54051,1,2,0:0:0:0:
330,139,54310,5,8,3:0:0:0:
150,199,54827,1,8,1:0:0:0:
328,149,55344,2,0,L|334:278,1,94,2|8,0:0|1:0,0:0:0:0:
140,226,56120,6,0,L|260:227,2,94,2|8|2,0:0|3:0|0:0,0:0:0:0:
322,177,57154,2,0,L|213:179,2,94,2|2|8,0:0|0:0|1:0,0:0:0:0:
148,161,58189,1,2,0:0:0:0:
353,160,58448,6,0,P|407:123|333:39,1,188,8|8,3:0|1:0,0:0:0:0:
255,157,59223,1,2,0:0:0:0:
64,160,59741,1,8,1:0:0:0:
313,177,60517,5,8,3:0:0:0:
133,189,61034,2,0,L|237:188,1,94,8|2,1:0|0:0,0:0:0:0:
415,183,61810,2,0,L|508:183,2,94,8|8|2,1:0|1:0|0:0,0:0:0:0:
209,168,62585,5,8,3:0:0:0:
376,150,63103,2,0,L|387:261,1,94,8|2,1:0|0:0,0:0:0:0:
193,221,63879,2,0,L|67:224,2,94,8|8|0,1:0|1:0|0:0,0:0:0:0:
404,164,64654,6,0,L|409:231,1,47,8|0,0:0|0:0,0:0:0:0:
348,236,64913,1,0,0:0:0:0:
237,111,65172,6,0,L|143:111,1,94,8|8,0:0|0:0,0:0:0:0:
348,136,65689,1,8,0:0:0:0:
439,132,65948,2,0,L|493:132,1,47,8|8,0:0|0:0,0:0:0:0:
486,132,66206,2,0,L|436:131,1,47,8|8,0:0|0:0,0:0:0:0:
385,182,66465,1,8,0:0:0:0:
176,204,66723,6,0,L|165:90,1,94,4|0,0:0|0:0,0:0:0:0:
260,105,67241,1,12,1:0:0:0:
454,175,67499,1,2,0:0:0:0:
377,203,67758,6,0,L|276:201,2,94,2|8|8,0:0|1:0|1:0,0:0:0:0:
283,201,68534,2,0,L|288:123,1,47,2|2,0:0|0:0,0:0:0:0:
226,150,68792,6,0,L|103:151,1,94,8|2,3:0|0:0,0:0:0:0:
226,150,69309,2,0,L|334:147,1,94,8|2,1:0|0:0,0:0:0:0:
120,132,69827,2,0,P|66:152|134:232,1,188,2|8,0:0|1:0,0:0:0:0:
226,228,70603,1,0,0:0:0:0:
437,197,70861,6,0,L|237:200,1,188,8|8,3:0|1:0,0:0:0:0:
344,148,71637,1,2,0:0:0:0:
166,155,72154,2,0,L|154:266,1,94,8|8,1:0|1:0,0:0:0:0:
256,232,72672,2,0,L|334:231,1,47,2|2,0:0|0:0,0:0:0:0:
256,232,72930,6,0,L|127:233,1,94,8|2,3:0|0:0,0:0:0:0:
256,232,73447,2,0,L|357:230,1,94,8|2,1:0|0:0,0:0:0:0:
149,109,73965,2,0,P|149:186|249:224,1,188,2|8,0:0|1:0,0:0:0:0:
336,203,74740,1,2,0:0:0:0:
132,157,74999,6,0,L|1:156,2,94,8|0|8,3:0|0:0|1:0,0:0:0:0:
345,176,75775,1,2,0:0:0:0:
161,152,76292,1,8,1:0:0:0:
373,167,76809,1,2,0:0:0:0:
183,139,77068,6,0,L|173:254,1,94,8|2,3:0|0:0,0:0:0:0:
272,238,77585,1,8,1:0:0:0:
472,233,77844,2,0,P|479:174|357:122,1,188,2|8,0:0|1:0,0:0:0:0:
271,153,78620,2,0,L|155:153,1,94,8|2,1:0|0:0,0:0:0:0:
383,231,79137,6,0,L|388:120,1,94,8|2,3:0|0:0,0:0:0:0:
278,115,79654,2,0,P|178:161|286:252,1,282,8|8,1:0|1:0,0:0:0:0:
366,134,80689,2,0,L|463:134,1,94,8|2,1:0|0:0,0:0:0:0:
263,144,81206,6,0,L|47:142,1,188,8|8,3:0|1:0,0:0:0:0:
165,232,81982,1,2,0:0:0:0:
374,208,82499,2,0,L|382:94,1,94,8|8,1:0|1:0,0:0:0:0:
16,220,83275,6,0,L|142:220,1,94,4|0,0:0|0:0,0:0:0:0:
199,230,83792,1,12,1:0:0:0:
415,268,84051,1,2,0:0:0:0:
315,263,84310,2,0,L|315:167,1,94,2|8,0:0|1:0,0:0:0:0:
206,188,84827,1,8,1:0:0:0:
299,210,85086,2,0,L|304:132,1,47,2|2,0:0|0:0,0:0:0:0:
234,141,85344,6,0,L|111:142,1,94,8|2,3:0|0:0,0:0:0:0:
234,141,85861,2,0,L|342:138,1,94,8|2,1:0|0:0,0:0:0:0:
120,132,86379,2,0,P|66:152|134:232,1,188,2|8,0:0|1:0,0:0:0:0:
226,228,87155,1,0,0:0:0:0:
437,197,87413,6,0,L|237:200,1,188,8|8,3:0|1:0,0:0:0:0:
344,148,88189,1,2,0:0:0:0:
166,155,88706,2,0,L|154:266,1,94,8|8,1:0|1:0,0:0:0:0:
256,232,89224,2,0,L|334:231,1,47,2|2,0:0|0:0,0:0:0:0:
256,232,89482,6,0,L|127:233,1,94,8|2,3:0|0:0,0:0:0:0:
256,232,89999,2,0,L|357:230,1,94,8|2,1:0|0:0,0:0:0:0:
148,111,90517,2,0,P|148:185|249:225,1,188,2|8,0:0|1:0,0:0:0:0:
336,203,91292,1,0,0:0:0:0:
132,157,91551,6,0,L|1:156,2,94,8|0|8,3:0|0:0|1:0,0:0:0:0:
345,176,92327,1,2,0:0:0:0:
161,152,92844,1,8,1:0:0:0:
373,167,93361,1,2,0:0:0:0:
183,139,93620,6,0,L|173:254,1,94,8|2,3:0|0:0,0:0:0:0:
272,238,94137,1,8,1:0:0:0:
472,233,94396,2,0,P|479:174|357:122,1,188,2|8,0:0|1:0,0:0:0:0:
271,153,95172,2,0,L|155:153,1,94,8|2,1:0|0:0,0:0:0:0:
383,231,95689,6,0,L|388:120,1,94,8|2,3:0|0:0,0:0:0:0:
278,115,96206,2,0,P|178:161|286:252,1,282,8|8,1:0|1:0,0:0:0:0:
367,132,97241,2,0,L|465:132,1,94,8|2,1:0|0:0,0:0:0:0:
263,144,97758,6,0,L|47:142,1,188,8|8,3:0|1:0,0:0:0:0:
165,232,98534,1,2,0:0:0:0:
374,208,99051,2,0,L|382:94,1,94,8|8,1:0|1:0,0:0:0:0:
