osu file format v14

[General]
AudioFilename: audio.ogg
AudioLeadIn: 0
PreviewTime: 56670
Countdown: 0
SampleSet: Soft
StackLeniency: 0.7
Mode: 3
LetterboxInBreaks: 0
SpecialStyle: 0
WidescreenStoryboard: 1

[Editor]
DistanceSpacing: 1
BeatDivisor: 4
GridSize: 32
TimelineZoom: 2

[Metadata]
Title:Eden through the rough (TV Size)
TitleUnicode:Eden through the rough (TV Size)
Artist:Takanori Nishikawa
ArtistUnicode:西川貴教
Creator:Mirsaaa
Version:Normal
Source:EDENS ZERO
Tags:エデンズゼロ Anime OP1 Opening Japanese Rock J-Rock JRock Male Vocal Vocals T.M.Revolution Ryutaro Fujinaga 藤永龍太郎 Spirit Garden ESCL-5510
BeatmapID:3689470
BeatmapSetID:1799685

[Difficulty]
HPDrainRate:7.5
CircleSize:4
OverallDifficulty:7.5
ApproachRate:5
SliderMultiplier:1.4
SliderTickRate:1

[Events]
//Background and Video events
0,0,"Eden.jpg",0,0
Video,824,"Video.m4v"
//Break Periods
//Storyboard Layer 0 (Background)
//Storyboard Layer 1 (Fail)
//Storyboard Layer 2 (Pass)
//Storyboard Layer 3 (Foreground)
//Storyboard Layer 4 (Overlay)
//Storyboard Sound Samples
Sample,2516,0,"Hat open.wav",40
Sample,11131,0,"Hat open.wav",40
Sample,11439,0,"Hat open.wav",40
Sample,11747,0,"Hat open.wav",40
Sample,12054,0,"Hat open.wav",40
Sample,12362,0,"Hat open.wav",40
Sample,12670,0,"Hat open.wav",40
Sample,21285,0,"Hat open.wav",40
Sample,21901,0,"Hat open.wav",40
Sample,22516,0,"Hat open.wav",40
Sample,23131,0,"Hat open.wav",40
Sample,23747,0,"Hat open.wav",40
Sample,24362,0,"Hat open.wav",40
Sample,24978,0,"Hat open.wav",40
Sample,25901,0,"Hat open.wav",40
Sample,26208,0,"Hat open.wav",40
Sample,27131,0,"Hat open.wav",40
Sample,27439,0,"Tom2.wav",40
Sample,29285,0,"Hat open.wav",40
Sample,29901,0,"Hat open.wav",40
Sample,31131,0,"Hat open.wav",40
Sample,31747,0,"Hat open.wav",40
Sample,32362,0,"Hat open.wav",40
Sample,32978,0,"Hat open.wav",40
Sample,33901,0,"Hat open.wav",40
Sample,37131,0,"Tom2.wav",40
Sample,56362,0,"Hat open.wav",40
Sample,58516,0,"Hat open.wav",40
Sample,59439,0,"Hat open.wav",40
Sample,60670,0,"Hat open.wav",40
Sample,61285,0,"Hat open.wav",40
Sample,64516,0,"Hat open.wav",40
Sample,66824,0,"Hat open.wav",40
Sample,68054,0,"Hat open.wav",40
Sample,68670,0,"Hat open.wav",40
Sample,69285,0,"Hat open.wav",40
Sample,70516,0,"Hat open.wav",40
Sample,71131,0,"Hat open.wav",40
Sample,83439,0,"Hat open.wav",40
Sample,83747,0,"Hat open.wav",40
Sample,84054,0,"Hat open.wav",40
Sample,85285,0,"Hat open.wav",40
Sample,85901,0,"Hat open.wav",40
Sample,89285,0,"Tom2.wav",40
Sample,89439,0,"Tom2.wav",40

[TimingPoints]
978,307.692307692308,4,2,1,40,1,0
57439,-100,4,2,1,40,0,1
77285,-100,4,2,1,40,0,0

[HitObjects]
320,192,978,1,2,0:0:0:0:
448,192,978,128,4,1439:0:0:0:0:
64,192,1439,128,2,1901:0:0:0:0:
192,192,1439,1,4,0:0:0:0:
320,192,1901,128,2,2824:0:0:0:0:
448,192,1901,1,4,0:0:0:0:
64,192,2208,1,2,0:0:0:0:
192,192,2362,1,2,0:0:0:0:
448,192,2516,1,8,0:0:0:0:
64,192,2670,1,8,0:0:0:0:
192,192,2824,1,8,0:0:0:0:
448,192,2978,1,0,0:0:0:40:Tom2.wav
64,192,3131,1,0,0:0:0:40:Tom3.wav
320,192,3285,1,0,0:0:0:40:Tom3.wav
64,192,3439,128,2,3901:0:0:0:0:
192,192,3439,1,4,0:0:0:0:
448,192,3593,1,0,0:0:0:0:
320,192,3747,1,8,0:0:0:0:
192,192,3901,1,2,0:0:0:0:
448,192,3901,1,0,0:0:0:40:Hat open.wav
64,192,4362,128,2,4824:0:0:0:0:
192,192,4362,1,0,0:0:0:40:Hat open.wav
448,192,4516,1,0,0:0:0:0:
320,192,4670,1,8,0:0:0:0:
192,192,4824,1,2,0:0:0:0:
448,192,4824,1,0,0:0:0:40:Hat open.wav
320,192,5131,1,0,0:0:0:0:
64,192,5285,128,8,5439:0:0:0:0:
448,192,5439,128,8,5593:0:0:0:0:
192,192,5593,128,8,5747:0:0:0:0:
320,192,5747,128,2,5901:0:0:0:0:
64,192,5901,1,8,0:0:0:0:
448,192,5901,1,4,0:0:0:0:
192,192,6054,1,2,0:0:0:0:
320,192,6208,1,2,0:0:0:0:
64,192,6362,1,8,0:0:0:0:
448,192,6362,128,4,6670:0:0:0:0:
192,192,6670,1,2,0:0:0:0:
320,192,6824,1,8,0:0:0:0:
448,192,6824,1,4,0:0:0:0:
64,192,6978,128,2,7285:0:0:0:0:
320,192,7285,1,8,0:0:0:0:
448,192,7285,1,0,0:0:0:40:Hat open.wav
192,192,7439,1,2,0:0:0:0:
448,192,7593,1,2,0:0:0:0:
64,192,7747,1,8,0:0:0:0:
320,192,7747,1,4,0:0:0:0:
192,192,7901,1,2,0:0:0:0:
320,192,8054,1,8,0:0:0:0:
448,192,8054,1,4,0:0:0:0:
64,192,8208,1,2,0:0:0:0:
320,192,8362,1,8,0:0:0:0:
448,192,8362,1,4,0:0:0:0:
192,192,8516,1,2,0:0:0:0:
448,192,8670,1,2,0:0:0:0:
64,192,8824,1,8,0:0:0:0:
192,192,8824,1,4,0:0:0:0:
320,192,8978,1,2,0:0:0:0:
64,192,9131,1,2,0:0:0:0:
320,192,9285,1,8,0:0:0:0:
448,192,9285,1,4,0:0:0:0:
192,192,9439,1,2,0:0:0:0:
320,192,9593,1,2,0:0:0:0:
64,192,9747,1,8,0:0:0:0:
192,192,9747,1,4,0:0:0:0:
448,192,9901,1,2,0:0:0:0:
320,192,10054,1,2,0:0:0:0:
64,192,10208,128,8,10516:0:0:0:0:
192,192,10362,1,8,0:0:0:0:
448,192,10516,128,10,10824:0:0:0:0:
320,192,10670,1,8,0:0:0:0:
64,192,10824,1,2,0:0:0:0:
192,192,10824,1,4,0:0:0:0:
320,192,10978,1,0,0:0:0:0:
64,192,11131,1,8,0:0:0:0:
448,192,11285,1,0,0:0:0:0:
64,192,11439,1,2,0:0:0:0:
320,192,11593,1,0,0:0:0:0:
64,192,11747,1,8,0:0:0:0:
192,192,11901,1,0,0:0:0:0:
448,192,12054,1,2,0:0:0:0:
64,192,12208,1,0,0:0:0:0:
448,192,12362,1,8,0:0:0:0:
192,192,12516,1,0,0:0:0:0:
448,192,12670,1,2,0:0:0:0:
320,192,12824,1,2,0:0:0:0:
64,192,12978,1,8,0:0:0:0:
192,192,12978,1,4,0:0:0:0:
320,192,13131,1,2,0:0:0:0:
64,192,13285,1,8,0:0:0:0:
448,192,13285,1,4,0:0:0:0:
192,192,13439,1,2,0:0:0:0:
320,192,13593,1,2,0:0:0:0:
192,192,13747,128,8,14054:0:0:0:0:
448,192,13747,1,4,0:0:0:0:
320,192,14054,1,2,0:0:0:0:
64,192,14208,1,8,0:0:0:0:
448,192,14208,1,0,0:0:0:40:Hat open.wav
320,192,14362,1,2,0:0:0:0:
192,192,14516,1,8,0:0:0:0:
448,192,14670,128,0,14978:0:0:0:0:
64,192,14978,1,0,0:0:0:40:Tom1.wav
320,192,15131,1,0,0:0:0:40:Tom2.wav
192,192,15285,1,2,0:0:0:0:
448,192,15439,1,0,0:0:0:40:Tom2.wav
320,192,15593,1,0,0:0:0:40:Tom3.wav
64,192,15747,1,2,0:0:0:0:
192,192,15747,1,4,0:0:0:0:
448,192,16054,1,2,0:0:0:0:
448,192,16362,1,2,0:0:0:0:
192,192,16670,1,2,0:0:0:0:
192,192,16978,1,2,0:0:0:0:
320,192,17285,1,2,0:0:0:0:
64,192,17439,1,0,0:0:0:0:
320,192,17593,1,2,0:0:0:0:
192,192,17901,1,2,0:0:0:0:
448,192,18054,1,0,0:0:0:40:Hat open.wav
192,192,18208,1,2,0:0:0:0:
64,192,18516,1,2,0:0:0:0:
64,192,18824,1,2,0:0:0:0:
320,192,19131,1,2,0:0:0:0:
320,192,19439,128,2,20362:0:0:0:0:
448,192,19593,1,0,0:0:0:0:
64,192,19747,1,2,0:0:0:0:
192,192,20054,1,0,0:0:0:40:Hat open.wav
448,192,20208,1,2,0:0:0:0:
64,192,20362,1,8,0:0:0:0:
192,192,20362,128,0,20670:0:0:0:40:Tom2.wav
320,192,20670,1,2,0:0:0:0:
448,192,20670,1,4,0:0:0:0:
64,192,20824,1,2,0:0:0:0:
192,192,20978,1,8,0:0:0:0:
320,192,20978,1,0,0:0:0:40:Hat open.wav
448,192,21285,1,2,0:0:0:0:
64,192,21439,1,2,0:0:0:0:
192,192,21593,1,8,0:0:0:0:
320,192,21593,1,0,0:0:0:40:Hat open.wav
64,192,21901,1,2,0:0:0:0:
448,192,22054,1,2,0:0:0:0:
64,192,22208,1,8,0:0:0:0:
192,192,22208,1,0,0:0:0:40:Hat open.wav
448,192,22516,1,2,0:0:0:0:
192,192,22670,1,2,0:0:0:0:
320,192,22824,1,8,0:0:0:0:
448,192,22824,1,0,0:0:0:40:Hat open.wav
64,192,23131,1,2,0:0:0:0:
320,192,23285,1,2,0:0:0:0:
192,192,23439,1,8,0:0:0:0:
448,192,23439,1,0,0:0:0:40:Hat open.wav
320,192,23747,1,2,0:0:0:0:
192,192,23901,1,2,0:0:0:0:
64,192,24054,1,8,0:0:0:0:
320,192,24054,1,0,0:0:0:40:Hat open.wav
448,192,24362,1,2,0:0:0:0:
320,192,24516,1,2,0:0:0:0:
64,192,24670,1,8,0:0:0:0:
192,192,24670,1,0,0:0:0:40:Hat open.wav
64,192,24978,1,2,0:0:0:0:
192,192,25131,1,2,0:0:0:0:
320,192,25285,1,8,0:0:0:0:
448,192,25285,128,4,25593:0:0:0:0:
64,192,25593,1,2,0:0:0:0:
192,192,25593,1,4,0:0:0:0:
320,192,25901,1,2,0:0:0:0:
320,192,26208,1,2,0:0:0:0:
192,192,26516,1,2,0:0:0:0:
320,192,26670,1,8,0:0:0:0:
448,192,26670,1,4,0:0:0:0:
64,192,26824,1,2,0:0:0:0:
192,192,27131,1,2,0:0:0:0:
448,192,27285,1,0,0:0:0:40:Tom2.wav
320,192,27439,1,2,0:0:0:0:
320,192,27593,1,0,0:0:0:40:Tom2.wav
64,192,27747,1,2,0:0:0:0:
192,192,27901,1,0,0:0:0:40:Tom2.wav
320,192,28054,1,2,0:0:0:0:
448,192,28054,1,4,0:0:0:0:
64,192,28362,1,2,0:0:0:0:
192,192,28516,1,8,0:0:0:0:
448,192,28516,1,4,0:0:0:0:
320,192,28670,1,2,0:0:0:0:
64,192,28978,1,6,0:0:0:0:
448,192,28978,1,8,0:0:0:0:
192,192,29285,1,2,0:0:0:0:
320,192,29439,1,2,0:0:0:0:
64,192,29593,1,8,0:0:0:0:
192,192,29593,1,4,0:0:0:0:
448,192,29901,128,2,30054:0:0:0:0:
192,192,30054,128,8,30208:0:0:0:0:
320,192,30208,128,10,30362:0:0:0:0:
64,192,30362,128,8,30516:0:0:0:0:
192,192,30516,1,2,0:0:0:0:
448,192,30516,1,4,0:0:0:0:
320,192,30670,1,2,0:0:0:0:
64,192,30824,1,8,0:0:0:0:
192,192,30824,1,0,0:0:0:40:Hat open.wav
64,192,31131,1,2,0:0:0:0:
192,192,31285,1,2,0:0:0:0:
320,192,31439,1,8,0:0:0:0:
448,192,31439,1,0,0:0:0:40:Hat open.wav
320,192,31747,1,2,0:0:0:0:
192,192,31901,1,2,0:0:0:0:
64,192,32054,1,8,0:0:0:0:
448,192,32054,1,0,0:0:0:40:Hat open.wav
320,192,32362,1,2,0:0:0:0:
64,192,32516,1,2,0:0:0:0:
320,192,32670,1,8,0:0:0:0:
448,192,32670,128,4,32978:0:0:0:0:
192,192,32978,1,2,0:0:0:0:
320,192,33131,1,2,0:0:0:0:
64,192,33285,1,8,0:0:0:0:
192,192,33285,1,0,0:0:0:40:Hat open.wav
448,192,33439,1,2,0:0:0:0:
192,192,33593,1,8,0:0:0:0:
320,192,33593,1,0,0:0:0:40:Hat open.wav
64,192,33901,1,2,0:0:0:0:
320,192,34054,1,8,0:0:0:0:
448,192,34054,1,0,0:0:0:0:
192,192,34362,1,2,0:0:0:0:
64,192,34516,1,8,0:0:0:0:
320,192,34516,1,0,0:0:0:40:Hat open.wav
448,192,34670,1,8,0:0:0:0:
64,192,34824,1,8,0:0:0:0:
192,192,34978,1,0,0:0:0:40:Tom1.wav
320,192,35131,1,0,0:0:0:40:Tom2.wav
448,192,35285,1,0,0:0:0:40:Tom3.wav
64,192,35439,1,2,0:0:0:0:
192,192,35439,1,4,0:0:0:0:
320,192,35593,1,2,0:0:0:0:
448,192,35747,1,0,0:0:0:40:Tom3.wav
64,192,35901,1,0,0:0:0:40:Tom2.wav
192,192,36054,1,8,0:0:0:0:
320,192,36054,1,0,0:0:0:40:Tom2.wav
448,192,36362,1,2,0:0:0:0:
64,192,36516,1,2,0:0:0:0:
320,192,36670,1,0,0:0:0:40:Tom3.wav
192,192,36824,1,8,0:0:0:0:
448,192,36824,1,0,0:0:0:0:
64,192,36978,1,0,0:0:0:40:Tom2.wav
448,192,37131,1,2,0:0:0:0:
192,192,37285,1,8,0:0:0:0:
320,192,37285,1,0,0:0:0:40:Tom2.wav
320,192,37593,1,0,0:0:0:0:
64,192,37747,1,0,0:0:0:0:
192,192,37901,1,0,0:0:0:40:Tom2.wav
320,192,38054,1,2,0:0:0:0:
448,192,38208,1,0,0:0:0:0:
192,192,38362,1,2,0:0:0:0:
64,192,38516,1,8,0:0:0:0:
320,192,38516,1,0,0:0:0:40:Tom2.wav
448,192,38824,1,2,0:0:0:0:
192,192,38978,1,2,0:0:0:0:
64,192,39131,1,0,0:0:0:40:Tom2.wav
320,192,39285,1,8,0:0:0:0:
448,192,39285,1,0,0:0:0:0:
192,192,39439,1,0,0:0:0:40:Tom3.wav
320,192,39593,1,2,0:0:0:0:
64,192,39747,1,8,0:0:0:0:
192,192,39747,1,0,0:0:0:40:Tom2.wav
448,192,40054,1,0,0:0:0:40:Tom1.wav
320,192,40208,1,0,0:0:0:0:
64,192,40362,1,2,0:0:0:0:
192,192,40516,1,2,0:0:0:0:
320,192,40670,1,0,0:0:0:40:Tom3.wav
448,192,40824,1,2,0:0:0:0:
64,192,40978,1,8,0:0:0:0:
192,192,40978,1,0,0:0:0:40:Tom2.wav
320,192,41285,1,2,0:0:0:0:
192,192,41439,1,2,0:0:0:0:
64,192,41593,1,0,0:0:0:40:Tom3.wav
320,192,41747,1,8,0:0:0:0:
448,192,41747,1,0,0:0:0:40:Tom2.wav
192,192,41901,1,0,0:0:0:0:
320,192,42054,1,0,0:0:0:40:Tom2.wav
64,192,42208,1,8,0:0:0:0:
448,192,42208,1,0,0:0:0:40:Tom2.wav
192,192,42516,1,0,0:0:0:0:
320,192,42670,1,0,0:0:0:0:
64,192,42824,1,0,0:0:0:40:Tom2.wav
192,192,42978,1,2,0:0:0:0:
448,192,43131,1,0,0:0:0:40:Tom3.wav
320,192,43285,1,2,0:0:0:0:
64,192,43439,1,8,0:0:0:0:
192,192,43439,1,0,0:0:0:40:Tom2.wav
320,192,43747,1,0,0:0:0:40:Tom3.wav
192,192,43901,1,2,0:0:0:0:
448,192,44054,1,0,0:0:0:40:Tom3.wav
64,192,44208,1,8,0:0:0:0:
320,192,44208,1,0,0:0:0:40:Tom2.wav
192,192,44362,1,0,0:0:0:40:Tom3.wav
448,192,44516,1,0,0:0:0:40:Tom3.wav
64,192,44670,128,8,44978:0:0:0:0:
320,192,44670,1,0,0:0:0:40:Tom2.wav
192,192,44824,1,0,0:0:0:40:Tom2.wav
320,192,44978,1,8,0:0:0:0:
448,192,44978,1,4,0:0:0:0:
64,192,45285,1,8,0:0:0:0:
192,192,45285,1,4,0:0:0:0:
320,192,45439,1,2,0:0:0:0:
192,192,45593,1,2,0:0:0:0:
64,192,45747,1,8,0:0:0:0:
448,192,45747,1,4,0:0:0:0:
320,192,45901,1,2,0:0:0:0:
192,192,46054,1,2,0:0:0:0:
320,192,46208,1,8,0:0:0:0:
448,192,46208,1,0,0:0:0:40:Hat open.wav
64,192,46362,1,2,0:0:0:0:
192,192,46516,1,2,0:0:0:0:
64,192,46670,1,8,0:0:0:0:
448,192,46670,1,4,0:0:0:0:
320,192,46824,1,2,0:0:0:0:
192,192,46978,1,2,0:0:0:0:
320,192,47131,1,8,0:0:0:0:
448,192,47131,1,0,0:0:0:40:Hat open.wav
192,192,47439,1,8,0:0:0:0:
320,192,47439,1,0,0:0:0:40:Hat open.wav
64,192,47747,1,8,0:0:0:0:
192,192,47747,1,0,0:0:0:40:Hat open.wav
320,192,47901,1,2,0:0:0:0:
64,192,48054,1,2,0:0:0:0:
320,192,48208,1,8,0:0:0:0:
448,192,48208,1,4,0:0:0:0:
192,192,48362,1,2,0:0:0:0:
448,192,48516,1,2,0:0:0:0:
64,192,48670,1,8,0:0:0:0:
192,192,48670,1,0,0:0:0:40:Hat open.wav
320,192,48824,1,2,0:0:0:0:
64,192,48978,1,2,0:0:0:0:
320,192,49131,1,8,0:0:0:0:
448,192,49131,1,4,0:0:0:0:
192,192,49285,1,0,0:0:0:0:
448,192,49439,1,2,0:0:0:0:
64,192,49593,1,8,0:0:0:0:
192,192,49593,1,0,0:0:0:40:Hat open.wav
192,192,49901,1,8,0:0:0:0:
320,192,49901,1,4,0:0:0:0:
320,192,50208,1,2,0:0:0:0:
448,192,50208,128,4,51439:0:0:0:0:
64,192,51439,128,2,52670:0:0:0:0:
192,192,51439,1,4,0:0:0:0:
320,192,52670,1,12,0:0:0:0:
448,192,52670,1,2,0:0:0:0:
192,192,52978,1,0,0:0:0:20:soft-hitwhistle.wav
320,192,53131,1,0,0:0:0:20:soft-hitclap.wav
64,192,53285,1,0,0:0:0:20:soft-hitwhistle.wav
448,192,53439,1,0,0:0:0:30:soft-hitclap.wav
192,192,53593,1,0,0:0:0:20:soft-hitwhistle.wav
320,192,53747,1,8,0:0:0:0:
64,192,53901,1,0,0:0:0:20:soft-hitwhistle.wav
448,192,54054,1,8,0:0:0:0:
192,192,54208,1,0,0:0:0:20:soft-hitwhistle.wav
320,192,54362,1,8,0:0:0:0:
64,192,54516,1,2,0:0:0:0:
448,192,54670,1,2,0:0:0:0:
192,192,54824,1,8,0:0:0:0:
320,192,54824,128,4,55131:0:0:0:0:
64,192,55131,1,8,0:0:0:0:
192,192,55131,1,0,0:0:0:0:
448,192,55285,1,0,0:0:0:40:Tom2.wav
192,192,55439,1,2,0:0:0:0:
320,192,55593,1,8,0:0:0:0:
448,192,55593,1,0,0:0:0:0:
64,192,55747,1,0,0:0:0:40:Tom2.wav
320,192,55901,1,2,0:0:0:0:
64,192,56054,1,8,0:0:0:0:
192,192,56054,1,0,0:0:0:0:
320,192,56208,1,8,0:0:0:0:
448,192,56208,1,0,0:0:0:0:
64,192,56362,128,2,56516:0:0:0:0:
320,192,56516,128,0,56670:0:0:0:0:
192,192,56670,128,0,56824:0:0:0:0:
448,192,56824,128,0,56978:0:0:0:0:
64,192,56978,128,0,57131:0:0:0:0:
320,192,57131,128,0,57439:0:0:0:0:
64,192,57439,1,2,0:0:0:0:
192,192,57439,1,4,0:0:0:0:
448,192,57747,1,2,0:0:0:0:
192,192,57901,1,8,0:0:0:0:
320,192,57901,1,0,0:0:0:40:Hat open.wav
192,192,58208,1,2,0:0:0:0:
320,192,58208,1,0,0:0:0:40:Hat open.wav
64,192,58516,1,8,0:0:0:0:
192,192,58670,1,0,0:0:0:0:
320,192,58824,1,2,0:0:0:0:
448,192,58824,1,0,0:0:0:40:Hat open.wav
320,192,59131,1,8,0:0:0:0:
448,192,59131,1,0,0:0:0:40:Hat open.wav
64,192,59439,1,2,0:0:0:0:
320,192,59593,1,2,0:0:0:0:
64,192,59747,1,8,0:0:0:0:
192,192,59747,1,0,0:0:0:0:
320,192,59901,1,2,0:0:0:0:
448,192,59901,128,4,60208:0:0:0:0:
64,192,60208,1,2,0:0:0:0:
192,192,60362,1,8,0:0:0:0:
320,192,60362,1,0,0:0:0:40:Hat open.wav
448,192,60516,1,0,0:0:0:0:
64,192,60670,1,2,0:0:0:0:
192,192,60824,1,2,0:0:0:0:
320,192,60978,1,8,0:0:0:0:
448,192,60978,1,0,0:0:0:40:Hat open.wav
192,192,61131,1,0,0:0:0:0:
64,192,61285,1,2,0:0:0:0:
448,192,61439,1,2,0:0:0:0:
192,192,61593,1,8,0:0:0:0:
320,192,61593,1,0,0:0:0:40:Hat open.wav
64,192,61747,1,2,0:0:0:0:
320,192,61901,128,8,62054:0:0:0:0:
192,192,62054,128,2,62208:0:0:0:0:
320,192,62208,1,8,0:0:0:0:
448,192,62208,1,0,0:0:0:0:
64,192,62362,1,2,0:0:0:0:
192,192,62362,1,4,0:0:0:0:
448,192,62670,1,2,0:0:0:0:
64,192,62824,1,8,0:0:0:0:
320,192,62824,1,0,0:0:0:0:
192,192,62978,1,0,0:0:0:40:Hat open.wav
320,192,63131,1,2,0:0:0:0:
448,192,63285,1,0,0:0:0:40:Hat open.wav
64,192,63439,1,8,0:0:0:0:
192,192,63439,1,2,0:0:0:0:
320,192,63593,1,0,0:0:0:40:Hat open.wav
64,192,63747,1,2,0:0:0:0:
448,192,63901,1,0,0:0:0:40:Hat open.wav
192,192,64054,1,8,0:0:0:0:
320,192,64054,1,2,0:0:0:0:
64,192,64208,1,0,0:0:0:40:Hat open.wav
320,192,64362,1,2,0:0:0:0:
192,192,64516,1,2,0:0:0:0:
320,192,64670,1,8,0:0:0:0:
448,192,64670,1,0,0:0:0:0:
64,192,64824,1,2,0:0:0:0:
192,192,64824,1,4,0:0:0:0:
320,192,65131,1,2,0:0:0:0:
192,192,65285,1,8,0:0:0:0:
448,192,65285,1,0,0:0:0:40:Hat open.wav
64,192,65593,1,8,0:0:0:0:
320,192,65593,1,0,0:0:0:40:Hat open.wav
192,192,65901,1,8,0:0:0:0:
448,192,65901,1,4,0:0:0:0:
64,192,66208,1,8,0:0:0:0:
320,192,66208,1,4,0:0:0:0:
192,192,66362,1,2,0:0:0:0:
320,192,66516,1,8,0:0:0:0:
448,192,66516,1,4,0:0:0:0:
64,192,66670,1,0,0:0:0:0:
320,192,66824,128,2,66978:0:0:0:0:
192,192,66978,128,0,67131:0:0:0:30:soft-hitclap.wav
448,192,67131,128,8,67285:0:0:0:0:
64,192,67285,1,2,0:0:0:0:
320,192,67285,1,4,0:0:0:0:
192,192,67593,1,2,0:0:0:0:
320,192,67747,1,8,0:0:0:0:
448,192,67747,1,4,0:0:0:0:
64,192,67901,1,0,0:0:0:0:
64,192,68054,1,2,0:0:0:0:
192,192,68362,1,8,0:0:0:0:
448,192,68362,1,0,0:0:0:40:Hat open.wav
320,192,68670,1,2,0:0:0:0:
320,192,68824,1,2,0:0:0:0:
64,192,68978,1,8,0:0:0:0:
192,192,68978,1,0,0:0:0:40:Hat open.wav
448,192,69285,1,2,0:0:0:0:
192,192,69439,1,2,0:0:0:0:
320,192,69593,1,8,0:0:0:0:
448,192,69593,1,0,0:0:0:0:
64,192,69747,1,2,0:0:0:0:
192,192,69747,1,4,0:0:0:0:
320,192,70054,1,2,0:0:0:0:
64,192,70208,1,8,0:0:0:0:
448,192,70208,1,0,0:0:0:40:Hat open.wav
192,192,70362,1,0,0:0:0:0:
320,192,70516,1,2,0:0:0:0:
448,192,70670,1,2,0:0:0:0:
64,192,70824,1,8,0:0:0:0:
192,192,70824,1,0,0:0:0:40:Hat open.wav
320,192,70978,1,0,0:0:0:0:
448,192,71131,1,2,0:0:0:0:
192,192,71285,1,2,0:0:0:0:
320,192,71439,1,8,0:0:0:0:
448,192,71439,1,4,0:0:0:0:
64,192,71593,1,2,0:0:0:0:
320,192,71747,128,8,71901:0:0:0:0:
192,192,71901,128,2,72054:0:0:0:0:
64,192,72054,1,8,0:0:0:0:
448,192,72054,1,0,0:0:0:40:Hat open.wav
320,192,72208,1,2,0:0:0:0:
64,192,72362,1,8,0:0:0:0:
192,192,72362,1,0,0:0:0:40:Hat open.wav
448,192,72516,1,2,0:0:0:0:
192,192,72670,1,2,0:0:0:0:
64,192,72824,1,8,0:0:0:0:
320,192,72824,1,4,0:0:0:0:
448,192,72978,1,2,0:0:0:0:
64,192,73131,1,2,0:0:0:0:
320,192,73285,1,8,0:0:0:0:
448,192,73285,1,0,0:0:0:40:Hat open.wav
192,192,73439,1,2,0:0:0:0:
320,192,73593,1,2,0:0:0:0:
64,192,73747,1,8,0:0:0:0:
192,192,73747,1,4,0:0:0:0:
448,192,73901,1,2,0:0:0:0:
192,192,74054,1,2,0:0:0:0:
320,192,74208,1,8,0:0:0:0:
448,192,74208,1,0,0:0:0:0:
192,192,74516,1,8,0:0:0:0:
320,192,74516,1,0,0:0:0:0:
64,192,74824,1,8,0:0:0:0:
192,192,74824,1,4,0:0:0:0:
320,192,74978,1,2,0:0:0:0:
192,192,75131,1,2,0:0:0:0:
64,192,75285,1,8,0:0:0:0:
448,192,75285,1,4,0:0:0:0:
320,192,75439,1,2,0:0:0:0:
192,192,75593,1,2,0:0:0:0:
64,192,75747,1,8,0:0:0:0:
320,192,75747,1,0,0:0:0:40:Hat open.wav
448,192,75901,1,2,0:0:0:0:
192,192,76054,1,2,0:0:0:0:
320,192,76208,1,8,0:0:0:0:
448,192,76208,1,4,0:0:0:0:
64,192,76362,1,2,0:0:0:0:
320,192,76516,1,2,0:0:0:0:
64,192,76670,1,8,0:0:0:0:
192,192,76670,1,4,0:0:0:0:
192,192,76978,1,8,0:0:0:0:
320,192,76978,1,4,0:0:0:0:
320,192,77285,1,2,0:0:0:0:
448,192,77285,128,4,78516:0:0:0:0:
64,192,78516,1,2,0:0:0:0:
192,192,78516,1,0,0:0:0:40:Hat open.wav
320,192,79131,128,0,79747:0:0:0:0:
192,192,79439,128,0,79747:0:0:0:0:
64,192,79747,1,8,0:0:0:0:
448,192,79747,1,4,0:0:0:0:
320,192,79901,1,2,0:0:0:0:
192,192,80054,1,2,0:0:0:0:
64,192,80208,128,8,80516:0:0:0:0:
448,192,80208,1,4,0:0:0:0:
320,192,80516,1,2,0:0:0:0:
64,192,80670,1,8,0:0:0:0:
192,192,80670,1,0,0:0:0:40:Hat open.wav
448,192,80824,128,2,81131:0:0:0:0:
64,192,81131,1,8,0:0:0:0:
192,192,81131,1,4,0:0:0:0:
320,192,81285,1,2,0:0:0:0:
64,192,81439,1,2,0:0:0:0:
192,192,81593,1,8,0:0:0:0:
448,192,81593,1,0,0:0:0:40:Hat open.wav
320,192,81747,1,2,0:0:0:0:
64,192,81901,1,8,0:0:0:0:
192,192,81901,1,4,0:0:0:0:
448,192,82054,1,2,0:0:0:0:
64,192,82208,128,8,82670:0:0:0:0:
320,192,82208,1,4,0:0:0:0:
320,192,82516,1,2,0:0:0:0:
192,192,82670,1,8,0:0:0:0:
448,192,82670,128,4,83131:0:0:0:0:
64,192,82978,1,2,0:0:0:0:
192,192,83131,128,8,83593:0:0:0:0:
320,192,83131,1,0,0:0:0:40:Hat open.wav
448,192,83439,1,8,0:0:0:0:
64,192,83593,128,2,84054:0:0:0:0:
320,192,83747,1,8,0:0:0:0:
448,192,84054,128,2,84670:0:0:0:0:
320,192,84208,1,0,0:0:0:30:soft-hitclap.wav
64,192,84362,1,10,0:0:0:0:
192,192,84516,1,8,0:0:0:0:
64,192,84670,1,2,0:0:0:0:
320,192,84670,1,4,0:0:0:0:
192,192,84824,1,0,0:0:0:0:
320,192,84978,1,8,0:0:0:0:
448,192,84978,1,4,0:0:0:0:
64,192,85131,1,0,0:0:0:0:
320,192,85285,1,2,0:0:0:0:
192,192,85439,1,0,0:0:0:0:
64,192,85593,1,8,0:0:0:0:
448,192,85593,1,0,0:0:0:40:Hat open.wav
320,192,85747,1,0,0:0:0:0:
192,192,85901,1,2,0:0:0:0:
448,192,86054,1,2,0:0:0:0:
64,192,86208,1,8,0:0:0:0:
320,192,86208,1,4,0:0:0:0:
192,192,86362,1,2,0:0:0:0:
320,192,86516,128,8,86670:0:0:0:0:
192,192,86670,128,2,86824:0:0:0:0:
64,192,86824,1,8,0:0:0:0:
448,192,86824,1,0,0:0:0:40:Hat open.wav
320,192,86978,1,2,0:0:0:0:
64,192,87131,1,8,0:0:0:0:
192,192,87131,1,4,0:0:0:0:
448,192,87285,1,2,0:0:0:0:
320,192,87439,1,2,0:0:0:0:
64,192,87593,1,8,0:0:0:0:
192,192,87593,128,4,87901:0:0:0:0:
320,192,87901,1,2,0:0:0:0:
64,192,88054,1,8,0:0:0:0:
448,192,88054,1,0,0:0:0:40:Hat open.wav
192,192,88208,1,2,0:0:0:0:
320,192,88362,1,2,0:0:0:0:
64,192,88516,1,8,0:0:0:0:
448,192,88516,128,4,88824:0:0:0:0:
192,192,88824,1,2,0:0:0:0:
320,192,88978,1,0,0:0:0:40:Tom2.wav
320,192,89131,1,0,0:0:0:40:Tom2.wav
64,192,89285,1,8,0:0:0:0:
64,192,89439,1,0,0:0:0:40:Hat open.wav
