osu file format v14

[General]
AudioFilename: audio.mp3
AudioLeadIn: 0
PreviewTime: -1
Countdown: 0
SampleSet: None
StackLeniency: 0.3
Mode: 0
LetterboxInBreaks: 0
WidescreenStoryboard: 1

[Editor]
DistanceSpacing: 1
BeatDivisor: 4
GridSize: 32
TimelineZoom: 1

[Metadata]
Title:Bright Burning Shout (TV SIZE)
TitleUnicode:Bright Burning Shout (TV SIZE)
Artist:Takanori Nishikawa
ArtistUnicode:西川貴教
Creator:P4ndemonium
Version:FREE 7* FC(EXTRA PP VERSION)
Source:Fate/EXTRA Last Encore
Tags:Fate/extra Last Encore
BeatmapID:1927104
BeatmapSetID:922814

[Difficulty]
HPDrainRate:5
CircleSize:3.7
OverallDifficulty:8.5
ApproachRate:9.1
SliderMultiplier:2
SliderTickRate:1

[Events]
//Background and Video events
0,0,"lolwat.jpg",0,0
//Break Periods
//Storyboard Layer 0 (Background)
//Storyboard Layer 1 (Fail)
//Storyboard Layer 2 (Pass)
//Storyboard Layer 3 (Foreground)
//Storyboard Sound Samples

[TimingPoints]
1660,333.333333333333,4,1,0,50,1,0
6993,-200,4,1,0,50,0,0
13326,-100,4,1,0,50,0,0
13659,-133.333333333333,4,1,0,50,0,0
24159,-117.647058823529,4,1,0,50,0,0
34993,-200,4,1,0,50,0,0
45993,-111.111111111111,4,1,0,50,0,0
56326,-100,4,1,0,50,0,1
77659,-200,4,1,0,50,0,0
82993,-133.333333333333,4,1,0,50,0,0
85659,-400,4,1,0,50,0,0

[HitObjects]
256,192,4326,12,0,6826,0:0:0:0:
122,51,6993,6,0,P|93:91|86:140,1,100
144,200,7493,1,0,0:0:0:0:
249,103,7659,1,0,0:0:0:0:
313,185,7826,2,0,P|333:216|341:252,1,75
355,268,8159,2,0,P|339:287|329:310,1,50
436,245,8493,5,0,0:0:0:0:
396,366,8659,1,0,0:0:0:0:
396,366,8826,1,0,0:0:0:0:
259,263,8993,1,0,0:0:0:0:
212,350,9159,2,0,B|140:327|166:375|91:350,1,125
77,333,9659,6,0,P|70:283|41:243,1,100
99,184,10159,1,0,0:0:0:0:
0,113,10326,1,0,0:0:0:0:
77,42,10493,2,0,P|108:22|144:14,1,75
160,0,10826,2,0,P|179:15|202:25,1,50
318,0,11159,5,0,0:0:0:0:
241,105,11326,1,0,0:0:0:0:
241,105,11493,1,0,0:0:0:0:
346,188,11659,2,0,B|433:160|401:218|491:189,1,150
285,326,13326,6,0,P|281:269|253:318,1,150.000005722046
266,340,13659,5,0,0:0:0:0:
173,378,13826,1,0,0:0:0:0:
80,297,13993,1,0,0:0:0:0:
72,314,14326,5,0,0:0:0:0:
139,232,14493,2,0,P|130:195|105:168,1,75.0000028610231
0,103,14826,2,0,L|73:89,1,75.0000028610231
177,25,15159,2,0,L|103:11,1,75.0000028610231
203,152,15493,2,0,P|211:115|236:88,1,75.0000028610231
327,188,15826,2,0,P|297:210|260:215,1,75.0000028610231
376,65,16159,6,0,P|395:136|441:196,1,150.000005722046
512,144,16659,1,0,0:0:0:0:
512,144,16826,1,0,0:0:0:0:
440,220,16993,1,0,0:0:0:0:
491,337,17159,2,0,P|454:328|427:303,1,75.0000028610231
332,248,17493,6,0,L|345:321,1,75.0000028610231
245,384,17826,2,0,L|258:310,1,75.0000028610231
78,216,18159,2,0,L|64:289,1,75.0000028610231
165,352,18492,2,0,L|151:278,1,75.0000028610231
63,201,18826,6,0,P|67:127|109:66,1,150.000005722046
179,22,19326,2,0,P|232:72|306:76,1,150.000005722046
439,95,19826,2,0,P|402:103|375:128,1,75.0000028610231
428,251,20159,2,0,L|442:178,1,75.0000028610231
299,165,20493,2,0,L|325:312,1,150.000005722046
255,361,20993,2,0,P|217:358|186:339,1,75.0000028610231
106,190,21326,1,0,0:0:0:0:
215,217,21493,6,0,P|158:263|84:271,1,150.000005722046
98,104,21993,2,0,P|117:135|119:172,1,75.0000028610231
254,56,22326,2,0,P|216:58|185:77,2,75.0000028610231
320,117,22826,1,0,0:0:0:0:
447,44,22993,5,0,0:0:0:0:
398,149,23159,1,0,0:0:0:0:
332,15,23326,1,0,0:0:0:0:
478,127,23493,2,0,P|498:159|502:196,1,75.0000028610231
416,325,23826,1,0,0:0:0:0:
424,230,23993,6,0,P|413:237|404:245,2,25.0000009536744
387,240,24159,6,0,P|360:170|288:107,1,170.000003242493
169,203,24659,2,0,P|210:202|245:179,1,85.0000016212464
203,52,24993,2,0,P|161:52|126:75,1,85.0000016212464
270,101,25326,1,0,0:0:0:0:
78,67,25493,6,0,P|97:104|105:146,1,85.0000016212464
35,198,25826,2,0,P|15:235|7:277,1,85.0000016212464
90,358,26159,2,0,P|125:335|166:334,1,85.0000016212464
241,291,26493,2,0,P|266:324|305:338,1,85.0000016212464
392,383,26826,6,0,P|402:300|456:236,1,170.000003242493
402,166,27326,1,0,0:0:0:0:
402,166,27493,1,0,0:0:0:0:
479,87,27659,1,0,0:0:0:0:
385,15,27826,2,0,P|343:15|308:38,1,85.0000016212464
248,139,28159,6,0,P|240:97|220:59,1,85.0000016212464
83,109,28493,2,0,P|104:72|135:44,1,85.0000016212464
193,214,28826,2,0,P|155:194|113:186,1,85.0000016212464
0,291,29159,2,0,P|37:271|79:263,1,85.0000016212464
222,376,29493,6,0,B|245:271|194:309|212:209,1,170.000003242493
292,165,29993,2,0,P|329:184|371:192,1,85.0000016212464
227,81,30326,1,0,0:0:0:0:
297,27,30493,2,0,P|334:7|376:0,1,85.0000016212464
466,72,30826,6,0,P|421:143|410:227,1,170.000003242493
365,357,31326,2,0,P|364:315|341:280,1,85.0000016212464
204,311,31659,2,0,P|242:331|284:339,1,85.0000016212464
173,177,31993,1,0,0:0:0:0:
128,277,32159,6,0,P|99:308|63:329,1,85.0000016212464
189,190,32493,1,0,0:0:0:0:
100,78,32659,2,0,P|183:82|255:127,1,170.000003242493
397,235,33159,1,0,0:0:0:0:
365,105,33326,1,0,0:0:0:0:
270,229,33493,6,0,P|250:266|242:308,1,85.0000016212464
267,144,33826,1,0,0:0:0:0:
354,262,33993,2,0,P|373:299|381:341,1,85.0000016212464
383,364,34242,1,0,0:0:0:0:
383,364,34326,1,0,0:0:0:0:
246,238,34493,1,0,0:0:0:0:
119,359,34659,5,0,0:0:0:0:
109,340,34742,1,0,0:0:0:0:
104,319,34825,1,0,0:0:0:0:
104,298,34909,1,0,0:0:0:0:
109,278,34993,6,0,P|117:229|99:183,1,100
37,136,35493,1,0,0:0:0:0:
117,38,35659,2,0,B|172:23|162:51|215:37,1,100
278,93,36159,6,0,P|265:114|258:138,1,50
355,27,36493,1,0,0:0:0:0:
409,86,36659,2,0,P|421:107|428:131,1,50
469,282,36993,1,0,0:0:0:0:
398,206,37159,2,0,B|343:191|353:219|300:205,1,100
205,332,37659,6,0,P|253:334|290:302,1,100
307,227,38159,1,0,0:0:0:0:
167,180,38326,2,0,P|149:227|142:277,1,100
67,324,38826,6,0,P|60:299|47:278,1,50
86,166,39159,1,0,0:0:0:0:
41,101,39326,2,0,P|47:76|60:55,1,50
158,0,39659,5,0,0:0:0:0:
207,61,39826,1,0,0:0:0:0:
260,64,39993,1,0,0:0:0:0:
287,48,40159,1,0,0:0:0:0:
358,1,40326,6,0,P|367:24|371:48,1,50
413,151,40659,2,0,P|421:127|434:106,1,50
459,244,40993,6,0,L|360:226,1,100
265,371,41493,2,0,P|292:329|292:280,1,100
214,248,41993,2,0,P|191:258|173:276,1,50
83,357,42326,6,0,L|65:258,1,100
1,205,42826,5,0,0:0:0:0:
73,86,42993,1,0,0:0:0:0:
140,135,43159,2,0,P|167:176|174:225,1,100
280,311,43659,6,0,L|297:212,1,100
387,122,44159,6,0,P|377:145|373:169,1,50
441,39,44493,1,0,0:0:0:0:
499,98,44659,2,0,P|508:121|512:145,1,50
465,289,44993,5,0,0:0:0:0:
381,188,45159,1,0,0:0:0:0:
299,352,45326,1,0,0:0:0:0:
299,352,45993,6,0,P|265:322|221:314,1,89.9999972534181
75,372,46326,1,0,0:0:0:0:
171,244,46493,2,0,P|128:258|99:291,1,89.9999972534181
0,168,46826,6,0,L|88:183,1,89.9999972534181
165,81,47159,2,0,L|76:96,1,89.9999972534181
174,267,47493,2,0,P|210:292|255:295,1,89.9999972534181
340,181,47826,1,0,0:0:0:0:
270,280,47993,1,0,0:0:0:0:
303,107,48159,1,0,0:0:0:0:
427,253,48326,6,0,P|448:292|458:335,1,89.9999972534181
435,115,48659,1,0,0:0:0:0:
329,220,48826,2,0,P|281:295|276:384,1,179.999994506836
214,233,49326,2,0,P|178:205|134:197,1,89.9999972534181
6,302,49659,6,0,P|16:258|38:219,1,89.9999972534181
111,118,49993,1,0,0:0:0:0:
197,288,50159,2,0,P|198:265|191:244,1,44.999998626709
292,113,50326,5,0,0:0:0:0:
307,127,50409,1,0,0:0:0:0:
327,138,50492,1,0,0:0:0:0:
349,143,50576,1,0,0:0:0:0:
371,140,50659,2,0,P|392:132|414:132,3,44.999998626709
471,197,50993,5,0,0:0:0:0:
471,197,51076,1,0,0:0:0:0:
337,327,51159,1,0,0:0:0:0:
337,327,51243,1,0,0:0:0:0:
360,128,51326,5,0,0:0:0:0:
360,128,51409,1,0,0:0:0:0:
416,356,51493,1,0,0:0:0:0:
416,356,51576,1,0,0:0:0:0:
276,129,51659,5,2,0:0:0:0:
276,129,51743,1,0,0:0:0:0:
157,317,51826,1,0,0:0:0:0:
157,317,51909,1,0,0:0:0:0:
191,94,51993,5,0,0:0:0:0:
191,94,52076,1,0,0:0:0:0:
257,356,52159,1,0,0:0:0:0:
257,356,52243,1,0,0:0:0:0:
84,139,52326,5,0,0:0:0:0:
84,139,52409,1,0,0:0:0:0:
337,227,52493,1,0,0:0:0:0:
337,227,52576,1,0,0:0:0:0:
65,234,52659,5,0,0:0:0:0:
65,234,52743,1,0,0:0:0:0:
332,124,52826,1,0,0:0:0:0:
332,124,52909,1,0,0:0:0:0:
115,325,52993,5,0,0:0:0:0:
115,325,53076,1,0,0:0:0:0:
249,63,53159,1,0,0:0:0:0:
249,63,53243,1,0,0:0:0:0:
218,357,53326,5,0,0:0:0:0:
218,357,53409,1,0,0:0:0:0:
135,60,53493,1,0,0:0:0:0:
135,60,53576,1,0,0:0:0:0:
369,210,53659,5,0,0:0:0:0:
369,210,53743,1,0,0:0:0:0:
125,309,53826,1,0,0:0:0:0:
125,309,53909,1,0,0:0:0:0:
258,85,53993,5,0,0:0:0:0:
258,85,54076,1,0,0:0:0:0:
229,376,54159,1,0,0:0:0:0:
229,376,54243,1,0,0:0:0:0:
97,136,54326,5,0,0:0:0:0:
97,136,54409,1,0,0:0:0:0:
348,334,54493,1,0,0:0:0:0:
348,334,54576,1,0,0:0:0:0:
43,296,54659,5,0,0:0:0:0:
43,296,54743,1,0,0:0:0:0:
397,130,54826,2,0,P|445:117|488:124,1,89.9999972534181
131,56,55159,5,0,0:0:0:0:
275,371,55326,1,0,0:0:0:0:
77,178,56326,6,0,P|150:163|214:198,1,150
227,217,56659,1,0,0:0:0:0:
217,372,56826,2,0,P|184:335|179:286,1,100
358,197,57159,2,0,P|352:245|320:282,1,100
167,123,57493,6,0,L|363:86,1,200
191,30,57993,1,0,0:0:0:0:
104,179,58159,2,0,P|84:225|79:275,1,100
123,97,58493,1,0,0:0:0:0:
216,260,58659,1,0,0:0:0:0:
306,132,58826,5,0,0:0:0:0:
306,132,58909,1,0,0:0:0:0:
306,131,58993,2,0,P|364:87|438:86,1,150
462,94,59326,1,0,0:0:0:0:
381,293,59493,2,0,P|344:260|340:211,1,100
215,42,59826,2,0,P|218:91|196:135,1,100
42,308,60159,6,0,B|163:270|111:347|235:299,1,200
149,146,60659,5,0,0:0:0:0:
116,251,60826,1,0,0:0:0:0:
240,103,60993,5,0,0:0:0:0:
291,233,61159,1,0,0:0:0:0:
441,68,61326,5,0,0:0:0:0:
388,217,61493,1,0,0:0:0:0:
264,80,61659,6,0,P|184:24|89:45,1,200
18,211,62159,2,0,B|133:176|97:251|212:208,1,200
286,69,62659,5,0,0:0:0:0:
403,234,62826,2,0,P|420:280|425:330,1,100
432,142,63159,1,0,0:0:0:0:
326,285,63326,1,0,0:0:0:0:
220,159,63493,2,0,P|177:133|127:132,1,100
332,76,63826,1,0,0:0:0:0:
226,243,63993,1,0,0:0:0:0:
88,111,64159,6,0,P|70:64|65:14,1,100
26,260,64493,1,0,0:0:0:0:
220,159,64659,1,0,0:0:0:0:
68,127,64826,1,0,0:0:0:0:
173,309,64993,5,0,0:0:0:0:
294,113,65159,2,0,P|333:83|381:70,1,100
222,232,65493,2,0,P|182:201|134:188,1,100
326,341,65826,5,0,0:0:0:0:
314,318,65909,1,0,0:0:0:0:
309,294,65992,1,0,0:0:0:0:
310,269,66075,1,0,0:0:0:0:
317,245,66159,1,0,0:0:0:0:
331,224,66242,1,0,0:0:0:0:
349,207,66326,2,0,P|360:184|366:160,3,50
319,96,66659,1,0,0:0:0:0:
444,227,66826,5,0,0:0:0:0:
444,227,66909,1,0,0:0:0:0:
444,227,66993,2,0,P|482:290|494:364,1,150
493,384,67326,1,0,0:0:0:0:
336,267,67493,2,0,P|379:242|428:246,1,100
289,378,67826,2,0,P|239:381|196:357,1,100
183,204,68159,6,0,P|123:283|103:380,1,200
243,270,68659,1,0,0:0:0:0:
139,130,68826,2,0,P|98:102|49:93,1,100
105,269,69159,1,0,0:0:0:0:
205,76,69326,1,0,0:0:0:0:
305,211,69493,1,0,0:0:0:0:
407,33,69659,6,0,P|465:80|492:149,1,150
490,171,69993,1,0,0:0:0:0:
373,320,70159,6,0,L|324:307,1,50
101,157,70493,6,0,L|149:144,1,50
270,0,70826,6,0,B|206:86|299:103|236:188,1,200
145,285,71326,1,0,0:0:0:0:
174,128,71493,1,0,0:0:0:0:
316,222,71659,2,0,P|344:264|358:312,1,100
334,109,71993,1,0,0:0:0:0:
224,244,72159,5,0,0:0:0:0:
224,244,72243,1,0,0:0:0:0:
224,244,72326,2,0,P|196:285|182:333,1,100
35,199,72659,2,0,P|74:228|123:231,1,100
208,58,72993,2,0,P|158:60|119:90,1,100
230,270,73326,1,0,0:0:0:0:
319,111,73493,6,0,P|400:58|495:80,1,200
359,312,73993,1,0,0:0:0:0:
287,200,74159,2,0,P|250:166|202:151,1,100
91,347,74493,1,0,0:0:0:0:
204,252,74659,1,0,0:0:0:0:
93,122,74826,5,0,0:0:0:0:
93,122,74909,1,0,0:0:0:0:
93,122,74993,2,0,P|94:72|124:33,1,100
347,184,75326,5,0,0:0:0:0:
347,184,75409,1,0,0:0:0:0:
174,102,75493,1,0,0:0:0:0:
174,102,75576,1,0,0:0:0:0:
380,103,75659,5,0,0:0:0:0:
380,103,75743,1,0,0:0:0:0:
187,232,75826,1,0,0:0:0:0:
187,232,75909,1,0,0:0:0:0:
327,34,75993,5,0,0:0:0:0:
327,34,76076,1,0,0:0:0:0:
297,305,76159,1,0,0:0:0:0:
297,305,76243,1,0,0:0:0:0:
191,91,76326,5,0,0:0:0:0:
191,91,76409,1,0,0:0:0:0:
410,242,76493,1,0,0:0:0:0:
410,242,76576,1,0,0:0:0:0:
309,24,76659,5,0,0:0:0:0:
309,24,76743,1,0,0:0:0:0:
213,313,76826,1,0,0:0:0:0:
213,313,76909,1,0,0:0:0:0:
453,167,76993,5,0,0:0:0:0:
453,167,77076,1,0,0:0:0:0:
453,167,77159,1,0,0:0:0:0:
327,34,77326,6,0,P|314:55|305:78,1,50
236,266,77493,2,0,P|227:242|214:221,1,50
82,118,77659,6,0,P|130:125|173:101,1,100
183,85,78159,1,0,0:0:0:0:
309,24,78326,2,0,P|295:45|286:68,1,50
316,230,78659,6,0,P|306:206|293:185,1,50
430,211,78993,2,0,P|439:187|452:166,1,50
381,310,79326,1,0,0:0:0:0:
295,241,79493,2,0,P|285:217|272:196,1,50
160,271,79826,2,0,P|160:221|187:179,1,100
263,65,80326,6,0,B|201:71|234:92|169:95,1,100
99,52,80826,1,0,0:0:0:0:
21,151,80993,2,0,P|1:195|0:245,1,100
81,324,81493,5,0,0:0:0:0:
81,324,81576,1,0,0:0:0:0:
81,324,81659,2,0,B|143:330|110:351|174:354,1,100
234,294,82159,2,0,B|296:288|263:267|327:263,1,100
410,384,82659,5,0,0:0:0:0:
398,369,82742,1,0,0:0:0:0:
391,352,82825,1,0,0:0:0:0:
390,333,82908,1,0,0:0:0:0:
394,315,82993,2,0,P|409:281|410:243,1,75.0000028610231
289,161,83326,2,0,P|290:198|305:232,1,75.0000028610231
415,74,83659,2,0,L|341:60,1,75.0000028610231
200,191,83993,2,0,L|274:178,1,75.0000028610231
190,16,84326,6,0,P|138:68|131:141,1,150.000005722046
142,261,84826,2,0,P|119:231|84:218,1,75.0000028610231
43,355,85159,2,0,L|116:341,1,75.0000028610231
200,191,85493,5,0,0:0:0:0:
410,252,85659,6,0,B|309:221|346:296|242:264,1,175
181,163,86993,6,0,P|191:175|199:190,2,33.3333333333333
118,221,87659,5,0,0:0:0:0:
300,69,87993,5,0,0:0:0:0:
212,315,88159,1,0,0:0:0:0:
