osu file format v14

[General]
AudioFilename: audio.mp3
AudioLeadIn: 0
PreviewTime: 54297
Countdown: 1
SampleSet: None
StackLeniency: 0.7
Mode: 0
LetterboxInBreaks: 0
WidescreenStoryboard: 0

[Editor]
DistanceSpacing: 0.6
BeatDivisor: 4
GridSize: 32
TimelineZoom: 2

[Metadata]
Title:Bright Burning Shout
TitleUnicode:Bright Burning Shout
Artist:Takanori Nishikawa
ArtistUnicode:西川 貴教
Creator:Anxient
Version:Aestus Domus Aurea
Source:フェイト/エクストラ ラストアンコール
Tags:Fate/Extra Last Encore TYPE-MOON Anime opening tv size
BeatmapID:1555982
BeatmapSetID:737323

[Difficulty]
HPDrainRate:6
CircleSize:5
OverallDifficulty:8
ApproachRate:9
SliderMultiplier:2.2
SliderTickRate:1

[Events]
//Background and Video events
0,0,"39713945_p0.jpg",0,0
//Break Periods
//Storyboard Layer 0 (Background)
//Storyboard Layer 1 (Fail)
//Storyboard Layer 2 (Pass)
//Storyboard Layer 3 (Foreground)
//Storyboard Sound Samples

[TimingPoints]
464,333.333333333333,4,1,0,45,1,0
464,-133.333333333333,4,1,0,45,0,0
5797,-117.647058823529,4,1,0,45,0,0
11130,-200,4,1,0,45,0,0
12130,-100,4,1,0,55,0,0
13130,-133.333333333333,4,1,0,55,0,0
13630,-100,4,1,0,55,0,0
15797,-133.333333333333,4,1,0,55,0,0
16297,-100,4,1,0,55,0,0
18463,-133.333333333333,4,1,0,55,0,0
18963,-100,4,1,0,55,0,0
34463,-125,4,1,0,55,0,0
43797,-100,4,1,0,55,0,0
50130,-90.9090909090909,4,1,0,55,0,0
55130,-90.9090909090909,4,1,0,65,0,1
60130,-133.333333333333,4,1,0,65,0,1
60463,-90.9090909090909,4,1,0,65,0,1
76797,-100,4,1,0,65,0,1
83130,-90.9090909090909,4,1,0,65,0,1
84463,-133.333333333333,4,1,0,65,0,1
87130,-90.9090909090909,4,1,0,45,0,0
89630,-90.9090909090909,4,2,0,5,0,0

[Colours]
Combo1 : 255,0,0
Combo2 : 255,0,128
Combo3 : 255,208,121
Combo4 : 204,255,0

[HitObjects]
10,250,464,5,0,0:0:0:0:
72,188,630,1,0,0:0:0:0:
72,100,797,1,0,0:0:0:0:
9,37,963,2,0,P|84:10|149:55,1,165.000006294251,0|0,0:0|0:0,0:0:0:0:
210,227,1463,2,0,P|193:189|197:148,1,82.5000031471254,0|0,0:0|0:0,0:0:0:0:
255,59,1797,5,0,0:0:0:0:
278,177,1963,1,0,0:0:0:0:
376,244,2130,1,0,0:0:0:0:
499,225,2297,1,0,0:0:0:0:
499,225,2630,2,0,P|503:265|486:303,1,82.5000031471254,0|0,0:0|0:0,0:0:0:0:
467,54,3130,5,0,0:0:0:0:
399,101,3297,1,0,0:0:0:0:
333,51,3463,1,0,0:0:0:0:
265,98,3630,1,0,0:0:0:0:
265,98,3963,2,0,P|260:138|277:176,2,82.5000031471254,0|0|0,0:0|0:0|0:0,0:0:0:0:
176,333,4463,6,0,L|277:324,1,82.5000031471254,0|0,0:0|0:0,0:0:0:0:
330,366,4797,1,0,0:0:0:0:
330,366,4963,2,0,B|348:328|348:328|406:318|406:318|417:253|377:214|377:214|428:138|355:41,1,371.250014162064,0|0,0:0|0:0,0:0:0:0:
333,51,5797,6,0,L|165:41,1,140.250002675057,0|0,0:0|0:0,0:0:0:0:
150,41,6130,2,0,P|166:102|156:148,1,93.500001783371,0|0,0:0|0:0,0:0:0:0:
64,343,6463,1,0,0:0:0:0:
74,96,6630,2,0,P|59:139|62:186,1,93.500001783371,0|0,0:0|0:0,0:0:0:0:
126,240,6963,1,0,0:0:0:0:
255,136,7130,6,0,L|161:130,1,93.500001783371,0|0,0:0|0:0,0:0:0:0:
341,275,7463,2,0,P|326:318|329:365,1,93.500001783371,0|0,0:0|0:0,0:0:0:0:
419,132,7797,1,0,0:0:0:0:
427,334,7963,1,0,0:0:0:0:
500,292,8130,2,0,L|505:198,1,93.500001783371,0|0,0:0|0:0,0:0:0:0:
346,7,8463,6,0,P|331:50|334:97,1,93.500001783371,0|0,0:0|0:0,0:0:0:0:
249,230,8797,1,0,0:0:0:0:
249,230,8963,1,0,0:0:0:0:
146,21,9130,2,0,L|239:26,1,93.500001783371,0|0,0:0|0:0,0:0:0:0:
424,38,9463,2,0,L|418:131,1,93.500001783371,0|0,0:0|0:0,0:0:0:0:
418,131,9797,6,0,P|374:116|327:119,1,93.500001783371,0|0,0:0|0:0,0:0:0:0:
160,173,10130,2,0,P|145:216|148:263,1,93.500001783371,0|0,0:0|0:0,0:0:0:0:
214,54,10463,5,0,0:0:0:0:
249,230,10630,1,0,0:0:0:0:
149,379,10797,1,0,0:0:0:0:
66,364,10963,1,0,0:0:0:0:
66,364,11130,6,0,L|54:277,1,82.5,0|0,0:0|0:0,0:0:0:0:
16,268,11463,2,0,L|69:197,1,82.5,0|0,0:0|0:0,0:0:0:0:
48,164,11797,2,0,L|135:152,1,82.5,0|0,0:0|0:0,0:0:0:0:
160,173,12130,6,0,L|118:71,1,110,0|0,0:0|0:0,0:0:0:0:
363,202,12463,6,0,P|348:245|372:335,1,110,0|0,0:0|0:0,0:0:0:0:
506,91,12797,1,0,0:0:0:0:
506,91,12963,1,0,0:0:0:0:
370,32,13130,5,0,0:0:0:0:
410,116,13297,2,0,L|327:111,1,82.5000031471254,0|0,0:0|0:0,0:0:0:0:
116,305,13630,6,0,L|266:314,1,110,0|0,0:0|0:0,0:0:0:0:
118,71,13963,1,0,0:0:0:0:
48,164,14129,1,0,0:0:0:0:
106,1,14297,6,0,P|58:26|46:78,1,110,0|0,0:0|0:0,0:0:0:0:
177,236,14630,2,0,L|326:244,1,110,0|0,0:0|0:0,0:0:0:0:
449,251,14963,1,0,0:0:0:0:
231,122,15130,5,0,0:0:0:0:
116,305,15297,1,0,0:0:0:0:
363,384,15463,2,0,L|371:234,1,110,0|0,0:0|0:0,0:0:0:0:
218,49,15797,6,0,P|180:63|159:98,1,82.5000031471254,0|0,0:0|0:0,0:0:0:0:
370,32,16130,1,0,0:0:0:0:
231,122,16297,6,0,L|224:231,1,110,0|0,0:0|0:0,0:0:0:0:
496,56,16630,2,0,P|448:80|436:132,1,110,0|0,0:0|0:0,0:0:0:0:
370,32,16963,2,0,B|347:86|347:86|343:140,1,110,0|0,0:0|0:0,0:0:0:0:
158,236,17297,2,0,P|182:284|235:296,1,110,0|0,0:0|0:0,0:0:0:0:
235,296,17630,1,0,0:0:0:0:
496,56,17797,5,0,0:0:0:0:
392,227,17963,1,0,0:0:0:0:
496,56,18130,1,0,0:0:0:0:
228,148,18463,6,0,L|223:231,1,82.5000031471254,0|0,0:0|0:0,0:0:0:0:
370,32,18797,1,0,0:0:0:0:
158,236,18963,6,0,P|182:284|235:296,1,110,0|0,0:0|0:0,0:0:0:0:
84,53,19297,1,0,0:0:0:0:
73,226,19463,2,0,L|66:335,1,110,0|0,0:0|0:0,0:0:0:0:
133,377,19797,5,0,0:0:0:0:
109,136,19963,1,0,0:0:0:0:
342,21,20130,2,0,L|335:130,1,110,0|0,0:0|0:0,0:0:0:0:
39,142,20463,6,0,P|51:90|99:66,1,110,0|0,0:0|0:0,0:0:0:0:
304,243,20797,1,0,0:0:0:0:
158,236,20963,1,0,0:0:0:0:
233,158,21130,6,0,L|240:49,1,110,0|0,0:0|0:0,0:0:0:0:
399,299,21463,2,0,P|411:247|459:223,1,110,0|0,0:0|0:0,0:0:0:0:
371,0,21797,6,0,L|364:109,1,110,0|0,0:0|0:0,0:0:0:0:
233,158,22130,1,0,0:0:0:0:
472,298,22297,5,0,0:0:0:0:
158,236,22463,1,0,0:0:0:0:
158,236,22630,6,0,B|134:203|134:203|131:177,1,55,0|0,0:0|0:0,0:0:0:0:
95,181,22797,2,0,B|71:148|71:148|68:122,1,55,0|0,0:0|0:0,0:0:0:0:
342,21,22963,6,0,L|335:130,1,110,0|0,0:0|0:0,0:0:0:0:
228,305,23297,2,0,P|267:279|312:277,1,55,0|0,0:0|0:0,0:0:0:0:
317,281,23463,2,0,P|354:319|354:384,1,110,0|0,0:0|0:0,0:0:0:0:
233,158,23797,6,0,L|240:49,1,110,0|0,0:0|0:0,0:0:0:0:
52,266,24130,1,0,0:0:0:0:
63,42,24297,6,0,P|100:80|103:134,1,110,0|0,0:0|0:0,0:0:0:0:
267,227,24630,2,0,P|304:188|307:134,1,110,0|0,0:0|0:0,0:0:0:0:
147,254,24963,6,0,L|140:363,1,110,0|0,0:0|0:0,0:0:0:0:
208,129,25297,2,0,L|215:20,1,110,0|0,0:0|0:0,0:0:0:0:
486,78,25630,6,0,L|471:306,1,220,0|0,0:0|0:0,0:0:0:0:
408,68,26130,2,0,P|430:19|481:0,1,110,0|0,0:0|0:0,0:0:0:0:
208,129,26463,2,0,P|258:147|280:196,1,110,0|0,0:0|0:0,0:0:0:0:
200,205,26797,1,0,0:0:0:0:
361,363,26963,6,0,L|368:254,1,110,0|0,0:0|0:0,0:0:0:0:
128,155,27297,1,0,0:0:0:0:
219,290,27463,1,0,0:0:0:0:
184,361,27630,2,0,P|146:321|143:268,1,110,0|0,0:0|0:0,0:0:0:0:
299,60,27963,2,0,L|408:67,1,110,0|0,0:0|0:0,0:0:0:0:
86,83,28297,6,0,P|48:122|45:175,1,110,0|0,0:0|0:0,0:0:0:0:
219,290,28630,1,0,0:0:0:0:
299,60,28797,2,0,P|268:25|293:87,1,220,0|0,0:0|0:0,0:0:0:0:
44,245,29297,6,0,B|91:268|91:268|146:253,1,110,0|0,0:0|0:0,0:0:0:0:
51,26,29630,6,0,L|45:135,1,110,0|0,0:0|0:0,0:0:0:0:
263,206,29963,1,0,0:0:0:0:
169,323,30130,2,0,L|40:361,1,110,0|0,0:0|0:0,0:0:0:0:
302,131,30463,6,0,P|340:171|343:224,1,110,0|0,0:0|0:0,0:0:0:0:
415,55,30797,1,0,0:0:0:0:
495,334,30963,6,0,L|264:321,1,220,0|0,0:0|0:0,0:0:0:0:
454,122,31463,2,0,P|492:82|495:29,1,110,0|0,0:0|0:0,0:0:0:0:
221,113,31797,2,0,P|224:166|262:205,1,110,0|0,0:0|0:0,0:0:0:0:
415,55,32130,1,0,0:0:0:0:
376,296,32297,1,0,0:0:0:0:
376,296,32630,5,0,0:0:0:0:
162,248,32797,2,0,P|137:202|141:170,1,55,0|0,0:0|0:0,0:0:0:0:
113,170,32963,2,0,P|62:155|42:129,1,55,0|0,0:0|0:0,0:0:0:0:
63,244,33130,6,0,L|58:354,1,110,0|0,0:0|0:0,0:0:0:0:
211,84,33463,2,0,L|205:193,1,110,0|0,0:0|0:0,0:0:0:0:
0,0,33797,5,0,0:0:0:0:
288,56,34130,5,0,0:0:0:0:
211,84,34297,1,0,0:0:0:0:
462,127,34463,2,0,P|504:47|419:51,1,176,0|0,0:0|0:0,0:0:0:0:
152,156,34963,6,0,L|262:161,1,88,0|0,0:0|0:0,0:0:0:0:
316,216,35297,2,0,L|311:326,1,88,0|0,0:0|0:0,0:0:0:0:
312,303,35630,1,0,0:0:0:0:
211,84,35797,6,0,L|123:80,1,88,0|0,0:0|0:0,0:0:0:0:
3,204,36130,2,0,L|0:291,1,88,0|0,0:0|0:0,0:0:0:0:
9,18,36463,5,0,0:0:0:0:
214,255,36797,1,0,0:0:0:0:
144,308,36963,1,0,0:0:0:0:
377,212,37130,6,0,P|333:143|255:168,1,176,0|0,0:0|0:0,0:0:0:0:
123,80,37630,6,0,L|211:84,1,88,0|0,0:0|0:0,0:0:0:0:
312,303,37963,1,0,0:0:0:0:
444,126,38130,6,0,L|357:123,1,88,0|0,0:0|0:0,0:0:0:0:
319,292,38463,1,0,0:0:0:0:
484,329,38630,1,0,0:0:0:0:
390,358,38797,1,0,0:0:0:0:
397,367,38963,1,0,0:0:0:0:
144,308,39130,6,0,B|135:262|135:262|157:210,1,88,0|0,0:0|0:0,0:0:0:0:
115,305,39463,2,0,B|106:259|106:259|123:222,1,88,0|0,0:0|0:0,0:0:0:0:
279,156,39797,6,0,B|336:96|272:10|272:10|206:36|210:96,1,264,0|0,0:0|0:0,0:0:0:0:
232,368,40630,5,0,0:0:0:0:
131,143,40797,2,0,P|83:161|49:197,1,88,0|0,0:0|0:0,0:0:0:0:
279,156,41130,2,0,B|336:96|272:10|272:10|206:36|210:96,1,264,0|0,0:0|0:0,0:0:0:0:
297,270,41797,6,0,L|384:273,1,88,0|0,0:0|0:0,0:0:0:0:
414,302,42130,2,0,L|327:299,1,88,0|0,0:0|0:0,0:0:0:0:
279,156,42463,2,0,B|223:97|287:11|287:11|353:37|349:85,1,264,0|0,0:0|0:0,0:0:0:0:
118,302,43297,5,0,0:0:0:0:
40,85,43463,1,0,0:0:0:0:
118,302,43630,1,0,0:0:0:0:
253,381,43797,2,0,L|383:385,1,110,0|0,0:0|0:0,0:0:0:0:
436,178,44130,1,0,0:0:0:0:
0,217,44797,5,0,0:0:0:0:
51,26,45130,6,0,L|45:135,1,110,0|0,0:0|0:0,0:0:0:0:
167,373,45463,1,0,0:0:0:0:
160,118,45630,2,0,P|156:202|185:227,1,110,0|0,0:0|0:0,0:0:0:0:
226,60,45963,2,0,P|251:107|235:159,1,110,0|0,0:0|0:0,0:0:0:0:
287,299,46297,5,0,0:0:0:0:
287,299,46463,1,0,0:0:0:0:
39,323,46630,1,0,0:0:0:0:
167,373,46797,5,0,0:0:0:0:
190,286,46963,1,0,0:0:0:0:
436,178,47130,6,0,L|430:287,1,110,0|0,0:0|0:0,0:0:0:0:
443,35,47463,1,0,0:0:0:0:
315,217,47630,6,0,L|321:326,1,110,0|0,0:0|0:0,0:0:0:0:
308,74,47963,1,0,0:0:0:0:
160,118,48130,2,0,P|156:202|185:227,1,110,0|0,0:0|0:0,0:0:0:0:
410,372,48463,6,0,L|404:263,1,110,0|0,0:0|0:0,0:0:0:0:
308,74,48797,2,0,P|323:128|349:149,1,55,0|0,0:0|0:0,0:0:0:0:
360,145,48963,2,0,P|426:128|436:60,1,110,0|0,0:0|0:0,0:0:0:0:
120,306,49297,6,0,P|135:360|161:381,1,55,0|0,0:0|0:0,0:0:0:0:
179,376,49463,2,0,P|233:361|254:335,1,55,0|0,0:0|0:0,0:0:0:0:
249,317,49630,2,0,P|234:263|208:242,1,55,0|0,0:0|0:0,0:0:0:0:
0,176,49797,5,0,0:0:0:0:
217,52,49963,1,0,0:0:0:0:
0,176,50130,1,0,0:0:0:0:
217,52,50296,1,0,0:0:0:0:
130,160,50463,5,0,0:0:0:0:
394,216,50630,2,0,P|422:198|437:175,1,60.5000018463135,0|0,0:0|0:0,0:0:0:0:
428,108,50797,2,0,P|356:97|307:160,1,121.000003692627,0|0,0:0|0:0,0:0:0:0:
230,362,51130,5,0,0:0:0:0:
191,67,51297,1,0,0:0:0:0:
230,362,51463,1,0,0:0:0:0:
191,67,51630,1,0,0:0:0:0:
111,302,51797,6,0,B|163:265|163:265|192:277|241:261,1,121.000003692627,0|0,0:0|0:0,0:0:0:0:
289,50,52130,2,0,P|302:97|324:118,1,60.5000018463135,0|0,0:0|0:0,0:0:0:0:
372,127,52297,2,0,P|419:114|440:92,1,60.5000018463135,0|0,0:0|0:0,0:0:0:0:
313,176,52463,5,0,0:0:0:0:
371,48,52630,1,0,0:0:0:0:
374,338,52797,5,0,0:0:0:0:
198,196,52963,1,0,0:0:0:0:
0,384,53130,5,0,0:0:0:0:
147,135,53297,2,0,P|115:192|140:252,1,121.000003692627,0|0,0:0|0:0,0:0:0:0:
497,195,53630,1,0,0:0:0:0:
198,196,53963,5,0,0:0:0:0:
374,338,54130,1,0,0:0:0:0:
346,234,54297,5,0,0:0:0:0:
84,181,55130,6,0,B|35:97|76:0|76:0|116:-6|152:34,1,242.000007385254,0|0,0:0|0:0,0:0:0:0:
225,133,55630,2,0,L|231:253,1,121.000003692627,0|0,0:0|0:0,0:0:0:0:
59,352,55963,2,0,B|61:318|76:292|76:292|106:280|147:271,1,121.000003692627,0|0,0:0|0:0,0:0:0:0:
348,237,56297,2,0,B|488:212|488:212|551:236,1,181.500005538941,0|0,0:0|0:0,0:0:0:0:
480,284,56630,5,0,0:0:0:0:
352,121,56797,2,0,P|328:68|352:14,1,121.000003692627,0|0,0:0|0:0,0:0:0:0:
238,280,57130,5,0,0:0:0:0:
238,280,57297,1,0,0:0:0:0:
90,136,57463,2,0,L|86:75,1,60.5000018463135,0|0,0:0|0:0,0:0:0:0:
142,10,57630,2,0,L|202:6,1,60.5000018463135,0|0,0:0|0:0,0:0:0:0:
424,0,57797,6,0,L|431:138,1,121.000003692627,0|0,0:0|0:0,0:0:0:0:
183,102,58130,1,0,0:0:0:0:
313,285,58297,2,0,P|295:228|242:205,1,121.000003692627,0|0,0:0|0:0,0:0:0:0:
121,375,58630,2,0,L|114:254,1,121.000003692627,0|0,0:0|0:0,0:0:0:0:
252,109,58963,6,0,P|182:29|113:110,1,242.000007385254,0|0,0:0|0:0,0:0:0:0:
408,189,59463,1,0,0:0:0:0:
347,13,59630,2,0,P|351:58|387:96,1,60.5000018463135,0|0,0:0|0:0,0:0:0:0:
403,88,59797,2,0,L|534:119,1,121.000003692627,0|0,0:0|0:0,0:0:0:0:
298,194,60130,6,0,L|305:321,1,123.750004720688,0|0,0:0|0:0,0:0:0:0:
386,384,60463,6,0,L|392:263,1,121.000003692627,0|0,0:0|0:0,0:0:0:0:
183,102,60797,1,0,0:0:0:0:
477,196,60963,6,0,P|407:116|338:197,1,242.000007385254,0|0,0:0|0:0,0:0:0:0:
408,189,61463,1,0,0:0:0:0:
180,372,61630,6,0,L|186:251,1,121.000003692627,0|0,0:0|0:0,0:0:0:0:
23,88,61963,2,0,L|26:148,1,60.5000018463135,0|0,0:0|0:0,0:0:0:0:
99,117,62130,1,0,0:0:0:0:
208,384,62297,6,0,L|217:190,1,181.500005538941,0|0,0:0|0:0,0:0:0:0:
247,183,62630,1,0,0:0:0:0:
32,27,62797,2,0,L|26:148,1,121.000003692627,0|0,0:0|0:0,0:0:0:0:
290,117,63130,6,0,P|233:106|185:140,1,121.000003692627,0|0,0:0|0:0,0:0:0:0:
408,273,63463,1,0,0:0:0:0:
408,273,63630,1,0,0:0:0:0:
420,27,63797,6,0,L|414:148,1,121.000003692627,0|0,0:0|0:0,0:0:0:0:
247,183,64130,1,0,0:0:0:0:
32,27,64297,1,0,0:0:0:0:
32,27,64630,6,0,P|72:40|98:57,1,60.5000018463135,0|0,0:0|0:0,0:0:0:0:
114,74,64797,2,0,P|133:111|139:141,1,60.5000018463135,0|0,0:0|0:0,0:0:0:0:
138,165,64963,2,0,P|125:205|107:231,1,60.5000018463135,0|0,0:0|0:0,0:0:0:0:
0,383,65130,6,0,P|13:343|30:317,1,60.5000018463135,0|0,0:0|0:0,0:0:0:0:
93,260,65297,2,0,P|130:240|160:234,1,60.5000018463135,0|0,0:0|0:0,0:0:0:0:
245,238,65463,2,0,P|285:251|311:268,1,60.5000018463135,0|0,0:0|0:0,0:0:0:0:
368,329,65630,2,0,P|387:366|393:396,1,60.5000018463135,0|0,0:0|0:0,0:0:0:0:
512,384,65797,6,0,L|503:202,1,181.500005538941,0|0,0:0|0:0,0:0:0:0:
473,180,66130,1,0,0:0:0:0:
289,116,66297,6,0,P|255:68|266:11,1,121.000003692627,0|0,0:0|0:0,0:0:0:0:
350,281,66630,2,0,P|384:233|373:175,1,121.000003692627,0|0,0:0|0:0,0:0:0:0:
138,165,66963,6,0,L|146:346,1,181.500005538941,0|0,0:0|0:0,0:0:0:0:
118,370,67297,1,0,0:0:0:0:
66,122,67463,2,0,P|120:83|195:110,1,121.000003692627,0|0,0:0|0:0,0:0:0:0:
234,292,67797,5,0,0:0:0:0:
0,264,67963,1,0,0:0:0:0:
234,292,68130,2,0,P|288:331|363:304,1,121.000003692627,0|0,0:0|0:0,0:0:0:0:
295,125,68463,6,0,L|300:245,1,121.000003692627,0|0,0:0|0:0,0:0:0:0:
472,357,68797,2,0,L|474:296,1,60.5000018463135,0|0,0:0|0:0,0:0:0:0:
512,227,68963,2,0,P|453:221|407:258,1,121.000003692627,0|0,0:0|0:0,0:0:0:0:
257,58,69297,2,0,P|315:52|361:89,1,121.000003692627,0|0,0:0|0:0,0:0:0:0:
505,16,69630,6,0,L|510:136,1,121.000003692627,0|0,0:0|0:0,0:0:0:0:
300,245,69963,1,0,0:0:0:0:
138,165,70130,1,0,0:0:0:0:
256,58,70297,2,0,P|285:49|315:52,1,60.5000018463135,0|0,0:0|0:0,0:0:0:0:
418,227,70463,6,0,L|423:347,1,121.000003692627,0|0,0:0|0:0,0:0:0:0:
80,225,70797,2,0,P|61:201|54:171,1,60.5000018463135,0|0,0:0|0:0,0:0:0:0:
77,107,70963,2,0,P|100:88|130:81,1,60.5000018463135,0|0,0:0|0:0,0:0:0:0:
413,106,71130,6,0,L|418:227,1,121.000003692627,0|0,0:0|0:0,0:0:0:0:
196,384,71463,2,0,L|191:263,1,121.000003692627,0|0,0:0|0:0,0:0:0:0:
288,73,71797,2,0,P|297:130|256:170,1,121.000003692627,0|0,0:0|0:0,0:0:0:0:
0,114,72130,1,0,0:0:0:0:
143,0,72297,6,0,L|148:121,1,121.000003692627,0|0,0:0|0:0,0:0:0:0:
62,245,72630,1,0,0:0:0:0:
292,259,72797,1,0,0:0:0:0:
196,383,72963,6,0,L|191:262,1,121.000003692627,0|0,0:0|0:0,0:0:0:0:
38,179,73297,2,0,P|-3:219|0:279,1,121.000003692627,0|0,0:0|0:0,0:0:0:0:
229,108,73630,2,0,L|224:0,1,60.5000018463135,0|0,0:0|0:0,0:0:0:0:
143,0,73797,5,0,0:0:0:0:
155,237,73963,1,0,0:0:0:0:
284,354,74130,2,0,L|405:359,1,121.000003692627,0|0,0:0|0:0,0:0:0:0:
91,175,74463,6,0,P|63:226|78:284,1,121.000003692627,0|0,0:0|0:0,0:0:0:0:
309,172,74797,2,0,L|314:51,1,121.000003692627,0|0,0:0|0:0,0:0:0:0:
305,271,75130,5,0,0:0:0:0:
512,323,75297,1,0,0:0:0:0:
229,226,75463,5,0,0:0:0:0:
436,174,75630,1,0,0:0:0:0:
233,35,75797,6,0,P|193:38|158:58,1,80.6666691284181,0|0,0:0|0:0,0:0:0:0:
216,115,76019,1,0,0:0:0:0:
293,92,76130,2,0,P|332:95|367:115,1,80.6666691284181,0|0,0:0|0:0,0:0:0:0:
309,172,76352,1,0,0:0:0:0:
305,271,76463,1,0,0:0:0:0:
512,236,76797,5,0,0:0:0:0:
393,356,76963,1,0,0:0:0:0:
229,226,77130,1,0,0:0:0:0:
229,226,77463,5,0,0:0:0:0:
110,346,77630,1,0,0:0:0:0:
43,258,77797,6,0,P|38:187|65:144,1,110,0|0,0:0|0:0,0:0:0:0:
216,115,78130,1,0,0:0:0:0:
309,172,78297,1,0,0:0:0:0:
507,109,78463,2,0,L|511:0,1,110,0|0,0:0|0:0,0:0:0:0:
436,36,78797,2,0,L|431:145,1,110,0|0,0:0|0:0,0:0:0:0:
244,298,79130,6,0,P|168:239|246:244,1,220,0|0,0:0|0:0,0:0:0:0:
365,330,79630,1,0,0:0:0:0:
317,139,79797,6,0,P|406:102|362:167,1,220,0|0,0:0|0:0,0:0:0:0:
135,148,80297,2,0,P|129:121|130:93,1,55,0|0,0:0|0:0,0:0:0:0:
149,60,80463,2,0,P|194:29|248:34,1,110,0|0,0:0|0:0,0:0:0:0:
43,185,80797,2,0,L|38:294,1,110
153,384,81130,6,0,P|206:389|251:358,1,110,0|0,0:0|0:0,0:0:0:0:
258,320,81380,1,0,0:0:0:0:
244,284,81463,2,0,P|210:265|150:294,2,73.3333333333333,0|0|0,0:0|0:0|0:0,0:0:0:0:
363,324,81797,5,0,0:0:0:0:
396,170,81963,1,0,0:0:0:0:
512,384,82130,1,0,0:0:0:0:
322,207,82297,2,0,P|313:156|338:112,1,55
361,94,82463,5,0,0:0:0:0:
135,148,82630,1,0,0:0:0:0:
331,20,82797,1,0,0:0:0:0:
500,55,82963,2,0,P|509:80|508:108,1,55
322,207,83130,6,0,L|202:201,1,121.000003692627
52,0,83463,1,0,0:0:0:0:
242,44,83630,2,0,P|241:75|229:102,1,60.5000018463135
103,261,83797,2,0,P|133:311|190:325,1,121.000003692627
235,268,84130,2,0,P|204:217|147:203,1,121.000003692627
325,384,84463,2,0,B|370:332|370:332|334:293|344:221|344:221|372:158|430:138|430:138|388:79|390:0|390:0|345:19,1,495.000018882752
446,250,85797,5,0,0:0:0:0:
190,325,86047,1,0,0:0:0:0:
138,384,86297,1,0,0:0:0:0:
63,128,86463,1,0,0:0:0:0:
320,100,86797,5,0,0:0:0:0:
179,38,86963,1,0,0:0:0:0:
88,250,87213,6,0,P|69:283|38:300,2,60.5000018463135
256,192,87463,12,0,89630,0:0:0:0:
