osu file format v14

[General]
AudioFilename: audio.mp3
AudioLeadIn: 0
PreviewTime: 57265
Countdown: 0
SampleSet: Soft
StackLeniency: 0.4
Mode: 0
LetterboxInBreaks: 0
WidescreenStoryboard: 1

[Editor]
Bookmarks: 82817,149794,185026
DistanceSpacing: 1.5
BeatDivisor: 4
GridSize: 4
TimelineZoom: 1

[Metadata]
Title:Shitsuren Repeater
TitleUnicode:失恋リピーター
Artist:Takanon feat. sana
ArtistUnicode:タカノン feat. 鎖那
Creator:sanairrt
Version:Misure & Kuse's Hard
Source:
Tags:sanapri GUMI cover female 歌い手 utaite japanese jpop pop j-pop kuse KuBsNia_ZhoYL_ misure arronchu1207 eclipselotus chihara minori time capsule airiesu Mujina
BeatmapID:2962436
BeatmapSetID:1429397

[Difficulty]
HPDrainRate:5
CircleSize:3.5
OverallDifficulty:6
ApproachRate:8
SliderMultiplier:1.4
SliderTickRate:1

[Events]
//Background and Video events
0,0,"aw.jpg",0,0
//Break Periods
2,172319,176951
//Storyboard Layer 0 (Background)
//Storyboard Layer 1 (Fail)
//Storyboard Layer 2 (Pass)
//Storyboard Layer 3 (Foreground)
//Storyboard Layer 4 (Overlay)
//Storyboard Sound Samples

[TimingPoints]
492,348.837209302326,4,2,1,40,1,0
492,-125,4,2,1,40,0,0
1364,-111.111111111111,4,2,1,60,0,0
1887,-100,4,2,1,50,0,0
4852,-100,4,2,1,70,0,0
5026,-100,4,2,1,50,0,0
13050,-125,4,2,1,50,0,0
23515,-125,4,2,1,60,0,0
24212,-100,4,2,1,60,0,0
35375,-125,4,2,1,55,0,0
52119,-100,4,2,1,60,0,0
54910,-100,4,2,1,70,0,0
57701,-90.9090909090909,4,2,1,80,0,1
82817,-125,4,2,1,60,0,0
83165,-125,4,2,1,50,0,0
92585,-125,4,2,1,60,0,0
93282,-125,4,2,1,60,0,0
93980,-100,4,2,1,60,0,0
105143,-125,4,2,1,55,0,0
121887,-100,4,2,1,60,0,0
124678,-100,4,2,1,70,0,0
126073,-100,4,2,1,70,0,0
126945,-100,4,2,1,70,0,0
127119,-125,4,2,1,70,0,0
127468,-90.9090909090909,4,2,1,80,0,1
149794,-100,4,2,1,70,0,0
149968,-100,4,2,1,60,0,0
150143,-100,4,2,1,70,0,0
152585,-100,4,2,1,60,0,0
152759,-100,4,2,1,70,0,0
160957,-90.9090909090909,4,2,1,70,0,1
166538,-90.9090909090909,4,2,1,75,0,1
172119,-90.9090909090909,4,2,1,75,0,0
177701,-125,4,2,1,50,0,0
181887,-125,4,2,1,70,0,0
183282,-100,4,2,1,75,0,0
184678,-166.666666666667,4,2,1,80,0,0
184939,-166.666666666667,4,2,1,5,0,0
185026,-90.9090909090909,4,2,1,85,0,1
195753,-90.9090909090909,4,2,1,80,0,1
195840,-90.9090909090909,4,2,1,85,0,1
207004,-90.9090909090909,4,2,1,80,0,1
211189,-90.9090909090909,4,2,1,80,0,0
212061,-90.9090909090909,4,2,1,60,0,0
212236,-125,4,2,1,80,0,0
212497,-125,4,2,1,5,0,0
212585,-90.9090909090909,4,2,1,70,0,0
224445,-90.9090909090909,4,2,1,60,0,0
225143,-90.9090909090909,4,2,1,50,0,0
225840,-90.9090909090909,4,2,1,40,0,0
226538,-90.9090909090909,4,2,1,30,0,0
227236,-90.9090909090909,4,2,1,20,0,0
227933,-90.9090909090909,4,2,1,10,0,0
228631,-90.9090909090909,4,2,1,5,0,0

[Colours]
Combo1 : 233,159,22
Combo2 : 255,0,0
Combo3 : 0,191,0

[HitObjects]
40,116,492,6,0,L|88:228,2,112,2|2|2,0:0|0:0|0:0,2:0:0:0:
110,35,1364,1,0,3:2:0:0:
182,110,1538,2,0,L|163:170,1,62.9999980773926,10|0,2:0|3:2,0:0:0:0:
212,259,1887,6,0,P|278:272|329:228,1,140,6|8,3:2|2:0,0:0:0:0:
365,128,2410,1,0,0:0:0:0:
449,188,2585,2,0,P|484:188|513:169,2,70,2|2|10,3:2|3:2|2:0,2:0:0:0:
365,128,3108,1,2,2:0:0:0:
329,227,3282,6,0,P|352:291|375:358,2,140,2|8|2,3:2|2:0|3:2,0:0:0:0:
245,163,4154,1,2,3:2:0:0:
176,240,4329,1,10,2:0:0:0:
113,158,4503,1,2,3:2:0:0:
45,236,4678,6,0,P|60:267|74:299,1,70,6|2,3:2|0:0,0:0:0:0:
176,239,5026,2,0,P|215:184|211:115,1,140,8|2,2:0|3:2,2:0:0:0:
170,20,5550,1,2,3:2:0:0:
77,65,5724,2,0,P|44:51|12:38,1,70,10|2,2:0|2:0,2:0:0:0:
131,156,6073,6,0,L|0:204,2,140,2|10|2,3:2|2:0|3:2,0:0:0:0:
226,196,6945,1,2,3:2:0:0:
305,133,7119,1,10,2:0:0:0:
279,35,7293,1,2,3:2:0:0:
298,148,7468,6,0,B|362:132|362:132|370:135|370:135|433:118,1,140,6|2,3:2|3:2,0:0:0:0:
512,265,7992,2,0,B|448:249|448:249|440:252|440:252|376:235,1,140,14|2,2:0|3:2,0:0:0:0:
357,336,8515,2,0,L|324:349,2,35,10|8|10,2:0|2:0|2:0,2:0:0:0:
227,381,8864,6,0,B|210:317|210:317|213:309|213:309|197:245,1,140,6|2,3:2|3:2,0:0:0:0:
115,145,9388,2,0,B|98:208|98:208|101:216|101:216|85:280,1,140,14|2,2:0|3:2,0:0:0:0:
46,378,9911,2,0,L|15:360,2,35,10|8|10,2:0|2:0|2:0,2:0:0:0:
157,383,10259,6,0,P|175:353|183:319,1,70,6|0,3:2|3:2,2:0:0:0:
270,260,10608,2,0,P|253:229|228:204,1,70,10|0,2:0|3:2,2:0:0:0:
153,97,10957,2,0,P|135:127|127:161,1,70,10|0,2:0|3:2,2:0:0:0:
43,225,11306,2,0,P|60:255|85:280,1,70,10|2,2:0|3:2,2:0:0:0:
183,319,11654,5,6,3:2:0:0:
270,260,11829,2,0,B|293:247|308:245|308:245|333:257,1,70,10|2,2:0|3:2,2:0:0:0:
425,309,12178,2,0,P|441:240|460:173,1,140,14|2,2:0|3:2,2:0:0:0:
386,98,12701,2,0,P|379:81|371:66,2,35,10|8|8,2:0|2:0|2:0,2:0:0:0:
435,0,13050,6,0,P|371:84|267:65,1,224,2|0,2:0|2:0,2:0:0:0:
72,16,14096,2,0,L|85:70,1,56,2|2,2:0|2:0,2:0:0:0:
102,158,14445,2,0,P|47:166|-1:140,2,112,0|0|2,2:0|2:0|2:0,2:0:0:0:
167,95,15317,1,2,2:0:0:0:
167,95,15492,1,0,2:0:0:0:
331,195,15840,6,0,L|352:85,2,112,2|2|0,2:0|2:0|2:0,2:0:0:0:
148,244,16887,2,0,L|169:300,1,56,2|2,2:0|2:0,2:0:0:0:
142,382,17236,2,0,P|185:347|240:345,1,112,0|0,2:0|2:0,2:0:0:0:
491,369,17933,2,0,P|435:366|392:332,1,112,2|2,2:0|2:0,2:0:0:0:
287,204,18631,6,0,P|271:150|254:96,2,112,2|0|0,2:0|2:0|2:0,2:0:0:0:
375,172,19503,1,2,2:0:0:0:
375,172,19678,2,0,L|390:118,1,56,0|2,2:0|2:0,2:0:0:0:
367,13,20026,2,0,P|323:45|268:42,1,112,0|2,2:0|2:0,2:0:0:0:
117,142,20724,2,0,P|115:196|149:239,1,112,2|2,2:0|2:0,2:0:0:0:
243,250,21247,1,2,2:0:0:0:
243,250,21421,6,0,B|195:247|169:287|169:287|144:323|100:324,1,168,0|2,2:0|2:0,2:0:0:0:
0,335,22119,2,0,P|13:359|25:384,2,56,2|2|2,2:0|2:0|2:0,2:0:0:0:
40,251,22643,1,2,2:0:0:0:
101,325,22817,6,0,P|127:311|151:301,1,56,2|2,2:0|2:0,2:0:0:0:
273,266,23166,2,0,P|250:251|225:239,1,56,2|2,2:0|2:0,2:0:0:0:
137,194,23515,1,2,3:2:0:0:
137,194,23689,1,10,2:0:0:0:
197,115,23864,1,8,2:0:0:0:
197,115,24038,1,0,3:2:0:0:
51,66,24212,6,0,L|99:197,2,140,6|8|2,3:2|2:0|3:2,0:0:0:0:
133,0,25085,1,0,3:2:0:0:
133,0,25259,1,10,2:0:0:0:
193,88,25433,6,0,P|248:126|312:103,1,140,2|0,2:0|2:0,2:0:0:0:
423,166,25957,2,0,P|391:178|360:194,1,70,8|2,2:0|2:0,2:0:0:0:
406,70,26305,1,2,3:2:0:0:
406,70,26480,1,2,3:2:0:0:
406,70,26654,2,0,P|416:36|427:3,1,70,8|0,2:0|0:0,0:0:0:0:
504,102,27003,6,0,P|525:167|500:230,1,140,2|10,3:2|2:0,0:0:0:0:
400,349,27526,2,0,P|432:332|464:320,1,70,2|0,2:0|3:2,2:0:0:0:
405,198,27875,1,0,3:2:0:0:
332,271,28050,2,0,P|301:253|269:238,1,70,10|2,2:0|2:0,2:0:0:0:
208,146,28398,5,0,3:2:0:0:
208,146,28573,1,2,2:0:0:0:
208,146,28747,2,0,P|179:176|80:172,1,140,8|2,2:0|3:2,0:0:0:0:
35,269,29271,1,0,3:2:0:0:
97,352,29445,2,0,P|127:335|159:319,1,70,10|0,2:0|0:0,0:0:0:0:
240,246,29794,6,0,P|263:307|289:379,1,140,2|10,3:2|2:0,0:0:0:0:
367,313,30317,2,0,P|375:279|384:245,1,70,2|0,2:0|3:2,2:0:0:0:
304,165,30666,1,2,3:2:0:0:
240,246,30841,2,0,P|208:230|176:215,1,70,10|2,2:0|2:0,2:0:0:0:
153,370,31189,6,0,P|220:347|299:326,1,140,0|8,3:2|2:0,0:0:0:0:
385,365,31712,1,2,2:0:0:0:
477,313,31887,1,0,3:2:0:0:
477,313,32061,2,0,P|465:280|452:247,2,70,2|8|0,3:2|2:0|0:0,2:0:0:0:
355,254,32585,6,0,L|382:116,1,140,2|10,3:2|2:0,0:0:0:0:
438,27,33108,2,0,P|385:70|320:55,1,140,2|2,2:0|3:2,2:0:0:0:
230,0,33631,1,10,2:0:0:0:
170,84,33805,1,2,2:0:0:0:
65,68,33980,6,0,P|51:35|36:4,1,70,2|2,3:2|2:0,2:0:0:0:
170,84,34329,2,0,P|158:116|147:150,1,70,10|2,2:0|2:0,0:0:0:0:
226,218,34678,1,0,3:2:0:0:
158,298,34852,1,4,3:0:0:0:
61,257,35026,2,0,P|48:243|35:230,2,35,8|8|0,2:0|2:0|3:2,2:0:0:0:
79,372,35375,6,0,B|126:382|156:347|156:347|186:313|231:324,1,168,6|0,3:2|3:2,0:0:0:0:
337,344,36073,1,2,3:2:0:0:
337,344,36422,2,0,L|319:292,1,56,10|2,2:0|2:0,2:0:0:0:
427,383,36771,6,0,B|461:218,1,168,2|0,3:2|3:2,0:0:0:0:
493,127,37468,1,2,3:2:0:0:
493,127,37817,2,0,P|460:118|443:101,1,56,10|2,2:0|3:2,2:0:0:0:
391,20,38166,6,0,P|326:68|253:35,1,168,2|2,3:2|3:2,0:0:0:0:
186,158,38864,2,0,P|238:138|291:121,1,112,2|10,3:2|2:0,0:0:0:0:
334,205,39387,1,2,2:0:0:0:
334,205,39561,6,0,P|324:231|316:258,1,56,2|0,3:2|2:0,0:0:0:0:
241,314,39910,2,0,P|257:336|271:360,1,56,2|0,2:0|3:2,2:0:0:0:
368,279,40259,2,0,P|343:267|317:258,1,56,2|0,3:2|0:0,0:0:0:0:
189,335,40608,2,0,P|214:322|241:314,1,56,10|0,2:0|3:2,0:0:0:0:
164,233,40957,6,0,P|94:273|22:236,1,168,2|2,3:2|3:2,0:0:0:0:
21,142,41654,1,0,3:2:0:0:
21,142,42003,2,0,P|47:131|73:123,1,56,10|2,2:0|2:0,2:0:0:0:
109,21,42352,6,0,P|163:80|242:64,1,168,2|0,3:2|3:2,0:0:0:0:
334,79,43050,2,0,P|325:105|316:132,1,56,2|0,3:2|0:0,0:0:0:0:
237,176,43398,2,0,P|250:200|263:225,1,56,10|0,2:0|3:2,0:0:0:0:
235,314,43747,5,2,3:2:0:0:
401,382,44096,1,2,2:0:0:0:
401,382,44271,1,2,3:2:0:0:
401,382,44445,2,0,P|409:355|420:329,1,56,2|0,3:2|0:0,0:0:0:0:
512,323,44794,1,10,2:0:0:0:
468,122,45143,6,0,B|443:126|402:164|402:164|384:151|372:148,1,112,2|2,3:2|2:0,0:0:0:0:
305,84,45666,1,8,2:0:0:0:
238,147,45840,2,0,P|212:135|186:125,1,56,2|10,3:2|2:0,2:0:0:0:
97,98,46189,2,0,P|88:124|81:151,1,56,10|0,2:0|3:2,0:0:0:0:
144,222,46538,5,6,3:2:0:0:
74,384,46887,2,0,P|97:369|122:356,1,56,2|0,2:0|3:2,2:0:0:0:
215,368,47236,2,0,P|239:319|223:267,1,112,2|10,3:2|2:0,0:0:0:0:
144,222,47759,1,2,2:0:0:0:
217,168,47933,6,0,P|234:60|245:2,1,168,2|0,3:2|3:2,0:0:0:0:
101,87,48631,2,0,P|117:109|132:133,1,56,2|0,3:2|0:0,0:0:0:0:
94,246,48980,2,0,P|119:234|144:222,1,56,10|2,2:0|3:2,2:0:0:0:
217,168,49329,6,0,P|290:199|353:149,1,168,2|0,3:2|3:2,0:0:0:0:
445,160,50026,1,2,3:2:0:0:
445,160,50375,2,0,P|453:128|461:106,1,56,10|2,2:0|2:0,2:0:0:0:
353,149,50724,6,0,P|360:171|386:258,1,112,2|2,3:2|2:0,0:0:0:0:
351,362,51247,1,0,3:2:0:0:
270,318,51422,2,0,P|272:290|282:264,1,56,2|8,3:2|2:0,2:0:0:0:
260,174,51771,1,10,2:0:0:0:
175,356,52119,6,0,B|139:361|115:335|115:335|87:305|48:312,1,140,6|10,3:2|2:0,0:0:0:0:
23,210,52643,2,0,P|90:208|128:153,1,140,2|0,2:0|3:2,2:0:0:0:
94,51,53166,1,10,2:0:0:0:
94,51,53340,1,2,2:0:0:0:
198,65,53515,6,0,P|253:41|336:11,1,140,2|10,3:2|2:0,2:0:0:0:
387,101,54039,2,0,B|412:112|427:156|427:156|439:110|464:100,1,140,2|0,2:0|3:2,2:0:0:0:
333,185,54561,2,0,P|303:166|272:150,1,70,10|2,2:0|2:0,0:0:0:0:
205,218,54910,5,6,3:2:0:0:
374,341,55259,1,10,2:0:0:0:
497,172,55608,1,10,2:0:0:0:
328,49,55957,1,10,2:0:0:0:
309,258,56305,5,6,3:2:0:0:
402,229,56480,1,10,2:0:0:0:
331,163,56654,1,2,3:2:0:0:
227,207,56829,2,0,P|241:237|255:270,1,70,10|0,2:0|3:2,0:0:0:0:
189,351,57178,1,8,2:0:0:0:
105,293,57352,2,0,P|109:276|116:259,2,35,10|8|10,2:0|2:0|2:0,2:0:0:0:
57,381,57701,6,0,L|-1:238,1,154.000004699707,6|8,3:2|2:0,0:0:0:0:
59,113,58224,1,2,2:0:0:0:
138,187,58398,2,0,P|129:215|116:261,1,77.0000023498536,2|2,3:2|3:2,2:0:0:0:
205,322,58747,1,10,2:0:0:0:
297,265,58922,1,2,2:0:0:0:
257,164,59096,6,0,L|215:15,2,154.000004699707,2|8|0,3:2|2:0|3:2,0:0:0:0:
361,136,59968,1,2,3:2:0:0:
361,136,60143,2,0,P|379:103|381:65,1,77.0000023498536,8|2,2:0|2:0,2:0:0:0:
257,164,60492,5,6,3:2:0:0:
257,164,60666,1,2,2:0:0:0:
311,256,60840,1,10,2:0:0:0:
311,256,61015,1,2,2:0:0:0:
264,352,61189,2,0,P|228:335|192:320,1,77.0000023498536,2|2,3:2|3:2,0:0:0:0:
100,375,61538,1,10,2:0:0:0:
0,311,61712,6,0,P|46:252|120:251,1,154.000004699707,2|0,2:0|2:0,2:0:0:0:
95,136,62236,2,0,P|57:131|23:113,1,77.0000023498536,8|0,2:0|2:0,2:0:0:0:
59,7,62585,1,0,3:2:0:0:
159,48,62759,2,0,P|193:30|229:16,2,77.0000023498536,2|10|2,3:2|2:0|2:0,2:0:0:0:
95,137,63282,6,0,P|168:159|242:181,1,154.000004699707,6|10,3:2|2:0,0:0:0:0:
333,243,63805,2,0,P|350:208|352:170,1,77.0000023498536,2|0,2:0|3:2,2:0:0:0:
401,74,64154,1,0,3:2:0:0:
289,0,64329,2,0,P|284:36|294:74,1,77.0000023498536,8|2,2:0|3:2,2:0:0:0:
401,74,64678,6,0,B|253:116,1,154.000004699707,6|10,3:2|2:0,0:0:0:0:
180,202,65201,2,0,L|209:275,1,77.0000023498536,2|0,2:0|3:2,2:0:0:0:
272,361,65550,1,2,3:2:0:0:
352,289,65725,1,10,2:0:0:0:
352,289,65898,1,2,3:2:0:0:
478,323,66073,6,0,P|405:339|352:289,1,154.000004699707,6|8,3:2|2:0,0:0:0:0:
310,163,66596,1,2,2:0:0:0:
183,283,66771,2,0,P|217:266|254:253,1,77.0000023498536,2|2,3:2|3:2,2:0:0:0:
380,193,67119,2,0,P|345:177|310:163,1,77.0000023498536,10|2,2:0|3:2,0:0:0:0:
118,120,67468,5,14,2:0:0:0:
204,165,67643,1,10,2:0:0:0:
229,49,67817,1,2,3:2:0:0:
328,88,67992,2,0,L|310:163,1,77.0000023498536,10|0,2:0|3:2,0:0:0:0:
387,239,68340,1,0,3:2:0:0:
445,148,68515,2,0,L|435:110,2,38.5000011749268,10|8|10,2:0|2:0|2:0,2:0:0:0:
510,45,68864,6,0,P|437:55|389:0,2,154.000004699707,6|8|2,3:2|2:0|3:2,0:0:0:0:
509,158,69736,1,2,3:2:0:0:
509,158,69910,2,0,P|473:171|437:187,1,77.0000023498536,10|2,2:0|2:0,2:0:0:0:
379,277,70259,6,0,P|334:218|339:143,1,154.000004699707,2|8,3:2|2:0,0:0:0:0:
114,12,70957,2,0,L|185:40,1,77.0000023498536,2|2,3:2|3:2,2:0:0:0:
77,109,71305,2,0,L|149:137,1,77.0000023498536,10|2,2:0|3:2,2:0:0:0:
162,245,71655,5,6,3:2:0:0:
162,245,71829,1,2,2:0:0:0:
14,199,72003,2,0,B|45:202|77:168|77:168|110:133|149:137,1,154.000004699707,10|2,2:0|3:2,0:0:0:0:
248,182,72526,1,2,3:2:0:0:
299,86,72701,1,10,2:0:0:0:
379,213,72875,6,0,P|306:228|248:182,1,154.000004699707,2|0,2:0|2:0,2:0:0:0:
208,287,73398,2,0,P|169:291|136:312,2,77.0000023498536,10|0|2,2:0|2:0|3:2,2:0:0:0:
273,374,73922,1,2,3:2:0:0:
370,326,74097,2,0,L|352:251,1,77.0000023498536,10|2,2:0|3:2,2:0:0:0:
459,383,74445,6,0,L|485:231,1,154.000004699707,6|2,3:2|3:2,0:0:0:0:
440,132,74968,2,0,P|410:156|373:167,1,77.0000023498536,14|0,2:0|3:2,0:0:0:0:
301,86,75317,1,2,2:0:0:0:
367,0,75492,2,0,L|401:16,2,38.5000011749268,8|8|10,2:0|2:0|2:0,2:0:0:0:
301,86,75840,6,0,B|272:69|206:88|206:88|164:48,1,154.000004699707,6|2,3:2|3:2,0:0:0:0:
81,119,76364,2,0,P|65:153|64:192,1,77.0000023498536,14|0,2:0|3:2,0:0:0:0:
153,252,76713,1,2,2:0:0:0:
225,172,76888,2,0,L|214:134,2,38.5000011749268,10|8|10,2:0|2:0|2:0,2:0:0:0:
297,257,77236,6,0,P|329:236|366:230,1,77.0000023498536,6|0,3:2|3:2,2:0:0:0:
453,361,77585,2,0,P|415:354|383:334,1,77.0000023498536,10|0,2:0|3:2,2:0:0:0:
469,256,77933,1,10,2:0:0:0:
469,256,78108,2,0,L|487:181,2,77.0000023498536,2|10|2,3:2|2:0|3:2,2:0:0:0:
383,333,78631,5,14,2:0:0:0:
383,333,78806,1,10,2:0:0:0:
288,282,78980,1,2,3:2:0:0:
288,282,79154,1,14,2:0:0:0:
207,353,79329,2,0,P|173:336|136:322,1,77.0000023498536,2|10,3:2|2:0,0:0:0:0:
31,345,79678,2,0,P|24:363|19:382,2,38.5000011749268,10|8|8,2:0|2:0|2:0,0:0:0:0:
56,241,80026,5,6,3:2:0:0:
56,241,80201,2,0,P|43:204|27:169,1,77.0000023498536,2|2,2:0|3:2,2:0:0:0:
140,160,80550,1,10,2:0:0:0:
140,160,80724,2,0,P|173:141|210:128,1,77.0000023498536,2|2,3:2|2:0,2:0:0:0:
74,73,81073,1,10,2:0:0:0:
74,73,81247,2,0,P|61:36|47:0,1,77.0000023498536,2|2,3:2|3:2,2:0:0:0:
169,32,81596,6,0,P|206:27|234:1,1,77.0000023498536,14|0,2:0|3:2,0:0:0:0:
307,80,81945,2,0,P|323:113|317:151,1,77.0000023498536,10|0,2:0|3:2,0:0:0:0:
267,247,82294,1,2,3:2:0:0:
166,209,82468,2,0,L|130:222,2,38.5000011749268,10|8|10,2:0|2:0|2:0,2:0:0:0:
179,109,82817,6,0,L|73:72,2,112,6|0|0,3:2|3:2|3:2,2:0:0:0:
420,181,83864,2,0,P|427:153|435:115,1,56,2|2,3:2|2:0,2:0:0:0:
354,76,84212,2,0,P|337:137|327:195,2,112,0|0|2,3:2|3:2|3:2,2:0:0:0:
434,31,85085,1,2,2:0:0:0:
434,31,85259,1,0,3:2:0:0:
474,243,85608,6,0,P|432:273|366:250,1,112,2|2,3:2|3:2,2:0:0:0:
289,237,86131,2,0,P|276:298|259:360,1,112,2|0,2:0|2:0,2:0:0:0:
179,378,86654,2,0,P|131:357|104:350,1,56,2|2,3:2|2:0,2:0:0:0:
106,268,87003,2,0,P|116:213|68:177,1,112,0|0,3:2|3:2,2:0:0:0:
208,54,87701,2,0,P|227:95|236:124,1,56,2|0,3:2|2:0,2:0:0:0:
305,154,88050,2,0,P|316:113|325:91,1,56,2|0,3:2|2:0,2:0:0:0:
397,54,88398,5,2,3:2:0:0:
427,230,88747,1,2,3:2:0:0:
397,54,89096,1,2,3:2:0:0:
320,100,89271,2,0,P|285:94|241:82,1,56,2|0,2:0|3:2,2:0:0:0:
206,22,89619,2,0,L|228:145,1,112,2|0,2:0|2:0,2:0:0:0:
164,198,90143,2,0,P|128:151|60:157,2,112,2|2|2,3:2|3:2|3:2,2:0:0:0:
117,274,91015,1,2,2:0:0:0:
117,274,91189,6,0,P|165:282|244:300,1,112,0|0,3:2|3:2,2:0:0:0:
307,255,91712,1,2,2:0:0:0:
307,255,91887,2,0,P|313:215|320:194,1,56,2|2,3:2|2:0,2:0:0:0:
389,146,92236,2,0,P|383:106|376:85,1,56,0|2,3:2|2:0,2:0:0:0:
313,28,92585,1,2,2:0:0:0:
317,32,93282,1,2,3:2:0:0:
317,32,93457,2,0,P|321:71|328:99,1,56,10|8,2:0|2:0,2:0:0:0:
389,146,93805,1,0,3:2:0:0:
311,253,93980,6,0,P|249:237|160:221,1,140,6|8,3:2|2:0,0:0:0:0:
90,287,94503,1,0,0:0:0:0:
29,200,94678,2,0,L|51:122,1,70,2|0,3:2|3:2,0:0:0:0:
130,68,95026,1,10,2:0:0:0:
212,133,95201,6,0,P|286:120|372:98,1,140,2|0,2:0|2:0,2:0:0:0:
441,53,95724,1,10,2:0:0:0:
419,155,95898,2,0,P|412:199|410:233,1,70,2|0,2:0|3:2,2:0:0:0:
462,321,96247,1,2,3:2:0:0:
462,321,96422,1,10,2:0:0:0:
259,264,96771,6,0,P|233:317|147:300,1,140,2|10,3:2|2:0,0:0:0:0:
74,252,97294,2,0,L|-2:271,2,70,2|0|0,2:0|3:2|3:2,2:0:0:0:
149,178,97817,1,10,2:0:0:0:
66,112,97992,6,0,P|75:67|84:29,1,70,2|0,2:0|3:2,0:0:0:0:
181,17,98340,2,0,P|188:51|195:85,1,70,2|8,2:0|2:0,2:0:0:0:
149,178,98689,1,0,0:0:0:0:
246,218,98864,2,0,P|284:205|331:197,1,70,2|0,3:2|3:2,2:0:0:0:
397,260,99212,2,0,P|440:273|485:280,1,70,10|0,2:0|0:0,0:0:0:0:
399,153,99561,6,0,P|347:107|271:113,2,140,2|10|0,3:2|2:0|3:2,0:0:0:0:
397,260,100433,1,2,3:2:0:0:
313,199,100608,1,10,2:0:0:0:
295,302,100782,6,0,P|230:320|141:328,1,140,2|0,2:0|2:0,2:0:0:0:
74,263,101305,1,8,2:0:0:0:
159,201,101480,2,0,L|146:122,1,70,2|0,2:0|3:2,2:0:0:0:
48,96,101829,2,0,L|36:174,1,70,2|8,3:2|2:0,2:0:0:0:
74,263,102178,1,0,0:0:0:0:
26,356,102352,6,0,P|92:338|175:323,1,140,2|10,3:2|2:0,0:0:0:0:
256,371,102875,2,0,L|223:202,1,140,2|2,2:0|3:2,2:0:0:0:
304,159,103398,1,10,2:0:0:0:
304,159,103573,1,2,2:0:0:0:
359,247,103747,6,0,P|400:259|457:270,1,70,2|2,3:2|2:0,2:0:0:0:
478,173,104096,1,10,2:0:0:0:
395,107,104271,1,2,2:0:0:0:
304,159,104445,2,0,P|255:148|223:137,1,70,0|4,3:2|3:0,2:0:0:0:
164,64,104794,2,0,L|113:77,2,35,8|8|0,2:0|2:0|3:2,2:0:0:0:
26,38,105143,6,0,P|84:52|101:157,1,168,6|0,3:2|3:2,0:0:0:0:
60,224,105840,1,2,3:2:0:0:
209,125,106189,1,10,2:0:0:0:
266,294,106538,6,0,P|303:247|404:283,1,168,2|0,3:2|3:2,0:0:0:0:
449,344,107236,1,2,3:2:0:0:
486,168,107585,1,10,2:0:0:0:
486,168,107759,1,0,3:2:0:0:
423,103,107933,6,0,B|378:118|353:151|353:151|315:126|268:124,1,168,2|0,3:2|3:2,0:0:0:0:
186,118,108631,1,2,3:2:0:0:
228,292,108980,1,10,2:0:0:0:
228,292,109154,1,2,2:0:0:0:
287,224,109329,6,0,P|224:200|142:254,1,168,2|0,3:2|3:2,0:0:0:0:
146,339,110026,1,2,3:2:0:0:
321,304,110375,1,10,2:0:0:0:
321,304,110550,1,0,3:2:0:0:
391,358,110724,6,0,L|420:231,1,112,2|2,3:2|2:0,0:0:0:0:
475,181,111247,1,2,3:2:0:0:
475,181,111422,2,0,L|458:116,1,56,0|2,3:2|2:0,0:0:0:0:
422,51,111771,1,10,2:0:0:0:
422,51,111945,1,2,2:0:0:0:
343,92,112119,6,0,P|291:111|204:38,1,168,2|0,3:2|3:2,0:0:0:0:
123,17,112817,1,2,3:2:0:0:
60,185,113166,1,10,2:0:0:0:
60,185,113340,1,0,3:2:0:0:
143,150,113515,6,0,B|174:254|88:228|121:328,1,168,2|2,3:2|3:2,0:0:0:0:
183,366,114212,1,2,3:2:0:0:
265,206,114561,1,10,2:0:0:0:
173,51,114910,6,0,P|238:68|306:75,1,112,2|2,3:2|2:0,0:0:0:0:
353,19,115433,1,8,2:0:0:0:
411,87,115608,2,0,L|395:146,2,56,2|10|10,3:2|2:0|2:0,2:0:0:0:
488,41,116131,1,0,3:2:0:0:
468,198,116305,6,0,P|397:181|281:162,1,168,6|0,3:2|3:2,0:0:0:0:
214,150,117003,1,2,3:2:0:0:
257,323,117352,1,10,2:0:0:0:
257,323,117526,1,2,2:0:0:0:
179,368,117701,6,0,P|167:313|237:237,1,168,2|0,3:2|3:2,0:0:0:0:
323,261,118398,1,2,3:2:0:0:
140,191,118747,1,10,2:0:0:0:
140,191,118922,1,2,3:2:0:0:
94,267,119096,6,0,L|114:91,1,168,2|0,3:2|3:2,0:0:0:0:
125,11,119794,1,2,3:2:0:0:
235,151,120143,1,10,2:0:0:0:
235,151,120317,1,2,2:0:0:0:
294,83,120492,6,0,B|390:51|357:139|465:99,1,168,2|0,3:2|3:2,0:0:0:0:
505,175,121189,1,2,3:2:0:0:
439,236,121364,2,0,L|374:224,2,56,8|10|0,2:0|2:0|2:0,2:0:0:0:
370,350,121887,6,0,P|342:304|261:307,1,140,6|10,3:2|2:0,0:0:0:0:
181,372,122410,2,0,L|148:227,1,140,2|0,2:0|3:2,2:0:0:0:
72,163,122933,2,0,L|84:84,1,70,10|0,2:0|0:0,0:0:0:0:
165,28,123282,6,0,P|213:85|282:63,1,140,2|10,3:2|2:0,0:0:0:0:
368,33,123805,2,0,B|343:102|343:102|374:169,1,140,2|0,2:0|3:2,2:0:0:0:
471,209,124329,1,10,2:0:0:0:
471,209,124503,1,2,2:0:0:0:
401,289,124678,5,6,3:2:0:0:
195,246,125026,1,10,2:0:0:0:
238,40,125375,1,10,2:0:0:0:
443,85,125724,1,10,2:0:0:0:
401,289,126073,5,2,2:0:0:0:
405,293,126945,1,0,3:2:0:0:
405,293,127119,2,0,P|371:298|336:306,1,56,10|2,2:0|3:2,2:0:0:0:
243,377,127468,6,0,L|265:219,1,154.000004699707,6|8,3:2|2:0,0:0:0:0:
201,136,127991,1,2,2:0:0:0:
156,233,128165,2,0,P|114:244|70:252,1,77.0000023498536,2|2,3:2|3:2,2:0:0:0:
150,340,128514,1,10,2:0:0:0:
150,340,128689,1,2,2:0:0:0:
253,312,128863,6,0,L|428:345,1,154.000004699707,2|8,3:2|2:0,0:0:0:0:
431,235,129386,2,0,L|340:254,1,77.0000023498536,2|0,2:0|3:2,0:0:0:0:
293,169,129735,1,2,3:2:0:0:
293,169,129910,2,0,P|294:130|313:97,1,77.0000023498536,8|2,2:0|2:0,2:0:0:0:
403,37,130259,5,6,3:2:0:0:
403,37,130433,1,2,2:0:0:0:
488,110,130607,1,10,2:0:0:0:
488,110,130782,1,2,2:0:0:0:
382,128,130956,2,0,P|343:113|310:96,1,77.0000023498536,2|2,3:2|3:2,0:0:0:0:
228,27,131305,1,10,2:0:0:0:
190,127,131479,1,2,2:0:0:0:
273,215,131654,6,0,P|223:255|131:238,2,154.000004699707,2|8|0,3:2|2:0|3:2,0:0:0:0:
354,285,132526,2,0,P|394:264|432:247,2,77.0000023498536,2|10|2,3:2|2:0|2:0,2:0:0:0:
248,349,133049,6,0,P|232:268|282:210,1,154.000004699707,6|10,3:2|2:0,0:0:0:0:
332,124,133572,2,0,P|316:84|262:59,1,77.0000023498536,2|0,2:0|3:2,2:0:0:0:
200,128,133921,1,0,3:2:0:0:
105,75,134096,2,0,L|117:-13,1,77.0000023498536,8|2,2:0|3:2,2:0:0:0:
200,128,134445,6,0,P|111:136|109:205,1,154.000004699707,6|10,3:2|2:0,0:0:0:0:
194,240,134968,2,0,P|208:280|195:336,1,77.0000023498536,2|0,2:0|3:2,2:0:0:0:
100,285,135317,1,2,3:2:0:0:
27,359,135492,1,10,2:0:0:0:
27,359,135665,1,2,3:2:0:0:
0,256,135840,6,0,P|39:316|102:281,1,154.000004699707,6|8,3:2|2:0,0:0:0:0:
180,209,136363,1,2,2:0:0:0:
104,132,136538,2,0,P|120:88|137:48,1,77.0000023498536,2|2,3:2|3:2,2:0:0:0:
236,32,136887,2,0,P|251:68|264:103,1,77.0000023498536,10|2,2:0|3:2,0:0:0:0:
180,209,137235,5,14,2:0:0:0:
254,287,137410,1,10,2:0:0:0:
298,189,137584,1,2,3:2:0:0:
396,234,137759,2,0,L|377:310,1,77.0000023498536,10|0,2:0|3:2,0:0:0:0:
303,384,138107,1,0,3:2:0:0:
254,287,138282,2,0,L|195:273,3,38.5000011749268,10|8|10|8,2:0|2:0|2:0|2:0,2:0:0:0:
158,337,138631,6,0,P|175:265|124:211,1,154.000004699707,6|10,3:2|2:0,0:0:0:0:
68,118,139154,2,0,L|162:98,1,77.0000023498536,2|2,2:0|3:2,0:0:0:0:
248,78,139503,1,2,3:2:0:0:
266,184,139678,1,10,2:0:0:0:
366,220,139852,1,2,2:0:0:0:
471,197,140026,6,0,P|399:271|442:319,1,154.000004699707,2|8,3:2|2:0,0:0:0:0:
400,100,140724,2,0,L|375:26,1,77.0000023498536,2|2,3:2|3:2,2:0:0:0:
300,133,141072,2,0,L|277:60,1,77.0000023498536,10|2,2:0|3:2,2:0:0:0:
183,13,141422,5,6,3:2:0:0:
183,13,141596,1,2,2:0:0:0:
115,120,141770,2,0,P|141:190|232:179,1,154.000004699707,10|2,2:0|3:2,0:0:0:0:
300,133,142293,1,2,3:2:0:0:
363,229,142468,1,10,2:0:0:0:
281,298,142642,1,2,2:0:0:0:
373,354,142817,6,0,P|429:314|506:265,2,154.000004699707,2|10|2,3:2|2:0|3:2,0:0:0:0:
281,298,143689,1,2,3:2:0:0:
197,366,143864,2,0,L|116:352,1,77.0000023498536,10|2,2:0|3:2,2:0:0:0:
49,204,144212,6,0,L|213:230,1,154.000004699707,6|2,3:2|3:2,0:0:0:0:
263,130,144735,2,0,L|175:115,1,77.0000023498536,14|0,2:0|3:2,0:0:0:0:
122,29,145084,1,2,2:0:0:0:
72,125,145259,2,0,L|6:132,2,38.5000011749268,8|8|10,2:0|2:0|2:0,2:0:0:0:
191,121,145608,5,6,3:2:0:0:
191,121,145782,1,2,2:0:0:0:
245,29,145957,1,2,3:2:0:0:
245,29,146131,1,14,2:0:0:0:
314,111,146305,2,0,L|401:99,1,77.0000023498536,2|2,3:2|2:0,0:0:0:0:
486,49,146655,2,0,L|493:8,2,38.5000011749268,10|8|10,2:0|2:0|2:0,2:0:0:0:
460,180,147003,6,0,P|396:207|365:234,1,77.0000023498536,6|0,3:2|3:2,2:0:0:0:
250,253,147352,2,0,P|314:280|345:307,1,77.0000023498536,10|0,2:0|3:2,2:0:0:0:
408,354,147700,1,10,2:0:0:0:
408,354,147875,2,0,L|520:332,2,77.0000023498536,2|10|2,3:2|2:0|3:2,2:0:0:0:
323,288,148398,5,14,2:0:0:0:
323,288,148573,1,10,2:0:0:0:
401,203,148747,1,2,3:2:0:0:
401,203,148921,1,10,2:0:0:0:
312,140,149096,2,0,P|323:93|336:44,1,77.0000023498536,2|10,3:2|2:0,0:0:0:0:
438,61,149445,2,0,L|479:54,2,38.5000011749268,10|8|8,2:0|2:0|2:0,0:0:0:0:
330,65,149794,6,0,P|299:48|267:33,1,70,6|0,3:2|2:0,0:0:0:0:
197,107,150143,2,0,P|172:179|203:230,1,140,10|2,2:0|3:2,2:0:0:0:
299,198,150666,1,0,3:2:0:0:
376,262,150840,2,0,L|358:329,1,70,10|0,2:0|0:0,0:0:0:0:
474,372,151189,6,0,P|472:337|457:306,1,70,2|0,3:2|0:0,2:0:0:0:
358,330,151538,2,0,B|329:332|296:308|296:308|263:283|227:286,1,140,10|2,2:0|3:2,2:0:0:0:
178,374,152061,1,0,3:2:0:0:
77,360,152236,2,0,P|64:327|70:293,1,70,10|2,2:0|2:0,2:0:0:0:
147,227,152585,5,2,3:2:0:0:
147,227,152759,1,0,0:0:0:0:
51,192,152933,2,0,L|11:57,1,140,10|2,2:0|3:2,0:0:0:0:
95,0,153457,1,2,3:2:0:0:
125,96,153631,2,0,P|159:92|187:72,1,70,10|2,2:0|2:0,2:0:0:0:
280,30,153980,6,0,B|302:12|370:32|370:32|410:10,1,140,2|10,3:2|2:0,2:0:0:0:
490,73,154503,1,2,2:0:0:0:
412,138,154678,2,0,P|399:170|391:204,1,70,2|2,3:2|3:2,0:0:0:0:
507,316,155026,2,0,P|498:282|486:249,1,70,10|2,2:0|3:2,0:0:0:0:
391,205,155375,5,6,3:2:0:0:
306,261,155550,1,2,2:0:0:0:
322,360,155724,1,10,2:0:0:0:
322,360,155898,2,0,B|256:373|256:373|248:367|248:367|186:379,1,140,2|0,2:0|3:2,0:0:0:0:
72,254,156422,5,10,2:0:0:0:
72,254,156596,2,0,B|137:267|137:267|145:261|145:261|207:273,1,140,2|0,2:0|0:0,0:0:0:0:
296,140,157119,5,10,2:0:0:0:
296,140,157294,2,0,B|230:153|230:153|222:147|222:147|160:159,1,140,2|0,2:0|3:2,0:0:0:0:
58,39,157817,5,10,2:0:0:0:
58,39,157991,2,0,B|123:52|123:52|131:46|131:46|193:58,1,140,2|0,2:0|0:0,0:0:0:0:
360,2,158515,5,10,2:0:0:0:
360,2,158689,2,0,P|335:26|302:36,1,70,2|0,2:0|3:2,0:0:0:0:
430,167,159038,2,0,P|396:146|376:117,1,70,2|10,3:2|2:0,0:0:0:0:
282,265,159387,2,0,P|287:230|308:203,1,70,2|10,3:2|2:0,2:0:0:0:
430,167,159736,5,10,2:0:0:0:
508,230,159910,1,2,3:2:0:0:
487,329,160084,1,10,2:0:0:0:
402,383,160259,2,0,P|373:364|342:349,1,70,2|10,3:2|2:0,2:0:0:0:
239,365,160608,2,0,L|208:382,2,35,10|10|10,2:0|2:0|2:0,2:0:0:0:
173,207,160957,6,0,P|173:245|189:279,1,77.0000023498536,6|2,3:2|2:0,2:0:0:0:
281,223,161305,1,10,2:0:0:0:
258,117,161480,2,0,P|220:112|193:85,1,77.0000023498536,2|2,2:0|3:2,2:0:0:0:
129,0,161829,1,2,3:2:0:0:
32,46,162003,2,0,B|50:109|50:109|45:136|45:136|62:194,1,154.000004699707,10|2,2:0|3:2,0:0:0:0:
46,301,162526,6,0,L|28:375,2,77.0000023498536,2|10|2,2:0|2:0|2:0,2:0:0:0:
146,258,163050,2,0,B|183:258|183:258|218:284,1,77.0000023498536,2|2,3:2|3:2,2:0:0:0:
272,372,163398,2,0,B|313:384|313:384|347:359,1,77.0000023498536,10|2,2:0|2:0,2:0:0:0:
364,250,163747,6,0,B|296:267|296:267|285:264|285:264|215:282,1,154.000004699707,2|10,3:2|2:0,2:0:0:0:
136,356,164271,1,2,2:0:0:0:
51,289,164445,2,0,P|51:250|67:216,1,77.0000023498536,2|2,3:2|3:2,2:0:0:0:
130,128,164794,2,0,P|167:134|198:156,1,77.0000023498536,10|2,2:0|2:0,2:0:0:0:
307,140,165143,6,0,L|317:216,1,77.0000023498536,2|2,3:2|2:0,2:0:0:0:
426,217,165492,2,0,L|436:140,1,77.0000023498536,10|2,2:0|2:0,2:0:0:0:
510,62,165840,2,0,P|442:29|369:50,1,154.000004699707,2|10,3:2|2:0,0:0:0:0:
307,140,166364,1,2,3:2:0:0:
220,76,166538,6,0,P|211:39|222:3,1,77.0000023498536,14|2,2:0|2:0,2:0:0:0:
307,140,166887,1,2,3:2:0:0:
283,244,167061,2,0,P|244:225|206:211,1,77.0000023498536,14|0,2:0|3:2,0:0:0:0:
158,306,167410,1,0,3:2:0:0:
233,384,167585,2,0,P|249:373|266:365,2,38.5000011749268,10|8|10,2:0|2:0|2:0,2:0:0:0:
158,306,167933,6,0,B|113:298|85:329|85:329|58:358|18:355,1,154.000004699707,14|2,2:0|3:2,0:0:0:0:
26,246,168457,2,0,P|12:209|-1:174,1,77.0000023498536,14|2,2:0|3:2,0:0:0:0:
61,70,168805,1,2,3:2:0:0:
128,154,168980,2,0,P|122:172|116:190,2,38.5000011749268,10|8|10,2:0|2:0|2:0,2:0:0:0:
223,89,169329,6,0,B|263:83|263:83|285:54,2,77.0000023498536,2|2|10,3:2|3:2|2:0,2:0:0:0:
222,196,169852,2,0,P|258:209|293:226,1,77.0000023498536,2|10,2:0|2:0,2:0:0:0:
390,179,170201,1,2,3:2:0:0:
460,262,170375,2,0,P|476:231|496:193,1,77.0000023498536,10|2,2:0|3:2,2:0:0:0:
438,82,170724,5,10,2:0:0:0:
390,179,170898,1,10,2:0:0:0:
460,262,171073,1,2,3:2:0:0:
414,358,171247,2,0,B|348:339|348:339|338:333|338:333|267:312,1,154.000004699707,14|4,2:0|3:0,2:0:0:0:
146,295,171771,2,0,L|164:330,2,38.5000011749268,12|12|12,2:0|2:0|2:0,2:0:0:0:
206,203,172119,5,2,2:0:0:0:
184,126,177701,6,0,P|130:113|79:91,1,112,2|2,3:2|3:2,0:0:0:0:
316,277,178398,2,0,P|368:257|422:245,1,112,0|0,3:2|3:2,0:0:0:0:
139,262,179096,2,0,P|161:313|179:366,1,112,2|2,3:2|3:2,0:0:0:0:
306,136,179794,2,0,P|314:80|330:26,1,112,0|2,3:2|3:2,2:0:0:0:
429,33,180317,1,2,2:0:0:0:
429,33,180492,6,0,P|456:81|451:136,1,112,2|0,3:2|3:2,2:0:0:0:
391,214,181015,1,2,2:0:0:0:
448,293,181189,2,0,P|471:278|497:268,1,56,2|2,3:2|2:0,0:0:0:0:
352,360,181538,2,0,P|347:332|348:304,1,56,2|2,3:2|2:0,0:0:0:0:
293,174,181887,5,14,2:0:0:0:
240,259,182061,1,10,2:0:0:0:
147,217,182236,1,2,3:2:0:0:
83,301,182410,2,0,L|112:350,1,56,14|0,2:0|3:2,0:0:0:0:
240,259,182759,1,4,3:0:0:0:
235,374,182933,2,0,L|210:360,2,28,12|12|12,2:0|2:0|2:0,2:0:0:0:
362,323,183282,6,0,P|361:288|351:254,1,70,14|2,2:0|2:0,2:0:0:0:
392,154,183631,2,0,P|360:138|326:130,1,70,10|2,2:0|3:2,2:0:0:0:
251,39,183980,2,0,P|221:58|197:83,1,70,10|2,2:0|3:2,2:0:0:0:
224,210,184329,1,10,2:0:0:0:
224,210,184503,1,10,2:0:0:0:
138,296,184678,6,0,P|105:277|74:276,1,62.9999980773926,2|0,3:2|0:0,0:0:0:0:
50,289,185026,6,0,L|42:185,1,77.0000023498536,14|2,2:0|2:0,0:0:0:0:
36,108,185375,1,2,3:2:0:0:
36,108,185550,1,2,3:2:0:0:
138,155,185725,1,10,2:0:0:0:
138,155,185899,1,2,2:0:0:0:
210,75,186073,6,0,P|295:62|345:124,1,154.000004699707,2|8,3:2|2:0,0:0:0:0:
358,213,186596,1,2,2:0:0:0:
450,157,186771,1,2,3:2:0:0:
498,253,186945,2,0,P|465:285|406:284,1,77.0000023498536,2|8,3:2|2:0,2:0:0:0:
358,213,187294,1,2,2:0:0:0:
299,335,187468,5,6,3:2:0:0:
232,250,187643,1,2,2:0:0:0:
146,314,187817,2,0,P|195:268|173:187,1,154.000004699707,10|2,2:0|3:2,0:0:0:0:
91,133,188340,1,2,3:2:0:0:
91,133,188515,1,10,2:0:0:0:
144,39,188689,1,2,2:0:0:0:
233,100,188864,6,0,B|283:91|283:91|299:93|299:93|358:82,2,115.50000352478,2|2|2,3:2|2:0|2:0,0:0:0:0:
254,205,189561,2,0,L|273:305,1,77.0000023498536,0|0,3:2|3:2,0:0:0:0:
350,357,189910,1,8,2:0:0:0:
445,294,190085,1,2,2:0:0:0:
339,189,190259,6,0,P|374:114|453:130,1,154.000004699707,6|8,3:2|2:0,0:0:0:0:
510,194,190782,2,0,L|419:205,1,77.0000023498536,2|0,2:0|3:2,2:0:0:0:
352,274,191131,2,0,L|276:263,1,77.0000023498536,0|8,3:2|2:0,2:0:0:0:
185,203,191480,1,2,3:2:0:0:
157,307,191654,6,0,P|229:320|275:262,1,154.000004699707,6|10,3:2|2:0,0:0:0:0:
185,203,192178,1,2,2:0:0:0:
265,131,192352,2,0,L|251:41,1,77.0000023498536,0|2,3:2|3:2,0:0:0:0:
148,28,192701,2,0,L|137:106,1,77.0000023498536,10|2,2:0|3:2,0:0:0:0:
185,203,193050,6,0,P|135:154|47:171,1,154.000004699707,6|8,3:2|2:0,2:0:0:0:
14,265,193573,1,2,2:0:0:0:
14,265,193747,1,2,3:2:0:0:
103,335,193922,1,2,3:2:0:0:
103,335,194096,2,0,L|197:303,1,77.0000023498536,10|2,2:0|3:2,0:0:0:0:
275,351,194445,5,14,2:0:0:0:
357,294,194620,1,10,2:0:0:0:
269,247,194794,1,2,3:2:0:0:
375,184,194968,2,0,L|364:93,1,77.0000023498536,10|0,2:0|3:2,2:0:0:0:
281,39,195317,1,0,3:2:0:0:
230,135,195492,2,0,L|182:130,3,38.5000011749268,10|8|10|8,2:0|2:0|2:0|2:0,2:0:0:0:
169,151,195840,6,0,L|158:263,1,77.0000023498536,6|2,3:2|2:0,0:0:0:0:
118,326,196189,1,10,2:0:0:0:
25,269,196364,2,0,P|84:224|186:242,1,154.000004699707,2|0,2:0|3:2,2:0:0:0:
237,303,196887,1,10,2:0:0:0:
295,212,197061,1,2,2:0:0:0:
367,291,197236,6,0,L|455:281,1,77.0000023498536,2|2,3:2|2:0,2:0:0:0:
466,176,197585,1,10,2:0:0:0:
378,109,197759,2,0,P|318:131|299:225,1,154.000004699707,2|2,2:0|3:2,2:0:0:0:
371,295,198282,1,10,2:0:0:0:
371,295,198457,1,2,2:0:0:0:
284,359,198631,6,0,P|223:335|117:320,1,154.000004699707,6|10,3:2|2:0,0:0:0:0:
29,340,199154,1,0,0:0:0:0:
85,248,199329,2,0,L|78:155,1,77.0000023498536,2|0,3:2|3:2,2:0:0:0:
119,70,199678,1,10,2:0:0:0:
196,144,199852,1,2,2:0:0:0:
250,12,200026,6,0,L|348:28,1,77.0000023498536,2|2,3:2|2:0,2:0:0:0:
427,62,200375,1,10,2:0:0:0:
342,129,200550,2,0,P|285:162|307:265,1,154.000004699707,2|2,2:0|3:2,2:0:0:0:
361,318,201073,1,10,2:0:0:0:
422,229,201247,1,2,2:0:0:0:
445,370,201422,6,0,L|292:345,1,154.000004699707,6|2,3:2|3:2,0:0:0:0:
186,324,201945,2,0,L|98:309,1,77.0000023498536,14|0,2:0|3:2,0:0:0:0:
27,241,202294,1,2,2:0:0:0:
83,148,202469,2,0,L|80:94,2,38.5000011749268,8|8|10,2:0|2:0|2:0,2:0:0:0:
170,209,202817,6,0,L|264:192,1,77.0000023498536,6|2,3:2|2:0,2:0:0:0:
316,113,203166,1,2,3:2:0:0:
403,176,203340,2,0,P|393:248|319:273,1,154.000004699707,14|2,2:0|2:0,0:0:0:0:
245,195,203865,2,0,L|249:149,2,38.5000011749268,10|8|10,2:0|2:0|2:0,2:0:0:0:
174,298,204213,6,0,P|110:271|79:244,1,77.0000023498536,6|0,3:2|3:2,2:0:0:0:
9,200,204562,2,0,P|14:158|42:99,1,77.0000023498536,10|0,2:0|3:2,2:0:0:0:
130,75,204910,1,10,2:0:0:0:
130,75,205085,2,0,L|120:-4,2,77.0000023498536,2|10|2,3:2|2:0|3:2,2:0:0:0:
217,158,205608,5,14,2:0:0:0:
217,158,205783,1,10,2:0:0:0:
294,73,205957,1,2,3:2:0:0:
294,73,206131,1,10,2:0:0:0:
348,175,206306,2,0,P|392:190|451:200,1,77.0000023498536,2|10,3:2|2:0,0:0:0:0:
502,113,206655,2,0,L|507:68,2,38.5000011749268,10|8|8,2:0|2:0|2:0,2:0:0:0:
474,257,207004,6,0,P|422:309|335:281,1,154.000004699707,14|0,2:0|3:2,0:0:0:0:
243,316,207526,2,0,P|191:368|104:340,1,154.000004699707,14|0,2:0|3:2,2:0:0:0:
46,272,208050,2,0,L|-5:265,2,38.5000011749268,10|8|10,2:0|2:0|2:0,2:0:0:0:
135,212,208398,6,0,P|193:151|190:77,1,154.000004699707,14|2,2:0|3:2,0:0:0:0:
283,25,208922,2,0,P|300:98|364:138,1,154.000004699707,14|0,2:0|3:2,0:0:0:0:
464,99,209445,2,0,L|472:59,2,38.5000011749268,10|8|10,2:0|2:0|2:0,2:0:0:0:
403,223,209794,6,0,L|304:213,1,77.0000023498536,14|0,2:0|3:2,2:0:0:0:
218,202,210143,2,0,L|119:192,1,77.0000023498536,10|0,2:0|3:2,2:0:0:0:
115,299,210492,2,0,L|214:309,1,77.0000023498536,10|2,2:0|3:2,2:0:0:0:
299,316,210841,2,0,L|398:326,1,77.0000023498536,2|2,3:2|3:2,2:0:0:0:
382,327,212061,5,0,3:2:0:0:
382,327,212236,2,0,P|411:307|472:320,1,84,10|0,2:0|0:0,0:0:0:0:
484,326,212585,6,0,P|501:254|450:200,1,154.000004699707,6|8,3:2|2:0,0:0:0:0:
349,161,213108,2,0,L|343:74,1,77.0000023498536,2|2,0:0|3:2,2:0:0:0:
257,19,213457,1,2,3:2:0:0:
230,121,213632,1,10,2:0:0:0:
141,182,213806,1,2,2:0:0:0:
35,162,213980,6,0,P|107:236|64:284,1,154.000004699707,2|8,3:2|2:0,0:0:0:0:
274,175,214678,2,0,L|350:183,1,77.0000023498536,2|2,3:2|3:2,0:0:0:0:
263,280,215026,2,0,L|339:287,1,77.0000023498536,10|2,2:0|3:2,2:0:0:0:
443,318,215375,6,0,P|368:338|281:370,1,154.000004699707,6|8,3:2|2:0,0:0:0:0:
189,348,215898,2,0,L|175:256,1,77.0000023498536,2|2,2:0|3:2,2:0:0:0:
98,197,216247,1,2,3:2:0:0:
117,98,216422,1,10,2:0:0:0:
189,166,216596,1,2,2:0:0:0:
241,36,216771,6,0,P|297:20|384:69,2,154.000004699707,2|10|2,3:2|2:0|3:2,0:0:0:0:
296,135,217643,1,2,3:2:0:0:
296,135,217818,2,0,L|281:217,1,77.0000023498536,10|2,2:0|3:2,2:0:0:0:
371,308,218166,6,0,L|190:326,1,154.000004699707,6|2,3:2|3:2,0:0:0:0:
184,220,218689,2,0,L|201:126,1,77.0000023498536,14|0,2:0|3:2,0:0:0:0:
219,38,219038,1,2,3:2:0:0:
117,74,219213,2,0,L|49:77,2,38.5000011749268,10|8|10,2:0|2:0|2:0,2:0:0:0:
197,144,219561,6,0,P|268:155|328:91,1,154.000004699707,6|2,3:2|3:2,0:0:0:0:
427,138,220085,2,0,P|381:201|406:276,1,154.000004699707,14|2,2:0|3:2,0:0:0:0:
454,363,220609,2,0,L|520:351,2,38.5000011749268,10|8|10,2:0|2:0|2:0,2:0:0:0:
327,327,220957,6,0,P|263:354|232:381,1,77.0000023498536,6|0,3:2|3:2,2:0:0:0:
212,218,221306,2,0,P|185:263|176:302,1,77.0000023498536,10|0,2:0|3:2,2:0:0:0:
68,245,221654,1,10,2:0:0:0:
68,245,221829,2,0,L|56:169,2,77.0000023498536,0|10|2,3:2|2:0|3:2,2:0:0:0:
92,355,222352,5,6,3:2:0:0:
92,355,222527,1,10,2:0:0:0:
182,290,222701,1,2,3:2:0:0:
182,290,222875,1,14,2:0:0:0:
278,355,223050,2,0,P|289:308|302:259,1,77.0000023498536,2|2,3:2|3:2,0:0:0:0:
359,174,223399,2,0,L|407:183,2,38.5000011749268,10|8|10,2:0|2:0|2:0,2:0:0:0:
256,192,223747,5,6,0:0:0:0:
256,192,223922,12,0,229329,0:0:0:0:
