osu file format v14

[General]
AudioFilename: audio.mp3
AudioLeadIn: 0
PreviewTime: 57265
Countdown: 0
SampleSet: Soft
StackLeniency: 0.4
Mode: 0
LetterboxInBreaks: 0
WidescreenStoryboard: 0

[Editor]
Bookmarks: 13050,23515,82817,92585,172119,177352
DistanceSpacing: 1.5
BeatDivisor: 4
GridSize: 4
TimelineZoom: 1

[Metadata]
Title:Shitsuren Repeater
TitleUnicode:失恋リピーター
Artist:Takanon feat. sana
ArtistUnicode:タカノン feat. 鎖那
Creator:sanairrt
Version:Daisuki <3
Source:
Tags:sanapri GUMI cover female 歌い手 utaite japanese jpop pop j-pop kuse KuBsNia_ZhoYL_ misure arronchu1207 eclipselotus chihara minori time capsule airiesu Mujina
BeatmapID:2942664
BeatmapSetID:1429397

[Difficulty]
HPDrainRate:6
CircleSize:4
OverallDifficulty:8.5
ApproachRate:9.2
SliderMultiplier:1.7
SliderTickRate:1

[Events]
//Background and Video events
0,0,"aw.jpg",0,0
//Break Periods
2,13250,22945
2,83017,92015
2,172319,176782
//Storyboard Layer 0 (Background)
//Storyboard Layer 1 (Fail)
//Storyboard Layer 2 (Pass)
//Storyboard Layer 3 (Foreground)
//Storyboard Layer 4 (Overlay)
//Storyboard Sound Samples

[TimingPoints]
492,348.837209302326,4,2,0,60,1,0
492,-142.857142857143,4,2,0,60,0,0
1364,-142.857142857143,4,2,1,60,0,0
1887,-100,4,2,1,50,0,0
23515,-125,4,2,1,60,0,0
24212,-100,4,2,1,60,0,0
35375,-125,4,2,1,55,0,0
52032,-125,4,2,1,5,0,0
52119,-111.111111111111,4,2,1,60,0,0
54910,-111.111111111111,4,2,1,70,0,0
57701,-90.9090909090908,4,2,1,80,0,1
80026,-90.9090909090908,4,2,1,80,0,0
82817,-90.9090909090908,4,2,1,60,0,0
92585,-142.857142857143,4,2,1,60,0,0
93980,-100,4,2,1,60,0,0
105143,-125,4,2,1,55,0,0
121799,-125,4,2,0,5,0,0
121800,-125,4,2,0,5,0,0
121887,-111.111111111111,4,2,1,60,0,0
124678,-142.857142857143,4,2,1,70,0,0
126073,-142.857142857143,4,2,1,70,0,0
127468,-90.909090909091,4,2,1,80,0,1
149794,-100,4,2,1,70,0,0
166538,-100,4,2,1,75,0,0
177352,-250,4,2,1,80,0,0
177613,-250,4,2,0,5,0,0
177614,-250,4,2,0,5,0,0
177701,-125,4,2,1,50,0,0
181887,-111.111111111111,4,2,1,70,0,0
183282,-100,4,2,1,75,0,0
184678,-166.666666666667,4,2,1,80,0,1
184939,-166.666666666667,4,2,1,5,0,1
185026,-83.3333333333333,4,2,1,85,0,1
207003,-100,4,2,1,80,0,1
211189,-125,4,2,1,60,0,0
212236,-100,4,2,1,80,0,0
212497,-100,4,2,1,5,0,0
212585,-100,4,2,1,70,0,0
224445,-100,4,2,1,60,0,0
225143,-100,4,2,1,50,0,0
225840,-100,4,2,1,40,0,0
226538,-100,4,2,1,30,0,0
227236,-100,4,2,1,20,0,0
227933,-100,4,2,1,10,0,0
228631,-100,4,2,1,5,0,0

[Colours]
Combo1 : 233,159,22
Combo2 : 255,0,0
Combo3 : 0,191,0

[HitObjects]
116,110,1364,5,0,3:2:0:0:
193,203,1538,2,0,P|202:162|212:122,1,59.4999981842042,10|0,2:0|3:2,0:0:0:0:
134,273,1887,6,0,P|193:296|276:238,1,170,6|8,3:2|2:0,0:0:0:0:
338,99,2410,1,0,0:0:0:0:
193,203,2585,1,2,3:2:0:0:
399,240,2759,1,2,3:2:0:0:
241,105,2933,2,0,P|183:94|148:104,1,85,10|2,2:0|2:0,0:0:0:0:
25,231,3282,6,0,P|103:217|212:200,1,170,2|8,3:2|2:0,0:0:0:0:
338,99,3805,1,0,0:0:0:0:
398,239,3980,2,0,P|352:225|288:208,1,85,2|2,3:2|3:2,0:0:0:0:
187,34,4329,1,10,2:0:0:0:
338,99,4503,1,2,3:2:0:0:
211,280,4678,6,0,B|182:215|182:215|190:182|190:182|154:108,1,170,6|8,3:2|2:0,0:0:0:0:
25,231,5201,1,2,2:0:0:0:
211,280,5375,1,2,3:2:0:0:
46,373,5550,1,2,3:2:0:0:
145,202,5724,1,10,2:0:0:0:
231,382,5898,1,2,2:0:0:0:
351,199,6073,6,0,P|370:236|392:296,1,85,2|0,3:2|0:0,0:0:0:0:
217,137,6422,2,0,P|197:174|176:234,1,85,10|0,2:0|0:0,0:0:0:0:
398,54,6771,2,0,P|417:91|439:151,1,85,2|2,3:2|3:2,0:0:0:0:
217,137,7119,1,10,2:0:0:0:
369,214,7294,1,2,3:2:0:0:
247,41,7468,6,0,P|190:38|120:135,1,170,6|2,3:2|3:2,0:0:0:0:
45,284,7992,2,0,B|140:251|120:318|227:273,1,170,14|2,2:0|3:2,0:0:0:0:
351,199,8515,1,10,2:0:0:0:
334,195,8602,1,8,2:0:0:0:
318,192,8689,1,10,2:0:0:0:
437,370,8864,6,0,P|453:287|479:179,1,170,6|2,3:2|3:2,0:0:0:0:
366,69,9387,2,0,P|299:115|328:199,1,170,14|2,2:0|3:2,0:0:0:0:
458,336,9910,1,10,2:0:0:0:
463,319,9997,1,8,2:0:0:0:
469,303,10084,1,10,2:0:0:0:
254,129,10259,5,6,3:2:0:0:
470,71,10433,1,0,3:2:0:0:
163,59,10608,5,10,2:0:0:0:
363,209,10782,1,0,3:2:0:0:
135,317,10957,5,10,2:0:0:0:
254,129,11131,1,0,3:2:0:0:
224,384,11305,5,10,2:0:0:0:
104,201,11480,1,2,3:2:0:0:
372,228,11654,5,6,3:2:0:0:
124,331,11829,1,10,2:0:0:0:
363,209,12003,1,2,3:2:0:0:
166,140,12178,1,14,2:0:0:0:
370,317,12352,2,0,P|382:256|392:208,1,85,2|2,3:2|3:2,0:0:0:0:
346,76,12701,1,10,2:0:0:0:
349,92,12788,1,8,2:0:0:0:
353,109,12875,1,8,2:0:0:0:
255,201,13050,5,2,2:0:0:0:
135,317,23515,5,2,3:2:0:0:
287,236,23689,1,10,2:0:0:0:
153,108,23864,2,0,P|172:167|183:202,1,68,8|0,2:0|3:2,0:0:0:0:
235,341,24212,6,0,P|266:269|352:276,1,170,6|8,3:2|2:0,0:0:0:0:
459,330,24736,1,0,0:0:0:0:
509,182,24910,2,0,P|448:192|398:201,1,85,2|0,3:2|3:2,0:0:0:0:
265,131,25259,1,10,2:0:0:0:
347,272,25433,1,2,2:0:0:0:
414,78,25608,6,0,P|332:64|220:43,1,170,0|8,3:2|2:0,0:0:0:0:
105,191,26131,1,2,2:0:0:0:
265,131,26305,1,2,3:2:0:0:
91,38,26480,1,2,3:2:0:0:
196,195,26654,2,0,P|174:254|159:300,1,85,8|0,2:0|0:0,0:0:0:0:
58,372,27003,6,0,P|105:296|197:339,1,170,2|10,3:2|2:0,0:0:0:0:
293,362,27526,1,2,2:0:0:0:
219,210,27701,1,0,3:2:0:0:
135,379,27875,1,0,3:2:0:0:
301,262,28050,1,10,2:0:0:0:
105,191,28224,6,0,P|122:260|131:297,1,85,2|0,2:0|3:2,0:0:0:0:
219,210,28573,1,2,2:0:0:0:
120,88,28747,2,0,P|78:98|37:108,1,85,8|0,2:0|0:0,0:0:0:0:
219,210,29096,1,2,3:2:0:0:
274,57,29271,1,0,3:2:0:0:
380,176,29445,2,0,P|427:187|471:173,1,85,10|0,2:0|0:0,0:0:0:0:
274,57,29794,6,0,B|202:44|202:44|183:21|183:21|95:8,2,170,2|10|0,3:2|2:0|3:2,0:0:0:0:
380,176,30666,1,2,3:2:0:0:
433,8,30840,1,10,2:0:0:0:
264,80,31015,1,2,2:0:0:0:
208,243,31189,6,0,P|296:222|392:203,1,170,0|8,3:2|2:0,0:0:0:0:
497,293,31712,1,2,2:0:0:0:
380,176,31887,1,0,3:2:0:0:
344,340,32061,1,2,3:2:0:0:
481,189,32236,2,0,P|471:141|459:90,1,85,8|0,2:0|0:0,0:0:0:0:
313,3,32585,6,0,P|301:70|284:180,1,170,2|10,3:2|2:0,0:0:0:0:
174,266,33108,1,2,2:0:0:0:
344,340,33282,1,0,3:2:0:0:
285,170,33457,1,2,3:2:0:0:
200,353,33631,2,0,P|147:354|100:317,1,85,10|2,2:0|2:0,0:0:0:0:
71,139,33980,5,2,3:2:0:0:
174,266,34154,1,2,2:0:0:0:
367,189,34329,2,0,P|313:176|250:162,1,85,10|2,2:0|2:0,0:0:0:0:
174,12,34678,1,0,3:2:0:0:
71,139,34852,1,4,3:0:0:0:
253,98,35026,1,8,2:0:0:0:
269,93,35113,1,8,2:0:0:0:
285,88,35200,1,0,3:2:0:0:
421,44,35375,6,0,P|403:103|375:199,1,136,6|2,3:2|2:0,0:0:0:0:
278,247,35898,1,0,3:2:0:0:
405,285,36073,2,0,B|350:274|350:274|336:258|336:258|271:246,1,136,2|10,3:2|2:0,0:0:0:0:
200,353,36596,1,2,2:0:0:0:
119,257,36771,6,0,P|95:207|127:130,1,136,2|2,3:2|2:0,0:0:0:0:
197,52,37294,1,0,3:2:0:0:
275,150,37468,2,0,P|254:203|239:241,1,68,2|0,3:2|0:0,0:0:0:0:
119,257,37817,1,10,2:0:0:0:
119,257,37992,1,2,3:2:0:0:
200,353,38166,6,0,P|264:341|359:326,1,136,2|0,3:2|0:0,0:0:0:0:
414,225,38689,1,2,3:2:0:0:
449,342,38864,2,0,P|410:300|418:219,1,136,2|10,3:2|2:0,0:0:0:0:
466,118,39387,1,2,2:0:0:0:
337,156,39561,6,0,B|302:174|260:161|282:140|233:125|188:156,1,136,2|2,3:2|2:0,0:0:0:0:
118,179,40085,1,0,3:2:0:0:
38,91,40259,2,0,P|58:53|86:11,1,68,2|0,3:2|0:0,0:0:0:0:
118,179,40608,2,0,P|100:207|84:238,1,68,10|0,2:0|3:2,0:0:0:0:
38,91,40957,6,0,P|104:81|177:70,1,136,2|2,3:2|2:0,0:0:0:0:
246,141,41480,1,2,3:2:0:0:
370,24,41654,2,0,P|350:97|334:168,1,136,0|10,3:2|2:0,0:0:0:0:
312,269,42178,1,2,2:0:0:0:
422,170,42352,6,0,P|471:151|511:152,1,68,2|0,3:2|0:0,0:0:0:0:
312,269,42701,2,0,P|361:288|401:287,1,68,2|0,2:0|3:2,0:0:0:0:
226,146,43050,2,0,P|275:127|315:128,1,68,2|0,3:2|0:0,0:0:0:0:
117,256,43398,2,0,P|94:194|84:169,1,68,10|0,2:0|3:2,0:0:0:0:
254,13,43747,6,0,P|243:61|221:168,1,136,2|2,3:2|2:0,0:0:0:0:
93,192,44271,1,2,3:2:0:0:
195,284,44445,2,0,P|249:270|284:260,1,68,2|0,3:2|0:0,0:0:0:0:
355,143,44794,2,0,P|322:134|289:125,1,68,10|0,2:0|0:0,0:0:0:0:
414,226,45143,6,0,P|454:162|434:84,1,136,2|2,3:2|2:0,0:0:0:0:
318,6,45666,1,8,2:0:0:0:
355,143,45840,1,2,3:2:0:0:
218,180,46015,1,10,2:0:0:0:
181,43,46189,2,0,P|227:49|261:81,1,68,10|0,2:0|3:2,0:0:0:0:
355,143,46538,6,0,P|333:185|317:283,1,136,6|2,3:2|2:0,0:0:0:0:
218,180,47061,1,0,3:2:0:0:
147,293,47236,2,0,B|128:239|128:239|133:212|133:212|116:163,1,136,2|10,3:2|2:0,0:0:0:0:
17,97,47759,1,2,2:0:0:0:
163,28,47933,6,0,B|239:6|230:61|305:30,1,136,2|2,3:2|2:0,0:0:0:0:
355,143,48457,1,0,3:2:0:0:
245,208,48631,2,0,P|231:160|218:119,1,68,2|0,3:2|0:0,0:0:0:0:
355,143,48980,1,10,2:0:0:0:
355,143,49154,1,2,3:2:0:0:
421,286,49329,6,0,P|385:232|321:241,1,136,2|2,3:2|2:0,0:0:0:0:
243,330,49852,1,0,3:2:0:0:
112,236,50026,2,0,P|180:221|255:205,1,136,2|10,3:2|2:0,0:0:0:0:
344,264,50550,1,2,2:0:0:0:
454,168,50724,6,0,P|407:151|369:137,1,68,2|0,3:2|0:0,0:0:0:0:
280,240,51073,2,0,P|327:257|365:271,1,68,2|0,2:0|3:2,0:0:0:0:
246,79,51422,1,2,3:2:0:0:
124,192,51596,1,8,2:0:0:0:
13,52,51771,2,0,P|66:43|129:33,1,102,10|0,2:0|0:0,0:0:0:0:
153,25,52119,6,0,P|205:53|195:139,1,152.999995330811,6|10,3:2|2:0,0:0:0:0:
12,191,52643,1,2,2:0:0:0:
166,287,52817,1,0,3:2:0:0:
118,111,52992,1,0,3:2:0:0:
60,301,53166,2,0,P|81:356|90:393,1,76.4999976654053,10|2,2:0|2:0,0:0:0:0:
270,191,53515,5,2,3:2:0:0:
166,287,53689,1,0,0:0:0:0:
339,320,53864,1,10,2:0:0:0:
179,195,54038,1,2,2:0:0:0:
389,125,54212,2,0,P|364:188|351:226,1,76.4999976654053,0|0,3:2|3:2,0:0:0:0:
226,349,54561,2,0,P|212:313|198:277,1,76.4999976654053,10|2,2:0|2:0,0:0:0:0:
184,33,54910,5,6,3:2:0:0:
42,226,55085,1,0,0:0:0:0:
270,191,55259,5,10,2:0:0:0:
56,79,55433,1,0,3:2:0:0:
198,277,55608,5,10,2:0:0:0:
341,73,55782,1,0,3:2:0:0:
328,301,55957,5,10,2:0:0:0:
199,55,56131,1,0,3:2:0:0:
458,216,56305,5,6,3:2:0:0:
198,277,56480,1,10,2:0:0:0:
341,73,56654,1,2,3:2:0:0:
314,322,56829,6,0,P|277:268|181:297,1,152.999995330811,10|8,2:0|2:0,0:0:0:0:
61,346,57352,1,10,2:0:0:0:
56,331,57439,1,8,2:0:0:0:
52,316,57526,1,10,2:0:0:0:
3,147,57701,6,0,P|62:213|151:188,1,187.000005706787,6|8,3:2|2:0,0:0:0:0:
264,72,58224,1,2,2:0:0:0:
90,130,58398,1,2,3:2:0:0:
285,233,58573,1,2,3:2:0:0:
159,48,58747,1,10,2:0:0:0:
124,291,58922,1,2,2:0:0:0:
344,139,59096,6,0,B|460:172|460:172|482:137|542:117,1,187.000005706787,2|8,3:2|2:0,0:0:0:0:
264,72,59619,2,0,P|237:119|240:164,1,93.5000028533936,2|0,2:0|3:2,0:0:0:0:
397,302,59968,1,2,3:2:0:0:
344,139,60143,1,8,2:0:0:0:
229,322,60317,1,2,2:0:0:0:
99,183,60492,5,6,3:2:0:0:
303,236,60666,1,2,2:0:0:0:
54,301,60840,1,10,2:0:0:0:
221,137,61015,1,2,2:0:0:0:
42,84,61189,2,0,P|64:145|78:192,1,93.5000028533936,2|2,3:2|3:2,0:0:0:0:
229,322,61538,2,0,P|243:277|259:233,1,93.5000028533936,10|2,2:0|2:0,0:0:0:0:
367,67,61887,6,0,P|426:141|530:110,2,187.000005706787,2|8|0,3:2|2:0|3:2,0:0:0:0:
221,137,62759,1,2,3:2:0:0:
384,255,62933,1,10,2:0:0:0:
367,67,63108,1,2,2:0:0:0:
223,264,63282,6,0,P|142:240|14:206,1,187.000005706787,6|10,3:2|2:0,0:0:0:0:
221,137,63805,1,2,2:0:0:0:
324,305,63980,2,0,P|346:251|373:205,1,93.5000028533936,0|0,3:2|3:2,0:0:0:0:
302,11,64329,1,8,2:0:0:0:
221,137,64503,1,2,3:2:0:0:
464,133,64678,6,0,P|400:122|368:228,1,187.000005706787,6|10,3:2|2:0,0:0:0:0:
438,344,65201,1,2,2:0:0:0:
254,384,65375,1,0,3:2:0:0:
362,219,65550,1,2,3:2:0:0:
216,151,65724,1,10,2:0:0:0:
342,339,65898,1,2,3:2:0:0:
457,169,66073,6,0,P|478:97|394:16,1,187.000005706787,6|8,3:2|2:0,0:0:0:0:
216,151,66596,1,2,2:0:0:0:
388,107,66771,1,2,3:2:0:0:
194,8,66945,1,2,3:2:0:0:
290,234,67119,2,0,P|303:169|313:118,1,93.5000028533936,10|2,2:0|3:2,0:0:0:0:
126,342,67468,5,14,2:0:0:0:
373,283,67643,1,10,2:0:0:0:
216,151,67817,1,2,3:2:0:0:
332,366,67992,2,0,P|422:364|462:267,1,187.000005706787,10|0,2:0|3:2,0:0:0:0:
388,107,68515,1,10,2:0:0:0:
369,111,68602,1,8,2:0:0:0:
351,115,68689,1,10,2:0:0:0:
220,233,68864,6,0,B|196:154|196:154|209:121|209:121|182:42,1,187.000005706787,6|8,3:2|2:0,0:0:0:0:
15,194,69387,2,0,P|58:221|112:216,1,93.5000028533936,2|2,2:0|3:2,0:0:0:0:
217,0,69736,1,2,3:2:0:0:
80,133,69910,1,10,2:0:0:0:
295,182,70085,1,2,2:0:0:0:
86,41,70259,6,0,P|18:66|1:177,1,187.000005706787,2|8,3:2|2:0,0:0:0:0:
68,300,70782,1,0,0:0:0:0:
269,194,70957,1,2,3:2:0:0:
80,133,71131,1,2,3:2:0:0:
280,213,71305,1,10,2:0:0:0:
91,152,71479,1,2,3:2:0:0:
321,81,71654,5,6,3:2:0:0:
169,225,71829,1,2,2:0:0:0:
348,336,72003,2,0,P|378:242|410:137,1,187.000005706787,10|2,2:0|3:2,0:0:0:0:
171,66,72526,1,2,3:2:0:0:
280,213,72701,1,10,2:0:0:0:
390,12,72875,1,2,2:0:0:0:
188,161,73050,6,0,P|135:159|83:39,2,187.000005706787,2|10|2,3:2|2:0|3:2,0:0:0:0:
351,115,73922,1,2,3:2:0:0:
171,66,74096,1,10,2:0:0:0:
263,250,74271,1,2,3:2:0:0:
431,47,74445,6,0,B|450:126|450:126|439:154|439:154|467:258,1,187.000005706787,6|2,3:2|3:2,0:0:0:0:
342,364,74968,2,0,P|293:280|200:319,1,187.000005706787,14|2,2:0|2:0,0:0:0:0:
60,384,75492,1,8,2:0:0:0:
55,365,75579,1,8,2:0:0:0:
50,347,75666,1,10,2:0:0:0:
7,159,75840,6,0,B|107:125|90:200|192:159,1,187.000005706787,6|2,3:2|3:2,0:0:0:0:
257,21,76364,2,0,P|158:10|154:99,1,187.000005706787,14|2,2:0|2:0,0:0:0:0:
264,214,76887,1,10,2:0:0:0:
269,195,76974,1,8,2:0:0:0:
274,177,77061,1,10,2:0:0:0:
94,263,77236,5,6,3:2:0:0:
342,364,77410,1,0,3:2:0:0:
308,94,77585,5,10,2:0:0:0:
209,335,77759,1,0,3:2:0:0:
188,27,77933,5,10,2:0:0:0:
302,254,78108,1,2,3:2:0:0:
41,168,78282,5,10,2:0:0:0:
308,94,78457,1,2,3:2:0:0:
94,263,78631,5,14,2:0:0:0:
188,27,78805,1,10,2:0:0:0:
302,254,78980,1,2,3:2:0:0:
396,18,79154,1,14,2:0:0:0:
120,101,79329,2,0,P|192:117|242:129,1,93.5000028533936,2|10,3:2|2:0,0:0:0:0:
414,250,79678,2,0,P|342:266|292:278,1,93.5000028533936,10|8,2:0|2:0,0:0:0:0:
120,101,80026,5,6,3:2:0:0:
11,271,80201,1,2,2:0:0:0:
269,198,80375,1,2,3:2:0:0:
29,168,80550,5,10,2:0:0:0:
162,340,80724,1,2,3:2:0:0:
229,94,80898,1,2,2:0:0:0:
358,344,81073,5,10,2:0:0:0:
154,225,81247,1,2,3:2:0:0:
401,144,81422,1,2,3:2:0:0:
252,363,81596,6,0,P|189:347|136:333,1,93.5000028533936,14|0,2:0|3:2,0:0:0:0:
29,168,81945,2,0,P|92:152|145:138,1,93.5000028533936,10|0,2:0|3:2,0:0:0:0:
161,339,82294,1,2,3:2:0:0:
274,217,82468,1,10,2:0:0:0:
269,198,82555,1,8,2:0:0:0:
264,180,82642,1,10,2:0:0:0:
119,144,82817,5,6,3:2:0:0:
273,216,92585,6,0,P|302:211|332:207,2,59.4999981842042,2|2|2,2:0|2:0|2:0,0:0:0:0:
173,234,93108,1,2,2:0:0:0:
275,126,93282,1,2,3:2:0:0:
314,293,93457,1,10,2:0:0:0:
177,134,93631,2,0,P|190:88|200:55,1,59.4999981842042,8|0,2:0|3:2,0:0:0:0:
348,17,93980,6,0,P|363:88|386:191,1,170,6|8,3:2|2:0,0:0:0:0:
314,293,94503,1,0,0:0:0:0:
433,377,94678,2,0,P|446:317|456:269,1,85,2|0,3:2|3:2,0:0:0:0:
275,126,95026,1,10,2:0:0:0:
314,293,95201,1,2,2:0:0:0:
455,145,95375,6,0,B|389:135|389:135|366:103|366:103|277:92,1,170,0|10,3:2|2:0,0:0:0:0:
203,228,95898,1,2,2:0:0:0:
111,50,96073,1,0,3:2:0:0:
275,126,96247,1,2,3:2:0:0:
81,177,96422,2,0,P|61:228|43:279,1,85,10|0,2:0|0:0,0:0:0:0:
175,361,96771,6,0,P|240:349|358:331,1,170,2|10,3:2|2:0,0:0:0:0:
364,154,97294,1,2,2:0:0:0:
203,228,97468,1,0,3:2:0:0:
342,333,97643,1,0,3:2:0:0:
270,148,97817,1,10,2:0:0:0:
132,309,97992,6,0,P|107:257|81:212,1,85,2|0,2:0|3:2,0:0:0:0:
23,112,98340,1,2,2:0:0:0:
201,55,98515,2,0,P|180:92|162:130,1,85,8|0,2:0|0:0,0:0:0:0:
290,236,98864,1,2,3:2:0:0:
132,309,99038,1,0,3:2:0:0:
270,148,99212,2,0,P|316:147|353:168,1,85,10|0,2:0|0:0,0:0:0:0:
383,348,99561,6,0,P|316:331|206:305,2,170,2|10|0,3:2|2:0|3:2,0:0:0:0:
483,189,100433,1,2,3:2:0:0:
290,236,100608,1,10,2:0:0:0:
418,355,100782,1,2,2:0:0:0:
345,153,100957,6,0,P|280:136|195:224,1,170,0|8,3:2|2:0,0:0:0:0:
127,337,101480,1,2,2:0:0:0:
290,236,101654,1,0,3:2:0:0:
96,173,101829,1,2,3:2:0:0:
231,316,102003,2,0,P|271:335|325:327,1,85,8|0,2:0|0:0,0:0:0:0:
441,225,102352,6,0,B|470:125|470:125|412:59,1,170,2|10,3:2|2:0,0:0:0:0:
290,236,102875,1,2,2:0:0:0:
444,332,103050,1,0,3:2:0:0:
371,150,103224,1,2,3:2:0:0:
231,316,103398,2,0,P|171:303|123:294,1,85,10|2,2:0|2:0,0:0:0:0:
233,69,103747,5,2,3:2:0:0:
290,236,103922,1,2,2:0:0:0:
78,184,104096,2,0,P|94:129|109:80,1,85,10|2,2:0|2:0,0:0:0:0:
226,162,104445,1,0,3:2:0:0:
57,274,104619,1,4,3:0:0:0:
239,343,104794,1,8,2:0:0:0:
255,338,104881,1,8,2:0:0:0:
271,333,104968,1,0,3:2:0:0:
423,267,105143,6,0,P|362:266|313:197,1,136,6|2,3:2|2:0,0:0:0:0:
277,121,105666,1,0,3:2:0:0:
431,52,105840,2,0,P|415:106|396:191,1,136,2|10,3:2|2:0,0:0:0:0:
289,233,106364,1,2,2:0:0:0:
146,135,106538,6,0,B|204:120|204:120|232:132|232:132|288:117,1,136,2|2,3:2|2:0,0:0:0:0:
397,183,107061,1,0,3:2:0:0:
306,298,107236,2,0,P|292:247|280:203,1,68,2|0,3:2|0:0,0:0:0:0:
204,120,107585,1,10,2:0:0:0:
204,120,107759,1,0,3:2:0:0:
133,241,107933,6,0,B|58:217|74:274|-10:241,1,136,2|2,3:2|2:0,0:0:0:0:
35,166,108457,1,0,3:2:0:0:
109,322,108631,2,0,P|174:316|215:263,1,136,2|10,3:2|2:0,0:0:0:0:
248,154,109154,1,2,2:0:0:0:
329,261,109329,6,0,B|362:310|362:310|323:396,1,136,2|2,3:2|2:0,0:0:0:0:
214,264,109852,1,0,3:2:0:0:
323,179,110026,2,0,P|359:189|410:203,1,68,2|0,3:2|0:0,0:0:0:0:
214,264,110375,2,0,P|178:254|127:240,1,68,10|0,2:0|3:2,0:0:0:0:
31,343,110724,6,0,B|14:285|14:285|24:268|24:268|8:203,1,136,2|2,3:2|2:0,0:0:0:0:
67,113,111247,1,2,3:2:0:0:
67,113,111422,2,0,P|109:120|165:129,1,68,0|2,3:2|2:0,0:0:0:0:
206,231,111771,1,10,2:0:0:0:
206,231,111945,1,2,2:0:0:0:
299,137,112119,6,0,P|291:101|284:67,1,68,2|0,3:2|0:0,0:0:0:0:
433,141,112468,2,0,P|426:174|418:207,1,68,2|0,2:0|3:2,0:0:0:0:
387,349,112817,2,0,P|358:333|319:332,1,68,2|0,3:2|0:0,0:0:0:0:
206,231,113166,2,0,P|177:247|138:248,1,68,10|0,2:0|3:2,0:0:0:0:
44,129,113515,6,0,P|110:118|160:180,1,136,2|2,3:2|2:0,0:0:0:0:
74,270,114038,1,2,3:2:0:0:
193,339,114212,2,0,B|230:317|275:330|250:339|288:353|340:324,1,136,2|10,3:2|2:0,0:0:0:0:
420,282,114736,1,0,3:2:0:0:
320,186,114910,6,0,B|241:221|241:221|191:189,1,136,2|2,3:2|2:0,0:0:0:0:
96,116,115433,1,8,2:0:0:0:
252,121,115608,1,2,3:2:0:0:
111,218,115782,1,10,2:0:0:0:
197,54,115957,2,0,P|233:36|269:36,1,68,10|0,2:0|3:2,0:0:0:0:
364,118,116305,6,0,B|346:165|319:274|319:274,1,136,6|2,3:2|2:0,0:0:0:0:
292,355,116829,1,0,3:2:0:0:
183,293,117003,2,0,B|163:279|118:295|118:295|94:331|40:337,1,136,2|10,3:2|2:0,0:0:0:0:
47,241,117526,1,2,2:0:0:0:
129,127,117701,6,0,P|173:101|258:122,1,136,2|2,3:2|2:0,0:0:0:0:
329,181,118224,1,0,3:2:0:0:
416,82,118398,2,0,P|411:39|403:2,1,68,2|0,3:2|0:0,0:0:0:0:
329,181,118747,1,10,2:0:0:0:
329,181,118922,1,2,3:2:0:0:
439,257,119096,6,0,P|393:212|317:231,1,136,2|2,3:2|2:0,0:0:0:0:
229,304,119619,1,0,3:2:0:0:
144,224,119794,2,0,P|131:283|116:380,1,136,2|10,3:2|2:0,0:0:0:0:
229,304,120317,1,2,2:0:0:0:
326,222,120492,6,0,B|413:251|413:251|470:203,1,136,2|2,3:2|2:0,0:0:0:0:
512,148,121015,1,0,3:2:0:0:
342,102,121189,1,2,3:2:0:0:
446,222,121364,1,8,2:0:0:0:
405,38,121538,2,0,P|349:11|291:26,1,102,10|0,2:0|0:0,0:0:0:0:
274,30,121887,6,0,P|258:104|245:182,1,152.999995330811,6|10,3:2|2:0,0:0:0:0:
93,276,122410,1,2,2:0:0:0:
245,180,122585,1,0,3:2:0:0:
88,104,122759,1,0,3:2:0:0:
209,288,122933,2,0,P|246:280|284:273,1,76.4999976654053,10|0,2:0|0:0,0:0:0:0:
432,176,123282,6,0,P|362:161|263:144,1,152.999995330811,2|10,3:2|2:0,0:0:0:0:
209,288,123805,1,2,2:0:0:0:
126,172,123980,2,0,P|141:117|157:65,1,76.4999976654053,0|0,3:2|3:2,0:0:0:0:
301,251,124329,2,0,P|311:287|321:324,1,76.4999976654053,10|2,2:0|2:0,0:0:0:0:
126,172,124678,5,6,3:2:0:0:
359,94,124852,1,0,0:0:0:0:
55,68,125026,5,10,2:0:0:0:
258,176,125201,1,0,3:2:0:0:
66,325,125375,5,10,2:0:0:0:
196,91,125550,1,0,3:2:0:0:
301,351,125724,5,10,2:0:0:0:
63,239,125898,1,0,3:2:0:0:
258,176,126073,5,2,2:0:0:0:
258,176,126945,5,0,3:2:0:0:
416,288,127119,1,10,2:0:0:0:
187,339,127294,1,2,3:2:0:0:
284,82,127468,6,0,P|349:140|312:261,1,187.000005706787,6|8,3:2|2:0,0:0:0:0:
111,306,127992,1,2,2:0:0:0:
258,176,128166,1,2,3:2:0:0:
59,103,128340,1,2,3:2:0:0:
206,272,128515,1,10,2:0:0:0:
284,82,128689,1,2,2:0:0:0:
64,232,128864,6,0,B|109:202|172:219|136:237|204:260|258:210,1,187.000005706787,2|8,3:2|2:0,0:0:0:0:
352,27,129387,2,0,P|304:47|281:99,1,93.5000028533936,2|0,2:0|3:2,0:0:0:0:
206,272,129736,1,2,3:2:0:0:
164,70,129910,1,8,2:0:0:0:
364,177,130085,1,2,2:0:0:0:
88,190,130259,5,6,3:2:0:0:
283,81,130433,1,2,2:0:0:0:
215,293,130608,1,10,2:0:0:0:
164,70,130782,1,2,2:0:0:0:
0,252,130957,2,0,P|60:238|119:225,1,93.5000028533936,2|2,3:2|3:2,0:0:0:0:
255,90,131305,2,0,P|209:79|163:69,1,93.5000028533936,10|2,2:0|2:0,0:0:0:0:
319,270,131654,6,0,P|372:211|476:237,2,187.000005706787,2|8|0,3:2|2:0|3:2,0:0:0:0:
224,171,132526,1,2,3:2:0:0:
407,294,132701,1,10,2:0:0:0:
382,80,132875,1,2,2:0:0:0:
240,283,133050,6,0,P|170:272|115:167,1,187.000005706787,6|10,3:2|2:0,0:0:0:0:
255,78,133573,1,2,2:0:0:0:
104,0,133747,2,0,P|38:14|-6:26,1,93.5000028533936,0|0,3:2|3:2,0:0:0:0:
224,171,134096,1,8,2:0:0:0:
317,3,134271,1,2,3:2:0:0:
127,107,134445,6,0,P|108:197|162:281,1,187.000005706787,6|10,3:2|2:0,0:0:0:0:
279,361,134968,1,2,2:0:0:0:
224,171,135143,1,0,3:2:0:0:
109,355,135317,1,2,3:2:0:0:
296,251,135492,1,10,2:0:0:0:
77,204,135666,1,2,3:2:0:0:
279,361,135840,6,0,P|342:347|479:320,1,187.000005706787,6|8,3:2|2:0,0:0:0:0:
423,106,136364,1,2,2:0:0:0:
296,251,136538,1,2,3:2:0:0:
503,253,136712,1,2,3:2:0:0:
310,138,136887,2,0,P|259:141|210:183,1,93.5000028533936,10|2,2:0|3:2,0:0:0:0:
85,321,137236,5,14,2:0:0:0:
296,251,137410,1,10,2:0:0:0:
127,107,137585,1,2,3:2:0:0:
191,354,137759,2,0,B|211:268|211:268|197:243|197:243|221:145,1,187.000005706787,10|0,2:0|3:2,0:0:0:0:
338,29,138282,1,10,2:0:0:0:
342,47,138369,1,8,2:0:0:0:
347,65,138456,1,10,2:0:0:0:
444,199,138631,6,0,P|365:181|294:257,1,187.000005706787,6|10,3:2|2:0,0:0:0:0:
409,365,139154,2,0,P|392:288|384:248,1,93.5000028533936,2|2,2:0|3:2,0:0:0:0:
197,170,139503,1,2,3:2:0:0:
389,273,139678,1,10,2:0:0:0:
191,354,139852,1,2,2:0:0:0:
337,175,140026,6,0,P|399:164|494:254,1,187.000005706787,2|8,3:2|2:0,0:0:0:0:
307,362,140550,1,0,0:0:0:0:
197,170,140724,1,2,3:2:0:0:
389,273,140898,1,2,3:2:0:0:
152,348,141073,1,10,2:0:0:0:
337,175,141247,1,2,3:2:0:0:
120,92,141422,5,6,3:2:0:0:
216,272,141596,1,2,2:0:0:0:
381,58,141771,2,0,P|296:45|191:30,1,187.000005706787,10|2,2:0|3:2,0:0:0:0:
69,242,142294,1,2,3:2:0:0:
255,125,142468,1,10,2:0:0:0:
39,65,142643,1,2,2:0:0:0:
197,221,142817,6,0,P|299:224|366:137,2,187.000005706787,2|10|2,3:2|2:0|3:2,0:0:0:0:
114,0,143689,1,2,3:2:0:0:
255,125,143864,1,10,2:0:0:0:
63,199,144038,1,2,3:2:0:0:
231,10,144212,6,0,P|317:23|433:39,1,187.000005706787,6|2,3:2|3:2,0:0:0:0:
505,227,144736,2,0,B|476:213|457:173|457:173|386:155|341:223,1,187.000005706787,14|2,2:0|2:0,0:0:0:0:
255,343,145259,1,8,2:0:0:0:
259,361,145346,1,8,2:0:0:0:
262,379,145433,1,10,2:0:0:0:
354,205,145608,6,0,P|313:171|267:166,1,93.5000028533936,6|2,3:2|2:0,0:0:0:0:
104,313,145957,1,2,3:2:0:0:
277,259,146131,1,14,2:0:0:0:
133,102,146305,2,0,P|150:160|163:208,1,93.5000028533936,2|2,3:2|2:0,0:0:0:0:
314,87,146654,1,10,2:0:0:0:
317,69,146741,1,8,2:0:0:0:
321,51,146828,1,10,2:0:0:0:
158,191,147003,5,6,3:2:0:0:
398,259,147178,1,0,3:2:0:0:
206,63,147352,5,10,2:0:0:0:
104,313,147526,1,0,3:2:0:0:
352,168,147701,5,10,2:0:0:0:
91,86,147876,1,2,3:2:0:0:
324,304,148050,5,10,2:0:0:0:
426,54,148224,1,2,3:2:0:0:
158,191,148398,5,14,2:0:0:0:
398,259,148573,1,10,2:0:0:0:
111,343,148747,1,2,3:2:0:0:
272,121,148922,1,10,2:0:0:0:
430,351,149096,2,0,P|382:357|334:333,1,93.5000028533936,2|10,3:2|2:0,0:0:0:0:
179,134,149445,2,0,P|239:125|291:118,1,93.5000028533936,10|8,2:0|2:0,0:0:0:0:
433,17,149794,6,0,P|385:66|408:178,1,170,6|10,3:2|2:0,0:0:0:0:
491,294,150317,1,0,0:0:0:0:
297,229,150492,1,2,3:2:0:0:
468,105,150666,1,0,3:2:0:0:
365,317,150840,2,0,P|326:339|270:339,1,85,10|0,2:0|0:0,0:0:0:0:
130,156,151189,5,2,3:2:0:0:
297,229,151364,1,0,0:0:0:0:
65,255,151538,1,10,2:0:0:0:
226,89,151712,1,0,0:0:0:0:
132,324,151887,2,0,P|115:268|99:222,1,85,2|0,3:2|3:2,0:0:0:0:
226,89,152236,1,10,2:0:0:0:
310,238,152410,6,0,P|374:227|516:208,1,170,2|0,2:0|0:0,0:0:0:0:
316,62,152933,2,0,P|258:1|161:19,1,170,10|2,2:0|3:2,0:0:0:0:
43,176,153457,1,2,3:2:0:0:
226,89,153631,1,10,2:0:0:0:
33,0,153805,1,2,2:0:0:0:
158,188,153980,5,2,3:2:0:0:
271,7,154154,1,2,2:0:0:0:
273,250,154329,1,10,2:0:0:0:
130,87,154503,1,2,2:0:0:0:
81,319,154678,2,0,P|127:303|186:286,1,85,2|2,3:2|3:2,0:0:0:0:
306,115,155026,2,0,P|265:102|225:88,1,85,10|2,2:0|3:2,0:0:0:0:
478,207,155375,5,6,3:2:0:0:
347,35,155550,1,2,2:0:0:0:
273,250,155724,1,10,2:0:0:0:
465,60,155898,2,0,P|380:73|269:94,1,170,2|0,2:0|3:2,0:0:0:0:
273,250,156422,1,10,2:0:0:0:
246,0,156596,6,0,P|199:62|226:165,1,170,2|0,2:0|0:0,0:0:0:0:
273,250,157119,1,10,2:0:0:0:
421,283,157294,2,0,P|359:236|256:263,1,170,2|0,2:0|3:2,0:0:0:0:
166,322,157817,1,10,2:0:0:0:
44,170,157992,6,0,P|129:159|217:147,1,170,2|0,2:0|0:0,0:0:0:0:
312,270,158515,1,10,2:0:0:0:
443,148,158689,2,0,P|421:100|411:58,1,85,2|0,2:0|3:2,0:0:0:0:
312,270,159038,2,0,P|334:318|344:360,1,85,2|10,3:2|2:0,0:0:0:0:
166,322,159387,1,2,3:2:0:0:
296,133,159561,5,10,2:0:0:0:
70,145,159736,1,10,2:0:0:0:
312,270,159910,1,2,3:2:0:0:
253,34,160085,1,10,2:0:0:0:
86,275,160259,1,2,3:2:0:0:
369,192,160433,1,10,2:0:0:0:
134,53,160608,1,10,2:0:0:0:
117,56,160695,1,10,2:0:0:0:
100,60,160782,1,10,2:0:0:0:
166,322,160957,5,6,3:2:0:0:
255,101,161131,1,2,2:0:0:0:
168,341,161305,1,10,2:0:0:0:
161,66,161480,5,2,2:0:0:0:
256,289,161654,1,2,3:2:0:0:
163,47,161828,1,2,3:2:0:0:
338,229,162003,5,10,2:0:0:0:
408,26,162177,1,2,2:0:0:0:
340,248,162351,1,2,3:2:0:0:
93,224,162526,5,2,2:0:0:0:
292,99,162701,1,10,2:0:0:0:
83,19,162875,1,2,2:0:0:0:
98,234,163050,5,2,3:2:0:0:
302,117,163225,1,2,3:2:0:0:
95,29,163399,1,10,2:0:0:0:
103,245,163573,5,2,2:0:0:0:
311,135,163748,1,2,3:2:0:0:
107,40,163922,1,2,2:0:0:0:
400,51,164096,5,10,2:0:0:0:
201,176,164271,1,2,2:0:0:0:
410,256,164445,1,2,3:2:0:0:
395,41,164620,5,2,3:2:0:0:
191,158,164795,1,10,2:0:0:0:
398,246,164969,1,2,2:0:0:0:
390,30,165143,5,2,3:2:0:0:
182,140,165318,1,2,2:0:0:0:
386,235,165492,1,10,2:0:0:0:
263,18,165666,6,0,P|283:81|295:121,1,85,2|2,2:0|3:2,0:0:0:0:
192,278,166015,1,2,3:2:0:0:
30,130,166189,2,0,P|70:117|111:104,1,85,10|2,2:0|3:2,0:0:0:0:
294,298,166538,5,14,2:0:0:0:
182,140,166712,1,2,2:0:0:0:
95,357,166887,1,2,3:2:0:0:
286,186,167061,2,0,P|291:110|229:37,1,170,14|0,2:0|3:2,0:0:0:0:
75,6,167585,1,10,2:0:0:0:
80,22,167672,1,8,2:0:0:0:
86,38,167759,1,10,2:0:0:0:
3,229,167933,6,0,P|98:203|200:178,1,170,14|2,2:0|3:2,0:0:0:0:
381,82,168457,2,0,P|308:94|228:25,1,170,14|2,2:0|3:2,0:0:0:0:
167,185,168980,1,10,2:0:0:0:
162,201,169067,1,8,2:0:0:0:
156,217,169154,1,10,2:0:0:0:
332,0,169329,5,2,3:2:0:0:
118,71,169503,1,2,3:2:0:0:
347,258,169678,5,10,2:0:0:0:
229,0,169852,1,2,2:0:0:0:
184,289,170026,5,10,2:0:0:0:
381,82,170201,1,2,3:2:0:0:
56,168,170375,5,10,2:0:0:0:
347,258,170550,1,2,3:2:0:0:
229,0,170724,5,10,2:0:0:0:
179,274,170898,1,10,2:0:0:0:
381,82,171073,1,2,3:2:0:0:
108,47,171247,1,14,2:0:0:0:
348,245,171422,1,0,3:2:0:0:
229,0,171596,1,4,3:0:0:0:
342,263,171771,1,12,2:0:0:0:
230,18,171945,1,12,2:0:0:0:
155,172,172119,5,2,2:0:0:0:
134,292,177352,6,0,P|163:274|184:276,1,51,2|0,2:0|0:0,0:0:0:0:
239,335,177701,6,0,P|284:323|385:298,1,136,2|2,3:2|3:2,0:0:0:0:
449,347,178224,1,2,2:0:0:0:
505,223,178398,2,0,P|518:178|481:94,1,136,0|0,3:2|3:2,0:0:0:0:
408,21,178922,1,2,2:0:0:0:
330,118,179096,6,0,P|276:105|172:85,1,136,2|2,3:2|3:2,0:0:0:0:
175,0,179619,2,0,P|128:27|112:117,1,136,2|2,2:0|2:0,0:0:0:0:
143,227,180143,1,2,3:2:0:0:
197,89,180317,1,2,2:0:0:0:
284,206,180492,5,2,3:2:0:0:
284,206,180666,2,0,P|338:170|412:191,1,136,0|2,0:0|2:0,0:0:0:0:
492,263,181189,2,0,P|477:304|466:342,1,68,2|2,3:2|2:0,0:0:0:0:
371,384,181538,2,0,P|360:351|348:319,1,68,2|2,3:2|2:0,0:0:0:0:
208,169,181887,5,14,2:0:0:0:
396,245,182061,1,10,2:0:0:0:
207,339,182236,1,2,3:2:0:0:
271,91,182410,2,0,P|304:147|274:244,1,152.999995330811,14|4,2:0|3:0,0:0:0:0:
106,255,182933,1,12,2:0:0:0:
91,250,183020,1,12,2:0:0:0:
76,246,183107,1,12,2:0:0:0:
137,15,183282,5,14,2:0:0:0:
208,169,183457,1,2,2:0:0:0:
336,19,183631,1,10,2:0:0:0:
115,124,183805,1,2,3:2:0:0:
375,221,183980,1,10,2:0:0:0:
242,0,184154,1,2,3:2:0:0:
185,268,184329,1,10,2:0:0:0:
423,88,184503,1,10,2:0:0:0:
442,243,184678,6,0,P|404:218|358:229,1,76.4999976654053,2|0,3:2|0:0,0:0:0:0:
284,291,185026,6,0,P|230:277|161:264,1,101.999996887207,14|2,2:0|2:0,0:0:0:0:
11,176,185375,1,2,3:2:0:0:
244,160,185550,1,2,3:2:0:0:
74,313,185724,1,10,2:0:0:0:
47,76,185898,1,2,2:0:0:0:
220,258,186073,6,0,P|294:246|333:121,1,203.999993774414,2|8,3:2|2:0,0:0:0:0:
169,0,186596,1,2,2:0:0:0:
244,160,186771,1,2,3:2:0:0:
370,10,186945,1,2,3:2:0:0:
146,102,187119,1,8,2:0:0:0:
372,193,187294,1,2,2:0:0:0:
197,5,187468,6,0,P|184:64|166:134,1,101.999996887207,6|2,3:2|2:0,0:0:0:0:
353,287,187817,2,0,P|378:226|357:170,1,101.999996887207,10|0,2:0|0:0,0:0:0:0:
173,104,188166,1,2,3:2:0:0:
290,223,188340,1,2,3:2:0:0:
78,277,188515,1,10,2:0:0:0:
277,116,188689,1,2,2:0:0:0:
378,374,188864,6,0,P|341:367|268:356,1,101.999996887207,2|0,3:2|0:0,0:0:0:0:
240,350,189125,1,2,2:0:0:0:
240,350,189212,1,8,2:0:0:0:
371,192,189387,1,2,2:0:0:0:
155,82,189561,2,0,P|168:151|180:212,1,101.999996887207,0|0,3:2|3:2,0:0:0:0:
451,141,189910,2,0,P|400:102|341:104,1,101.999996887207,8|2,2:0|2:0,0:0:0:0:
138,272,190259,6,0,P|220:268|267:160,1,203.999993774414,6|8,3:2|2:0,0:0:0:0:
208,11,190782,1,2,2:0:0:0:
74,204,190957,2,0,P|146:187|202:176,1,101.999996887207,0|0,3:2|3:2,0:0:0:0:
358,138,191305,1,8,2:0:0:0:
208,11,191480,1,2,3:2:0:0:
220,246,191654,6,0,B|264:217|346:231|299:253|379:267|444:216,1,203.999993774414,6|10,3:2|2:0,0:0:0:0:
358,138,192178,1,2,2:0:0:0:
272,324,192352,2,0,P|219:341|151:314,1,101.999996887207,0|2,3:2|3:2,0:0:0:0:
0,160,192701,2,0,P|53:143|121:170,1,101.999996887207,10|2,2:0|3:2,0:0:0:0:
220,246,193050,5,6,3:2:0:0:
358,138,193224,1,0,0:0:0:0:
172,65,193398,1,8,2:0:0:0:
329,243,193573,1,2,2:0:0:0:
468,74,193747,2,0,P|403:54|340:36,1,101.999996887207,2|2,3:2|3:2,0:0:0:0:
220,246,194096,2,0,P|268:260|317:275,1,101.999996887207,10|2,2:0|3:2,0:0:0:0:
172,65,194445,5,14,2:0:0:0:
30,235,194619,1,10,2:0:0:0:
271,166,194794,1,2,3:2:0:0:
60,12,194968,1,10,2:0:0:0:
141,262,195143,2,0,P|160:203|182:143,1,101.999996887207,0|0,3:2|3:2,0:0:0:0:
324,28,195492,1,10,2:0:0:0:
329,47,195579,1,8,2:0:0:0:
335,67,195666,1,10,2:0:0:0:
477,238,195840,6,0,P|440:212|373:219,1,101.999996887207,6|2,3:2|2:0,0:0:0:0:
207,335,196189,1,10,2:0:0:0:
412,298,196364,1,2,2:0:0:0:
258,143,196538,1,0,3:2:0:0:
318,363,196712,1,0,3:2:0:0:
465,203,196887,2,0,P|451:139|439:89,1,101.999996887207,10|2,2:0|2:0,0:0:0:0:
214,37,197236,5,2,3:2:0:0:
339,213,197410,1,2,2:0:0:0:
473,18,197585,2,0,P|419:14|371:52,1,101.999996887207,10|2,2:0|2:0,0:0:0:0:
258,143,197933,1,0,3:2:0:0:
465,203,198108,1,2,3:2:0:0:
302,25,198282,1,10,2:0:0:0:
218,256,198457,1,2,2:0:0:0:
55,78,198631,6,0,P|110:65|176:49,1,101.999996887207,6|0,3:2|0:0,0:0:0:0:
339,213,198980,2,0,P|289:224|239:236,1,101.999996887207,10|0,2:0|0:0,0:0:0:0:
468,147,199329,1,2,3:2:0:0:
349,345,199503,1,0,3:2:0:0:
272,113,199678,1,10,2:0:0:0:
459,283,199852,1,2,2:0:0:0:
207,233,200026,5,2,3:2:0:0:
397,81,200201,1,2,2:0:0:0:
162,33,200375,1,10,2:0:0:0:
369,212,200550,1,2,2:0:0:0:
152,319,200724,2,0,P|88:293|26:275,1,101.999996887207,0|2,3:2|3:2,0:0:0:0:
232,121,201073,1,10,2:0:0:0:
301,335,201247,1,2,2:0:0:0:
436,73,201422,6,0,P|360:138|252:103,1,203.999993774414,6|2,3:2|3:2,0:0:0:0:
127,0,201945,2,0,P|96:69|74:126,1,101.999996887207,14|0,2:0|3:2,0:0:0:0:
244,246,202294,1,2,2:0:0:0:
336,43,202468,1,8,2:0:0:0:
331,23,202555,1,8,2:0:0:0:
327,3,202642,1,10,2:0:0:0:
244,246,202817,5,6,3:2:0:0:
452,180,202992,1,2,2:0:0:0:
201,84,203166,1,2,3:2:0:0:
290,345,203340,2,0,P|344:270|301:160,1,203.999993774414,14|2,2:0|2:0,0:0:0:0:
214,46,203864,1,10,2:0:0:0:
207,65,203951,1,8,2:0:0:0:
201,84,204038,1,10,2:0:0:0:
73,281,204212,5,6,3:2:0:0:
313,170,204387,1,0,3:2:0:0:
79,126,204561,5,10,2:0:0:0:
181,370,204736,1,0,3:2:0:0:
254,57,204910,5,10,2:0:0:0:
96,280,205085,1,2,3:2:0:0:
410,228,205259,5,10,2:0:0:0:
176,118,205433,1,2,3:2:0:0:
333,347,205608,5,14,2:0:0:0:
487,111,205782,1,10,2:0:0:0:
196,230,205957,1,2,3:2:0:0:
504,338,206131,1,10,2:0:0:0:
359,71,206305,2,0,P|300:85|231:90,1,101.999996887207,2|10,3:2|2:0,0:0:0:0:
158,242,206654,1,10,2:0:0:0:
177,234,206741,1,8,2:0:0:0:
196,230,206828,1,8,2:0:0:0:
333,347,207003,6,0,P|353:281|366:245,1,85,14|0,2:0|3:2,0:0:0:0:
176,118,207352,1,0,3:2:0:0:
253,273,207526,1,14,2:0:0:0:
438,184,207701,2,0,P|397:170|356:158,1,85,0|0,3:2|3:2,0:0:0:0:
145,272,208050,1,10,2:0:0:0:
170,287,208137,1,8,2:0:0:0:
199,292,208224,1,10,2:0:0:0:
228,288,208311,1,8,2:0:0:0:
253,273,208398,6,0,B|230:198|230:198|237:175|237:175|213:89,1,170,14|2,2:0|3:2,0:0:0:0:
5,218,208922,2,0,P|64:152|159:179,1,170,14|0,2:0|3:2,0:0:0:0:
253,273,209445,1,10,2:0:0:0:
269,268,209532,1,8,2:0:0:0:
285,263,209619,1,10,2:0:0:0:
200,6,209794,5,14,2:0:0:0:
90,234,209968,1,0,3:2:0:0:
359,162,210143,5,10,2:0:0:0:
104,67,210317,1,0,3:2:0:0:
303,257,210492,5,10,2:0:0:0:
413,29,210666,1,2,3:2:0:0:
452,293,210840,5,2,3:2:0:0:
290,70,211015,1,2,3:2:0:0:
186,305,211189,5,2,2:0:0:0:
303,257,211364,1,2,2:0:0:0:
223,225,211538,1,2,2:0:0:0:
267,341,211713,1,2,2:0:0:0:
319,242,211887,2,0,P|307:183|300:148,1,68,2|0,2:0|3:2,0:0:0:0:
211,19,212236,2,0,P|173:66|186:153,1,127.5,10|0,2:0|0:0,0:0:0:0:
203,213,212585,6,0,B|301:185|277:242|373:215,1,170,6|8,3:2|2:0,0:0:0:0:
494,53,213108,1,2,0:0:0:0:
332,132,213282,1,2,3:2:0:0:
507,237,213457,1,2,3:2:0:0:
392,54,213631,2,0,P|343:33|302:39,1,85,10|2,2:0|2:0,0:0:0:0:
165,154,213980,6,0,B|224:137|272:124|272:124|328:178,1,170,2|8,3:2|2:0,0:0:0:0:
392,261,214503,1,0,0:0:0:0:
269,337,214678,2,0,P|212:324|165:316,1,85,2|2,3:2|3:2,0:0:0:0:
34,233,215026,1,10,2:0:0:0:
99,381,215201,1,2,3:2:0:0:
200,235,215375,6,0,P|227:182|186:80,1,170,6|8,3:2|2:0,0:0:0:0:
95,4,215898,1,2,2:0:0:0:
13,200,216073,1,2,3:2:0:0:
190,83,216247,1,2,3:2:0:0:
283,252,216422,2,0,P|221:239|181:231,1,85,10|2,2:0|2:0,0:0:0:0:
402,158,216771,6,0,P|433:219|433:260,1,85,2|0,3:2|0:0,0:0:0:0:
300,381,217119,2,0,P|269:320|269:279,1,85,10|0,2:0|0:0,0:0:0:0:
493,302,217468,2,0,P|447:321|394:311,1,85,2|2,3:2|3:2,0:0:0:0:
236,222,217817,1,10,2:0:0:0:
402,158,217992,1,2,3:2:0:0:
305,351,218166,6,0,P|251:339|100:312,1,170,6|2,3:2|3:2,0:0:0:0:
0,215,218689,2,0,P|83:224|136:161,1,170,14|2,2:0|3:2,0:0:0:0:
172,19,219212,1,10,2:0:0:0:
155,22,219299,1,8,2:0:0:0:
138,26,219386,1,10,2:0:0:0:
224,171,219561,6,0,P|279:184|398:213,1,170,6|2,3:2|3:2,0:0:0:0:
490,70,220085,2,0,P|430:45|352:126,1,170,14|2,2:0|3:2,0:0:0:0:
416,262,220608,1,10,2:0:0:0:
421,246,220695,1,8,2:0:0:0:
427,230,220782,1,10,2:0:0:0:
186,28,220957,5,6,3:2:0:0:
262,272,221131,1,0,3:2:0:0:
432,130,221305,5,10,2:0:0:0:
168,216,221480,1,0,3:2:0:0:
455,257,221654,5,10,2:0:0:0:
208,121,221829,1,0,3:2:0:0:
339,366,222003,5,10,2:0:0:0:
432,130,222178,1,2,3:2:0:0:
183,337,222352,5,6,3:2:0:0:
455,257,222526,1,10,2:0:0:0:
201,113,222701,1,2,3:2:0:0:
339,366,222875,1,14,2:0:0:0:
422,120,223050,2,0,P|400:59|382:19,1,85,2|2,3:2|3:2,0:0:0:0:
201,113,223398,1,10,2:0:0:0:
197,129,223485,1,8,2:0:0:0:
194,146,223572,1,10,2:0:0:0:
255,271,223747,5,6,0:0:0:0:
256,192,223835,12,0,229329,0:0:0:0:
