osu file format v14

[General]
AudioFilename: audio.mp3
AudioLeadIn: 0
PreviewTime: 57265
Countdown: 0
SampleSet: Soft
StackLeniency: 0.2
Mode: 0
LetterboxInBreaks: 0
WidescreenStoryboard: 1

[Editor]
Bookmarks: 13050,23515,82817,92585,172119,177352
DistanceSpacing: 1.5
BeatDivisor: 4
GridSize: 4
TimelineZoom: 1

[Metadata]
Title:Shitsuren Repeater
TitleUnicode:失恋リピーター
Artist:Takanon feat. sana
ArtistUnicode:タカノン feat. 鎖那
Creator:sanairrt
Version:Chu's Insane
Source:
Tags:sanapri GUMI cover female 歌い手 utaite japanese jpop pop j-pop kuse KuBsNia_ZhoYL_ misure arronchu1207 eclipselotus chihara minori time capsule airiesu Mujina
BeatmapID:3078623
BeatmapSetID:1429397

[Difficulty]
HPDrainRate:5.5
CircleSize:4.2
OverallDifficulty:8
ApproachRate:9
SliderMultiplier:1.6
SliderTickRate:1

[Events]
//Background and Video events
0,0,"aw.jpg",0,0
//Break Periods
2,13250,22915
2,83017,91985
2,172319,177101
//Storyboard Layer 0 (Background)
//Storyboard Layer 1 (Fail)
//Storyboard Layer 2 (Pass)
//Storyboard Layer 3 (Foreground)
//Storyboard Layer 4 (Overlay)
//Storyboard Sound Samples

[TimingPoints]
492,348.837209302326,4,2,1,60,1,0
492,-133.333333333333,4,2,1,60,0,0
1887,-105.263157894737,4,2,1,70,0,0
13050,-105.263157894737,4,2,1,50,0,0
23515,-105.263157894737,4,2,1,50,0,0
24212,-117.647058823529,4,2,1,60,0,0
35375,-133.333333333333,4,2,1,55,0,0
52119,-105.263157894737,4,2,1,60,0,0
54910,-105.263157894737,4,2,1,70,0,0
57701,-95.2380952380952,4,2,1,80,0,1
82817,-105.263157894737,4,2,1,50,0,0
92585,-133.333333333333,4,2,1,50,0,0
93980,-117.647058823529,4,2,1,60,0,0
105143,-133.333333333333,4,2,1,55,0,0
121887,-105.263157894737,4,2,1,60,0,0
124678,-105.263157894737,4,2,1,70,0,0
127468,-95.2380952380952,4,2,1,80,0,1
149794,-95.2380952380952,4,2,1,70,0,0
166538,-105.263157894737,4,2,1,75,0,0
172119,-105.263157894737,4,2,1,50,0,0
177352,-133.333333333333,4,2,1,55,0,0
177701,-133.333333333333,4,2,1,50,0,0
181887,-105.263157894737,4,2,1,60,0,0
183282,-133.333333333333,4,2,1,60,0,0
183631,-105.263157894737,4,2,1,60,0,0
184678,-133.333333333333,4,2,1,80,0,0
185026,-95.2380952380952,4,2,1,80,0,1
207003,-95.2380952380952,4,2,1,70,0,1
212585,-105.263157894737,4,2,1,70,0,0
224445,-105.263157894737,4,2,1,60,0,0
225143,-105.263157894737,4,2,1,50,0,0
225840,-105.263157894737,4,2,1,40,0,0
226538,-105.263157894737,4,2,1,30,0,0
227236,-105.263157894737,4,2,1,20,0,0
227933,-105.263157894737,4,2,1,10,0,0
228631,-105.263157894737,4,2,1,5,0,0

[Colours]
Combo1 : 233,159,22
Combo2 : 255,0,0
Combo3 : 0,191,0

[HitObjects]
197,171,1364,5,0,3:2:0:0:
155,29,1538,2,0,P|139:63|140:103,1,60.0000022888184,10|0,2:0|3:2,0:0:0:0:
203,177,1887,6,0,B|292:164|272:219|358:205,1,151.999995941162,6|8,3:2|2:0,0:0:0:0:
429,148,2410,2,0,L|417:65,1,75.9999979705811,0|2,0:0|3:2,0:0:0:0:
348,206,2759,1,2,3:2:0:0:
484,292,2933,2,0,P|495:257|496:209,1,75.9999979705811,10|2,2:0|2:0,0:0:0:0:
397,332,3282,6,0,P|332:322|273:397,1,151.999995941162,2|8,3:2|2:0,0:0:0:0:
182,349,3805,1,0,0:0:0:0:
230,197,3980,2,0,L|238:283,1,75.9999979705811,2|2,3:2|3:2,0:0:0:0:
165,80,4329,2,0,P|147:115|157:166,1,75.9999979705811,10|2,2:0|3:2,0:0:0:0:
321,245,4678,6,0,B|394:261|399:213|476:229,1,151.999995941162,6|8,3:2|2:0,0:0:0:0:
351,344,5201,2,0,L|263:333,1,75.9999979705811,2|2,2:0|3:2,0:0:0:0:
126,273,5550,1,2,3:2:0:0:
237,111,5724,2,0,P|244:153|244:187,1,75.9999979705811,10|2,2:0|2:0,0:0:0:0:
119,269,6073,6,0,P|80:257|1:325,2,151.999995941162,2|10|2,3:2|2:0|3:2,0:0:0:0:
250,384,6945,1,2,3:2:0:0:
93,362,7119,2,0,L|171:352,1,75.9999979705811,10|2,2:0|3:2,0:0:0:0:
271,190,7468,6,0,L|280:275,1,75.9999979705811,6|0,3:2|0:0,0:0:0:0:
200,136,7817,1,2,3:2:0:0:
289,32,7992,6,0,P|294:70|276:110,1,75.9999979705811,14|0,2:0|3:2,0:0:0:0:
188,221,8340,1,2,3:2:0:0:
353,166,8515,1,10,2:0:0:0:
359,168,8602,1,8,2:0:0:0:
365,170,8689,1,10,2:0:0:0:
181,224,8864,6,0,L|105:213,1,75.9999979705811,6|0,3:2|0:0,0:0:0:0:
241,290,9212,1,2,3:2:0:0:
129,125,9387,6,0,L|53:136,1,75.9999979705811,14|0,2:0|3:2,0:0:0:0:
190,60,9736,1,2,3:2:0:0:
37,4,9910,1,10,2:0:0:0:
39,10,9997,1,8,2:0:0:0:
41,16,10085,1,10,2:0:0:0:
196,64,10259,6,0,P|233:68|270:42,1,75.9999979705811,6|0,3:2|3:2,0:0:0:0:
412,112,10608,2,0,L|327:97,1,75.9999979705811,10|0,2:0|3:2,0:0:0:0:
227,228,10957,5,10,2:0:0:0:
364,193,11131,1,0,3:2:0:0:
221,226,11305,5,10,2:0:0:0:
363,293,11480,1,2,3:2:0:0:
284,340,11654,5,6,3:2:0:0:
440,248,11829,2,0,P|453:287|442:330,1,75.9999979705811,10|2,2:0|3:2,0:0:0:0:
364,193,12178,5,14,2:0:0:0:
454,80,12352,2,0,L|444:167,1,75.9999979705811,2|2,3:2|3:2,0:0:0:0:
379,24,12701,1,10,2:0:0:0:
377,17,12788,1,8,2:0:0:0:
375,10,12875,1,8,2:0:0:0:
258,119,13050,5,2,2:0:0:0:
51,184,23515,6,0,L|61:269,1,75.9999979705811,2|10,3:2|2:0,0:0:0:0:
112,122,23864,1,8,2:0:0:0:
51,265,24038,1,0,3:2:0:0:
201,212,24212,6,0,B|270:222|263:180|339:188,2,136.000002593994,6|8|2,3:2|2:0|3:2,0:0:0:0:
121,323,25085,1,0,3:2:0:0:
208,369,25259,2,0,P|214:323|221:298,1,68.0000012969971,10|2,2:0|2:0,0:0:0:0:
34,364,25608,6,0,P|28:318|21:293,1,68.0000012969971,0|0,3:2|0:0,0:0:0:0:
113,158,25957,2,0,L|102:227,1,68.0000012969971,8|2,2:0|2:0,0:0:0:0:
202,129,26305,5,2,3:2:0:0:
70,54,26480,1,2,3:2:0:0:
198,135,26654,2,0,L|270:126,1,68.0000012969971,8|0,2:0|0:0,0:0:0:0:
348,76,27003,6,0,P|305:35|231:36,1,136.000002593994,2|10,3:2|2:0,0:0:0:0:
143,59,27526,2,0,L|73:48,1,68.0000012969971,2|0,2:0|3:2,0:0:0:0:
5,126,27875,1,0,3:2:0:0:
109,221,28050,2,0,P|110:181|102:141,1,68.0000012969971,10|2,2:0|2:0,0:0:0:0:
31,263,28398,6,0,P|78:250|139:309,1,136.000002593994,0|8,3:2|2:0,0:0:0:0:
281,260,28922,1,0,0:0:0:0:
198,142,29096,2,0,L|208:218,1,68.0000012969971,2|0,3:2|3:2,0:0:0:0:
311,77,29445,2,0,L|320:10,1,68.0000012969971,10|0,2:0|0:0,0:0:0:0:
422,151,29794,6,0,B|344:136|364:186|262:160,2,136.000002593994,2|10|0,3:2|2:0|3:2,0:0:0:0:
512,243,30666,1,2,3:2:0:0:
433,331,30840,2,0,P|425:302|422:252,1,68.0000012969971,10|2,2:0|2:0,0:0:0:0:
356,382,31189,6,0,L|208:358,1,136.000002593994,0|8,3:2|2:0,0:0:0:0:
108,307,31712,1,2,2:0:0:0:
237,234,31887,1,0,3:2:0:0:
151,127,32061,1,2,3:2:0:0:
243,240,32236,2,0,L|231:171,1,68.0000012969971,8|0,2:0|0:0,0:0:0:0:
202,19,32585,6,0,B|276:13|261:49|334:38,1,136.000002593994,2|10,3:2|2:0,0:0:0:0:
423,80,33108,2,0,P|429:36|436:5,1,68.0000012969971,2|0,2:0|3:2,0:0:0:0:
325,142,33457,1,2,3:2:0:0:
481,210,33631,2,0,L|409:223,1,68.0000012969971,10|2,2:0|2:0,0:0:0:0:
221,276,33980,5,2,3:2:0:0:
277,210,34154,1,2,2:0:0:0:
307,294,34329,6,0,L|294:367,1,68.0000012969971,10|2,2:0|2:0,0:0:0:0:
277,210,34678,1,0,3:2:0:0:
287,368,34852,1,4,3:0:0:0:
394,253,35026,1,8,2:0:0:0:
393,247,35114,1,8,2:0:0:0:
392,241,35201,1,0,3:2:0:0:
281,376,35375,6,0,B|248:373|231:355|231:355|203:352|159:367,1,120.000004577637,6|2,3:2|2:0,0:0:0:0:
161,370,35898,1,0,3:2:0:0:
80,335,36073,2,0,P|111:294|183:287,1,120.000004577637,2|10,3:2|2:0,0:0:0:0:
269,162,36771,6,0,L|254:36,1,120.000004577637,2|2,3:2|2:0,0:0:0:0:
259,33,37294,1,0,3:2:0:0:
170,81,37468,2,0,P|138:79|110:73,1,60.0000022888184,2|0,3:2|0:0,0:0:0:0:
259,33,37817,2,0,P|291:35|319:41,1,60.0000022888184,10|2,2:0|3:2,0:0:0:0:
490,105,38166,6,0,L|364:120,1,120.000004577637,2|0,3:2|0:0,0:0:0:0:
360,121,38689,1,2,3:2:0:0:
284,171,38864,2,0,P|316:203|406:198,1,120.000004577637,2|10,3:2|2:0,0:0:0:0:
213,376,39561,6,0,L|202:249,1,120.000004577637,2|2,3:2|2:0,0:0:0:0:
197,248,40085,1,0,3:2:0:0:
291,289,40259,2,0,P|321:297|352:292,1,60.0000022888184,2|0,3:2|0:0,0:0:0:0:
197,248,40608,2,0,P|167:240|136:245,1,60.0000022888184,10|0,2:0|3:2,0:0:0:0:
3,120,40957,6,0,B|68:110|60:146|123:137,1,120.000004577637,2|2,3:2|2:0,0:0:0:0:
128,131,41480,1,2,3:2:0:0:
206,69,41654,2,0,L|199:4,1,60.0000022888184,0|0,3:2|0:0,0:0:0:0:
128,131,42003,2,0,L|134:190,1,60.0000022888184,10|2,2:0|2:0,0:0:0:0:
211,244,42352,5,2,3:2:0:0:
367,291,42701,5,2,2:0:0:0:
367,291,42875,1,0,3:2:0:0:
340,379,43050,1,2,3:2:0:0:
185,334,43398,5,10,2:0:0:0:
185,334,43573,1,0,3:2:0:0:
211,244,43747,6,0,L|200:116,1,120.000004577637,2|2,3:2|2:0,0:0:0:0:
207,116,44271,1,2,3:2:0:0:
141,50,44445,2,0,P|103:51|75:72,1,60.0000022888184,2|0,3:2|0:0,0:0:0:0:
206,115,44794,2,0,P|233:128|263:127,1,60.0000022888184,10|0,2:0|0:0,0:0:0:0:
322,1,45143,6,0,L|331:74,1,60.0000022888184,2|2,3:2|2:0,0:0:0:0:
467,158,45492,5,2,2:0:0:0:
397,110,45666,1,8,2:0:0:0:
389,197,45840,6,0,P|396:247|408:270,1,60.0000022888184,2|10,3:2|2:0,0:0:0:0:
466,379,46189,2,0,L|475:317,1,60.0000022888184,10|0,2:0|3:2,0:0:0:0:
303,248,46538,6,0,B|240:241|247:284|177:272,1,120.000004577637,6|2,3:2|2:0,0:0:0:0:
178,269,47061,1,0,3:2:0:0:
94,226,47236,2,0,P|115:197|197:179,1,120.000004577637,2|10,3:2|2:0,0:0:0:0:
273,12,47933,6,0,L|287:148,1,120.000004577637,2|2,3:2|2:0,0:0:0:0:
292,140,48457,1,0,3:2:0:0:
380,103,48631,2,0,P|408:107|438:122,1,60.0000022888184,2|0,3:2|0:0,0:0:0:0:
291,139,48980,2,0,P|261:143|235:157,1,60.0000022888184,10|2,2:0|3:2,0:0:0:0:
69,222,49329,6,0,L|201:238,1,120.000004577637,2|2,3:2|2:0,0:0:0:0:
199,238,49852,1,0,3:2:0:0:
275,288,50026,2,0,P|247:316|153:313,1,120.000004577637,2|10,3:2|2:0,0:0:0:0:
321,206,50724,6,0,L|442:228,1,120.000004577637,2|2,3:2|2:0,0:0:0:0:
450,221,51247,1,0,3:2:0:0:
393,304,51422,2,0,L|401:364,1,60.0000022888184,2|8,3:2|2:0,0:0:0:0:
450,221,51771,2,0,L|442:161,1,60.0000022888184,10|0,2:0|0:0,0:0:0:0:
314,351,52119,6,0,B|230:360|255:314|164:322,1,151.999995941162,6|10,3:2|2:0,0:0:0:0:
33,367,52643,1,2,2:0:0:0:
89,206,52817,2,0,L|101:289,1,75.9999979705811,0|0,3:2|3:2,0:0:0:0:
139,135,53166,1,10,2:0:0:0:
94,288,53340,1,2,2:0:0:0:
217,185,53515,6,0,P|231:144|223:105,1,75.9999979705811,2|0,3:2|0:0,0:0:0:0:
80,54,53864,2,0,L|163:42,1,75.9999979705811,10|2,2:0|2:0,0:0:0:0:
4,6,54212,1,0,3:2:0:0:
162,49,54387,1,0,3:2:0:0:
14,126,54561,2,0,P|3:165|17:204,1,75.9999979705811,10|2,2:0|2:0,0:0:0:0:
159,315,54910,5,6,3:2:0:0:
101,164,55085,1,0,0:0:0:0:
157,324,55259,5,10,2:0:0:0:
200,148,55433,1,0,3:2:0:0:
316,293,55608,6,0,P|279:300|231:278,1,75.9999979705811,10|0,2:0|3:2,0:0:0:0:
451,233,55957,2,0,L|373:224,1,75.9999979705811,10|0,2:0|3:2,0:0:0:0:
510,311,56305,5,6,3:2:0:0:
369,217,56480,1,10,2:0:0:0:
510,146,56654,5,2,3:2:0:0:
419,335,56829,1,10,2:0:0:0:
415,344,57178,5,8,2:0:0:0:
266,293,57352,1,10,2:0:0:0:
271,292,57439,1,8,2:0:0:0:
276,291,57526,1,10,2:0:0:0:
205,374,57701,6,0,B|115:383|136:324|20:344,1,167.999994873047,6|8,3:2|2:0,0:0:0:0:
183,265,58224,1,2,2:0:0:0:
69,147,58398,2,0,L|85:234,1,83.9999974365235,2|2,3:2|3:2,0:0:0:0:
132,67,58747,5,10,2:0:0:0:
79,238,58922,1,2,2:0:0:0:
213,120,59096,6,0,B|265:104|307:109|307:109|331:140|377:139,1,167.999994873047,2|8,3:2|2:0,0:0:0:0:
511,56,59619,2,0,P|468:50|430:74,1,83.9999974365235,2|0,2:0|3:2,0:0:0:0:
477,232,59968,2,0,L|485:142,1,83.9999974365235,2|8,3:2|2:0,0:0:0:0:
358,270,60317,1,2,2:0:0:0:
512,339,60492,6,0,P|466:332|422:349,1,83.9999974365235,6|2,3:2|2:0,0:0:0:0:
275,258,60840,2,0,L|365:271,1,83.9999974365235,10|2,2:0|2:0,0:0:0:0:
209,331,61189,1,2,3:2:0:0:
368,266,61364,1,2,3:2:0:0:
189,216,61538,5,10,2:0:0:0:
314,353,61712,1,2,2:0:0:0:
133,376,61887,6,0,P|118:334|138:286,1,83.9999974365235,2|0,3:2|0:0,0:0:0:0:
180,132,62236,2,0,L|189:220,1,83.9999974365235,8|0,2:0|0:0,0:0:0:0:
246,70,62585,5,0,3:2:0:0:
184,224,62759,1,2,3:2:0:0:
131,52,62933,5,10,2:0:0:0:
267,168,63108,1,2,2:0:0:0:
131,52,63282,6,0,P|88:45|42:63,1,83.9999974365235,6|0,3:2|0:0,0:0:0:0:
180,132,63631,1,10,2:0:0:0:
41,66,63805,6,0,L|57:239,1,167.999994873047,2|0,2:0|3:2,0:0:0:0:
167,372,64329,2,0,P|176:326|167:287,1,83.9999974365235,8|2,2:0|3:2,0:0:0:0:
6,346,64678,6,0,B|93:327|85:392|177:370,1,167.999994873047,6|10,3:2|2:0,0:0:0:0:
339,320,65201,2,0,L|248:305,1,83.9999974365235,2|0,2:0|3:2,0:0:0:0:
145,194,65550,1,2,3:2:0:0:
281,65,65724,2,0,P|284:104|274:155,1,83.9999974365235,10|2,2:0|3:2,0:0:0:0:
138,199,66073,6,0,P|77:187|14:262,1,167.999994873047,6|8,3:2|2:0,0:0:0:0:
81,384,66596,1,2,2:0:0:0:
196,283,66771,2,0,L|104:294,1,83.9999974365235,2|2,3:2|3:2,0:0:0:0:
352,361,67119,2,0,L|260:350,1,83.9999974365235,10|2,2:0|3:2,0:0:0:0:
416,281,67468,5,14,2:0:0:0:
258,357,67643,1,10,2:0:0:0:
419,271,67817,1,2,3:2:0:0:
306,170,67992,6,0,L|312:253,1,83.9999974365235,10|0,2:0|3:2,0:0:0:0:
213,219,68340,1,0,3:2:0:0:
372,105,68515,1,10,2:0:0:0:
378,108,68602,1,8,2:0:0:0:
384,111,68689,1,10,2:0:0:0:
245,68,68864,6,0,B|161:54|167:108|69:90,1,167.999994873047,6|8,3:2|2:0,0:0:0:0:
219,171,69387,1,2,2:0:0:0:
112,272,69561,2,0,L|129:173,1,83.9999974365235,2|2,3:2|3:2,0:0:0:0:
178,345,69910,1,10,2:0:0:0:
123,179,70085,1,2,2:0:0:0:
270,286,70259,6,0,B|307:303|352:296|352:296|386:260|433:267,1,167.999994873047,2|8,3:2|2:0,0:0:0:0:
437,272,70782,1,0,0:0:0:0:
489,116,70957,2,0,L|500:207,1,83.9999974365235,2|2,3:2|3:2,0:0:0:0:
423,0,71305,2,0,P|403:34|412:91,1,83.9999974365235,10|2,2:0|3:2,0:0:0:0:
276,203,71654,5,6,3:2:0:0:
415,84,71829,1,2,2:0:0:0:
247,109,72003,2,0,L|329:122,1,83.9999974365235,10|0,2:0|0:0,0:0:0:0:
461,256,72352,5,2,3:2:0:0:
276,203,72526,1,2,3:2:0:0:
464,249,72701,5,10,2:0:0:0:
297,337,72875,1,2,2:0:0:0:
375,189,73050,2,0,L|363:279,1,83.9999974365235,2|0,3:2|0:0,0:0:0:0:
215,369,73398,2,0,P|206:328|224:287,1,83.9999974365235,10|0,2:0|0:0,0:0:0:0:
375,189,73747,5,2,3:2:0:0:
297,337,73922,1,2,3:2:0:0:
377,181,74096,5,10,2:0:0:0:
412,352,74271,1,2,3:2:0:0:
238,260,74445,6,0,L|323:252,1,83.9999974365235,6|0,3:2|0:0,0:0:0:0:
168,204,74794,1,2,3:2:0:0:
82,294,74968,6,0,P|130:303|170:273,1,83.9999974365235,14|0,2:0|3:2,0:0:0:0:
248,168,75317,1,2,2:0:0:0:
107,72,75492,1,8,2:0:0:0:
106,64,75579,1,8,2:0:0:0:
105,56,75666,1,10,2:0:0:0:
256,173,75840,6,0,L|345:163,1,83.9999974365235,6|0,3:2|0:0,0:0:0:0:
186,112,76189,1,2,3:2:0:0:
314,258,76364,6,0,L|403:268,1,83.9999974365235,14|0,2:0|3:2,0:0:0:0:
247,323,76712,1,2,2:0:0:0:
414,384,76887,1,10,2:0:0:0:
412,376,76974,1,8,2:0:0:0:
410,368,77061,1,10,2:0:0:0:
240,317,77236,6,0,L|151:327,1,83.9999974365235,6|0,3:2|3:2,0:0:0:0:
397,267,77585,2,0,L|314:258,1,83.9999974365235,10|0,2:0|3:2,0:0:0:0:
478,136,77933,2,0,P|485:182|463:226,1,83.9999974365235,10|2,2:0|3:2,0:0:0:0:
392,0,78282,2,0,L|403:91,1,83.9999974365235,10|2,2:0|3:2,0:0:0:0:
255,176,78631,5,14,2:0:0:0:
411,89,78805,1,10,2:0:0:0:
248,171,78980,5,2,3:2:0:0:
420,95,79154,1,14,2:0:0:0:
226,70,79329,6,0,L|309:85,1,83.9999974365235,2|10,3:2|2:0,0:0:0:0:
467,182,79678,1,10,2:0:0:0:
474,181,79765,1,8,2:0:0:0:
481,180,79852,1,8,2:0:0:0:
407,332,80026,6,0,P|390:295|401:246,1,83.9999974365235,6|2,3:2|2:0,0:0:0:0:
489,382,80375,1,2,3:2:0:0:
311,308,80550,6,0,L|218:324,1,83.9999974365235,10|2,2:0|3:2,0:0:0:0:
407,332,80898,1,2,2:0:0:0:
242,231,81073,6,0,L|149:215,1,83.9999974365235,10|2,2:0|3:2,0:0:0:0:
323,182,81422,1,2,3:2:0:0:
228,50,81596,6,0,P|208:96|214:135,1,83.9999974365235,14|0,2:0|3:2,0:0:0:0:
400,32,81945,2,0,L|313:18,1,83.9999974365235,10|0,2:0|3:2,0:0:0:0:
463,119,82294,1,2,3:2:0:0:
504,20,82468,1,10,2:0:0:0:
502,14,82555,1,8,2:0:0:0:
500,8,82643,1,10,2:0:0:0:
363,129,82817,5,6,3:2:0:0:
377,21,92585,6,0,L|384:93,1,60.0000022888184,2|2,2:0|2:0,0:0:0:0:
457,161,92933,2,0,L|445:229,1,60.0000022888184,2|2,2:0|2:0,0:0:0:0:
358,272,93282,5,2,3:2:0:0:
456,227,93457,1,10,2:0:0:0:
293,181,93631,5,8,2:0:0:0:
464,232,93805,1,0,3:2:0:0:
322,356,93980,6,0,B|255:363|266:317|177:333,1,136.000002593994,6|8,3:2|2:0,0:0:0:0:
60,375,94503,1,0,0:0:0:0:
118,233,94678,2,0,L|110:312,1,68.0000012969971,2|0,3:2|3:2,0:0:0:0:
42,121,95026,2,0,P|35:159|50:200,1,68.0000012969971,10|2,2:0|2:0,0:0:0:0:
106,56,95375,6,0,L|248:71,1,136.000002593994,0|10,3:2|2:0,0:0:0:0:
365,157,95898,2,0,P|318:146|285:158,1,68.0000012969971,2|0,2:0|3:2,0:0:0:0:
404,245,96247,1,2,3:2:0:0:
463,106,96422,2,0,L|472:176,1,68.0000012969971,10|0,2:0|0:0,0:0:0:0:
398,253,96771,6,0,B|328:263|335:215|248:236,1,136.000002593994,2|10,3:2|2:0,0:0:0:0:
156,336,97294,2,0,P|188:320|231:327,1,68.0000012969971,2|0,2:0|3:2,0:0:0:0:
51,304,97643,1,0,3:2:0:0:
131,182,97817,2,0,L|123:258,1,68.0000012969971,10|2,2:0|2:0,0:0:0:0:
61,130,98166,6,0,P|103:99|182:111,1,136.000002593994,0|8,3:2|2:0,0:0:0:0:
343,26,98689,1,0,0:0:0:0:
249,0,98864,2,0,L|259:74,1,68.0000012969971,2|0,3:2|3:2,0:0:0:0:
434,6,99212,2,0,L|424:80,1,68.0000012969971,10|0,2:0|0:0,0:0:0:0:
277,166,99561,6,0,L|416:156,2,136.000002593994,2|10|0,3:2|2:0|3:2,0:0:0:0:
117,274,100433,1,2,3:2:0:0:
197,319,100608,2,0,P|202:279|212:248,1,68.0000012969971,10|2,2:0|2:0,0:0:0:0:
135,122,100957,6,0,L|146:190,1,68.0000012969971,0|0,3:2|0:0,0:0:0:0:
214,0,101305,2,0,L|203:68,1,68.0000012969971,8|2,2:0|2:0,0:0:0:0:
297,167,101654,1,0,3:2:0:0:
197,73,101829,1,2,3:2:0:0:
359,71,102003,2,0,L|291:82,1,68.0000012969971,8|0,2:0|0:0,0:0:0:0:
396,162,102352,6,0,L|379:302,1,136.000002593994,2|10,3:2|2:0,0:0:0:0:
447,375,102875,2,0,P|468:368|522:358,1,68.0000012969971,2|0,2:0|3:2,0:0:0:0:
372,304,103224,1,2,3:2:0:0:
474,207,103398,2,0,L|466:280,1,68.0000012969971,10|2,2:0|2:0,0:0:0:0:
300,256,103747,5,2,3:2:0:0:
372,304,103922,1,2,2:0:0:0:
296,343,104096,6,0,L|229:333,1,68.0000012969971,10|2,2:0|2:0,0:0:0:0:
104,234,104445,1,0,3:2:0:0:
223,340,104619,1,4,3:0:0:0:
232,170,104794,1,8,2:0:0:0:
227,168,104881,1,8,2:0:0:0:
222,166,104968,1,0,3:2:0:0:
95,242,105143,6,0,L|108:369,1,120.000004577637,6|2,3:2|2:0,0:0:0:0:
99,374,105666,1,0,3:2:0:0:
192,335,105840,2,0,P|234:324|294:375,1,120.000004577637,2|10,3:2|2:0,0:0:0:0:
443,221,106538,6,0,L|322:235,1,120.000004577637,2|2,3:2|2:0,0:0:0:0:
314,229,107061,1,0,3:2:0:0:
246,163,107236,2,0,L|255:94,1,60.0000022888184,2|0,3:2|0:0,0:0:0:0:
314,229,107585,2,0,L|306:288,1,60.0000022888184,10|0,2:0|3:2,0:0:0:0:
201,354,107933,6,0,P|166:335|87:364,1,120.000004577637,2|2,3:2|2:0,0:0:0:0:
85,369,108457,1,0,3:2:0:0:
11,300,108631,2,0,L|28:165,1,120.000004577637,2|10,3:2|2:0,0:0:0:0:
139,61,109329,6,0,B|168:48|201:54|201:54|217:88|266:88,1,120.000004577637,2|2,3:2|2:0,0:0:0:0:
259,84,109852,1,0,3:2:0:0:
325,18,110026,2,0,L|402:8,1,60.0000022888184,2|0,3:2|0:0,0:0:0:0:
266,143,110375,2,0,L|256:66,1,60.0000022888184,10|0,2:0|3:2,0:0:0:0:
345,201,110724,6,0,L|336:331,1,120.000004577637,2|2,3:2|2:0,0:0:0:0:
343,334,111247,1,2,3:2:0:0:
255,375,111422,2,0,P|226:351|143:366,1,120.000004577637,0|10,3:2|2:0,0:0:0:0:
141,369,111945,1,2,2:0:0:0:
89,291,112119,5,2,3:2:0:0:
191,201,112468,1,2,2:0:0:0:
191,201,112643,1,0,3:2:0:0:
102,181,112817,1,2,3:2:0:0:
0,271,113166,1,10,2:0:0:0:
0,271,113341,1,0,3:2:0:0:
89,291,113515,6,0,P|114:248|101:178,1,120.000004577637,2|2,3:2|2:0,0:0:0:0:
92,173,114038,1,2,3:2:0:0:
165,112,114212,2,0,L|225:120,1,60.0000022888184,2|0,3:2|0:0,0:0:0:0:
92,173,114561,2,0,L|32:165,1,60.0000022888184,10|0,2:0|3:2,0:0:0:0:
62,26,114910,6,0,P|79:68|75:93,1,60.0000022888184,2|2,3:2|2:0,0:0:0:0:
183,204,115259,1,2,2:0:0:0:
165,112,115433,1,8,2:0:0:0:
92,173,115608,6,0,L|99:241,1,60.0000022888184,2|10,3:2|2:0,0:0:0:0:
30,364,115957,2,0,L|23:304,1,60.0000022888184,10|0,2:0|3:2,0:0:0:0:
183,204,116305,6,0,B|250:191|235:235|313:219,1,120.000004577637,6|2,3:2|2:0,0:0:0:0:
311,216,116829,1,0,3:2:0:0:
388,151,117003,2,0,P|363:118|287:123,1,120.000004577637,2|10,3:2|2:0,0:0:0:0:
169,0,117701,6,0,L|155:127,1,120.000004577637,2|2,3:2|2:0,0:0:0:0:
148,128,118224,1,0,3:2:0:0:
58,93,118398,2,0,L|52:32,1,60.0000022888184,2|0,3:2|0:0,0:0:0:0:
148,128,118747,2,0,L|142:187,1,60.0000022888184,10|2,2:0|3:2,0:0:0:0:
0,299,119096,6,0,P|23:267|105:274,1,120.000004577637,2|2,3:2|2:0,0:0:0:0:
106,277,119619,1,0,3:2:0:0:
146,362,119794,2,0,L|269:348,1,120.000004577637,2|10,3:2|2:0,0:0:0:0:
372,206,120492,6,0,P|390:162|362:98,1,120.000004577637,2|2,3:2|2:0,0:0:0:0:
352,92,121015,1,0,3:2:0:0:
409,17,121189,2,0,L|473:25,1,60.0000022888184,2|8,3:2|2:0,0:0:0:0:
352,92,121538,2,0,L|292:84,1,60.0000022888184,10|0,2:0|0:0,0:0:0:0:
122,207,121887,6,0,P|155:166|256:177,1,151.999995941162,6|10,3:2|2:0,0:0:0:0:
357,299,122410,1,2,2:0:0:0:
205,260,122585,2,0,L|288:249,1,75.9999979705811,0|0,3:2|3:2,0:0:0:0:
360,109,122933,5,10,2:0:0:0:
354,198,123108,1,0,0:0:0:0:
435,160,123282,6,0,P|450:121|445:83,1,75.9999979705811,2|0,3:2|0:0,0:0:0:0:
267,0,123631,2,0,L|278:82,1,75.9999979705811,10|2,2:0|2:0,0:0:0:0:
170,194,123980,1,0,3:2:0:0:
285,83,124154,1,0,3:2:0:0:
114,94,124329,2,0,L|192:105,1,75.9999979705811,10|2,2:0|2:0,0:0:0:0:
301,280,124678,5,6,3:2:0:0:
170,194,124852,1,0,0:0:0:0:
312,281,125026,5,10,2:0:0:0:
141,302,125201,1,0,3:2:0:0:
293,384,125375,6,0,L|377:370,1,75.9999979705811,10|0,2:0|3:2,0:0:0:0:
141,302,125724,2,0,L|225:316,1,75.9999979705811,10|0,2:0|3:2,0:0:0:0:
76,371,126073,5,2,2:0:0:0:
215,314,126945,5,0,3:2:0:0:
292,148,127119,2,0,P|306:185|302:232,1,75.9999979705811,10|2,2:0|3:2,0:0:0:0:
206,320,127468,6,0,B|120:337|135:275|43:297,1,167.999994873047,6|8,3:2|2:0,0:0:0:0:
183,222,127992,1,2,2:0:0:0:
66,91,128166,2,0,P|61:131|78:172,1,83.9999974365235,2|2,3:2|3:2,0:0:0:0:
140,25,128515,5,10,2:0:0:0:
87,177,128689,1,2,2:0:0:0:
224,73,128864,6,0,B|276:70|319:45|319:45|355:57|354:100,1,167.999994873047,2|8,3:2|2:0,0:0:0:0:
504,178,129387,2,0,L|417:165,1,83.9999974365235,2|0,2:0|3:2,0:0:0:0:
270,251,129736,2,0,P|307:228|355:234,1,83.9999974365235,2|8,3:2|2:0,0:0:0:0:
225,340,130085,1,2,2:0:0:0:
153,208,130259,6,0,L|144:292,1,83.9999974365235,6|2,3:2|2:0,0:0:0:0:
67,61,130608,2,0,L|76:145,1,83.9999974365235,10|2,2:0|2:0,0:0:0:0:
150,1,130957,1,2,3:2:0:0:
84,151,131131,1,2,3:2:0:0:
234,63,131305,5,10,2:0:0:0:
92,157,131480,1,2,2:0:0:0:
263,160,131654,6,0,L|176:146,1,83.9999974365235,2|0,3:2|0:0,0:0:0:0:
405,212,132003,2,0,P|364:234|322:231,1,83.9999974365235,8|0,2:0|0:0,0:0:0:0:
472,289,132352,5,0,3:2:0:0:
316,227,132526,1,2,3:2:0:0:
492,189,132701,5,10,2:0:0:0:
378,312,132875,1,2,2:0:0:0:
492,189,133050,6,0,L|501:105,1,83.9999974365235,6|0,3:2|0:0,0:0:0:0:
405,212,133398,1,10,2:0:0:0:
508,96,133573,6,0,B|469:117|423:109|423:109|392:68|339:68,1,167.999994873047,2|0,2:0|3:2,0:0:0:0:
267,178,134096,2,0,P|309:180|351:154,1,83.9999974365235,8|2,2:0|3:2,0:0:0:0:
180,0,134445,6,0,L|169:184,1,167.999994873047,6|10,3:2|2:0,0:0:0:0:
72,212,134968,2,0,P|60:172|69:128,1,83.9999974365235,2|0,2:0|3:2,0:0:0:0:
209,262,135317,1,2,3:2:0:0:
39,321,135492,2,0,L|133:306,1,83.9999974365235,10|2,2:0|3:2,0:0:0:0:
267,178,135840,6,0,P|328:166|391:241,1,167.999994873047,6|8,3:2|2:0,0:0:0:0:
324,363,136363,1,2,2:0:0:0:
209,262,136538,2,0,L|301:273,1,83.9999974365235,2|2,3:2|3:2,0:0:0:0:
53,340,136886,2,0,L|145:329,1,83.9999974365235,10|2,2:0|3:2,0:0:0:0:
8,228,137236,5,14,2:0:0:0:
145,336,137410,1,10,2:0:0:0:
4,220,137585,1,2,3:2:0:0:
112,147,137759,6,0,L|104:239,1,83.9999974365235,10|0,2:0|3:2,0:0:0:0:
230,384,138108,1,0,3:2:0:0:
328,286,138282,1,10,2:0:0:0:
330,280,138369,1,8,2:0:0:0:
332,274,138457,1,10,2:0:0:0:
200,199,138631,6,0,B|289:213|280:164|371:182,1,167.999994873047,6|10,3:2|2:0,0:0:0:0:
356,380,139154,1,2,2:0:0:0:
414,288,139329,2,0,L|329:273,1,83.9999974365235,2|2,3:2|3:2,0:0:0:0:
276,84,139678,2,0,P|255:127|260:176,1,83.9999974365235,10|2,2:0|2:0,0:0:0:0:
142,291,140026,6,0,P|65:280|5:369,1,167.999994873047,2|8,3:2|2:0,0:0:0:0:
96,371,140550,1,0,0:0:0:0:
33,168,140724,6,0,L|43:255,1,83.9999974365235,2|2,3:2|3:2,0:0:0:0:
124,24,141073,2,0,L|114:111,1,83.9999974365235,10|2,2:0|3:2,0:0:0:0:
258,227,141422,5,6,3:2:0:0:
106,113,141596,1,2,2:0:0:0:
278,128,141771,2,0,L|197:147,1,83.9999974365235,10|0,2:0|0:0,0:0:0:0:
354,197,142119,5,2,3:2:0:0:
187,144,142294,1,2,3:2:0:0:
359,86,142468,5,10,2:0:0:0:
258,227,142643,1,2,2:0:0:0:
437,209,142817,6,0,L|349:196,1,83.9999974365235,2|0,3:2|0:0,0:0:0:0:
232,322,143166,2,0,P|280:323|316:305,1,83.9999974365235,10|0,2:0|0:0,0:0:0:0:
135,225,143515,5,2,3:2:0:0:
165,384,143689,1,2,3:2:0:0:
135,215,143864,5,10,2:0:0:0:
63,363,144038,1,2,3:2:0:0:
40,184,144212,6,0,L|51:274,1,83.9999974365235,6|0,3:2|0:0,0:0:0:0:
101,118,144561,1,2,3:2:0:0:
9,19,144736,6,0,P|5:61|24:106,1,83.9999974365235,14|0,2:0|3:2,0:0:0:0:
126,200,145085,1,2,2:0:0:0:
252,86,145259,1,8,2:0:0:0:
247,83,145346,1,8,2:0:0:0:
242,80,145433,1,10,2:0:0:0:
126,200,145608,6,0,L|212:212,1,83.9999974365235,6|2,3:2|2:0,0:0:0:0:
63,269,145957,1,2,3:2:0:0:
217,204,146131,1,14,2:0:0:0:
138,374,146305,2,0,P|134:335|156:292,1,83.9999974365235,2|2,3:2|2:0,0:0:0:0:
314,226,146654,1,10,2:0:0:0:
320,228,146742,1,8,2:0:0:0:
326,230,146829,1,10,2:0:0:0:
261,384,147003,6,0,L|250:295,1,83.9999974365235,6|0,3:2|3:2,0:0:0:0:
404,241,147352,2,0,P|354:245|316:219,1,83.9999974365235,10|0,2:0|3:2,0:0:0:0:
476,90,147701,2,0,L|466:178,1,83.9999974365235,10|2,2:0|3:2,0:0:0:0:
370,0,148050,2,0,L|380:88,1,83.9999974365235,10|2,2:0|3:2,0:0:0:0:
243,199,148398,5,14,2:0:0:0:
388,88,148573,1,10,2:0:0:0:
234,197,148747,5,2,3:2:0:0:
396,91,148922,1,10,2:0:0:0:
208,97,149096,6,0,L|307:113,1,83.9999974365235,2|10,3:2|2:0,0:0:0:0:
438,217,149445,1,10,2:0:0:0:
432,218,149532,1,8,2:0:0:0:
426,219,149619,1,8,2:0:0:0:
272,284,149794,6,0,P|310:286|312:359,1,125.999996154785,6|0,3:2|0:0,0:0:0:0:
305,369,150143,2,0,P|257:374|212:382,1,83.9999974365235,10|0,2:0|0:0,0:0:0:0:
73,297,150492,2,0,P|121:302|166:310,1,83.9999974365235,2|0,3:2|3:2,0:0:0:0:
47,138,150840,2,0,P|27:181|36:226,1,83.9999974365235,10|0,2:0|0:0,0:0:0:0:
137,115,151189,5,2,3:2:0:0:
19,48,151364,1,0,0:0:0:0:
147,119,151538,2,0,L|233:106,1,83.9999974365235,10|0,2:0|0:0,0:0:0:0:
297,54,151887,5,2,3:2:0:0:
200,196,152062,1,0,3:2:0:0:
305,46,152236,2,0,L|391:59,1,83.9999974365235,10|2,2:0|2:0,0:0:0:0:
512,142,152585,6,0,P|469:139|460:213,1,125.999996154785,2|0,3:2|0:0,0:0:0:0:
463,217,152933,2,0,P|422:221|375:227,1,83.9999974365235,10|0,2:0|0:0,0:0:0:0:
314,298,153282,5,2,3:2:0:0:
439,380,153457,1,2,3:2:0:0:
314,298,153631,2,0,P|268:295|239:323,1,83.9999974365235,10|2,2:0|2:0,0:0:0:0:
168,377,153980,5,2,3:2:0:0:
227,216,154155,1,2,2:0:0:0:
168,377,154329,2,0,P|122:380|93:352,1,83.9999974365235,10|2,2:0|2:0,0:0:0:0:
30,230,154678,5,2,3:2:0:0:
156,291,154852,1,2,3:2:0:0:
24,222,155027,5,10,2:0:0:0:
150,283,155201,1,2,3:2:0:0:
109,105,155375,5,6,3:2:0:0:
104,113,155550,2,0,L|114:200,1,83.9999974365235,2|10,2:0|2:0,0:0:0:0:
205,146,155898,6,0,B|246:138|263:106|263:106|312:99|356:123,1,167.999994873047,2|0,2:0|3:2,0:0:0:0:
359,131,156422,1,10,2:0:0:0:
512,198,156596,6,0,P|463:185|414:283,1,167.999994873047,2|0,2:0|0:0,0:0:0:0:
415,279,157119,1,10,2:0:0:0:
271,374,157294,6,0,B|291:254|291:254|278:280|250:295,1,167.999994873047,2|0,2:0|3:2,0:0:0:0:
182,340,157817,2,0,P|135:346|97:325,1,83.9999974365235,10|2,2:0|2:0,0:0:0:0:
0,200,158166,6,0,L|91:190,1,83.9999974365235,0|0,3:2|0:0,0:0:0:0:
221,32,158515,1,10,2:0:0:0:
133,61,158689,2,0,P|151:101|270:107,1,167.999994873047,2|2,2:0|3:2,0:0:0:0:
342,61,159212,2,0,B|378:42|378:42|425:55,1,83.9999974365235,10|2,2:0|3:2,0:0:0:0:
511,197,159561,5,10,2:0:0:0:
427,250,159736,1,10,2:0:0:0:
427,250,159910,1,2,3:2:0:0:
501,317,160085,5,10,2:0:0:0:
333,238,160259,1,2,3:2:0:0:
504,182,160433,5,10,2:0:0:0:
363,327,160608,1,10,2:0:0:0:
360,339,160695,1,10,2:0:0:0:
357,350,160782,1,10,2:0:0:0:
234,186,160957,6,0,P|241:237|246:293,1,83.9999974365235,6|2,3:2|2:0,0:0:0:0:
294,111,161305,1,10,2:0:0:0:
93,136,161480,6,0,P|86:187|81:243,1,83.9999974365235,2|2,2:0|3:2,0:0:0:0:
33,61,161828,1,2,3:2:0:0:
202,120,162003,5,10,2:0:0:0:
320,13,162178,1,2,2:0:0:0:
208,132,162352,1,2,3:2:0:0:
412,218,162526,5,2,2:0:0:0:
294,111,162701,1,10,2:0:0:0:
406,230,162875,1,2,2:0:0:0:
478,145,163050,6,0,P|483:98|493:53,1,83.9999974365235,2|2,3:2|3:2,0:0:0:0:
412,218,163398,1,10,2:0:0:0:
276,210,163573,6,0,P|271:163|261:118,1,83.9999974365235,2|2,2:0|3:2,0:0:0:0:
342,283,163921,1,2,2:0:0:0:
173,294,164096,5,10,2:0:0:0:
283,361,164271,1,2,2:0:0:0:
177,284,164445,1,2,3:2:0:0:
4,222,164619,5,2,3:2:0:0:
114,155,164794,1,10,2:0:0:0:
8,232,164968,1,2,2:0:0:0:
85,291,165143,6,0,P|90:336|93:380,1,83.9999974365235,2|2,3:2|2:0,0:0:0:0:
8,232,165492,1,10,2:0:0:0:
167,154,165666,6,0,P|162:199|159:243,1,83.9999974365235,2|2,2:0|3:2,0:0:0:0:
246,99,166015,1,2,3:2:0:0:
357,232,166189,1,10,2:0:0:0:
436,123,166364,1,2,3:2:0:0:
479,298,166538,6,0,B|423:290|405:315|397:337|323:322,1,151.999995941162,14|2,2:0|3:2,0:0:0:0:
127,229,167061,2,0,P|179:215|240:287,1,151.999995941162,14|0,2:0|3:2,0:0:0:0:
143,347,167585,1,10,2:0:0:0:
141,340,167672,1,8,2:0:0:0:
143,333,167759,1,10,2:0:0:0:
277,175,167933,6,0,B|346:182|346:182|352:188|352:188|427:196,1,151.999995941162,14|2,2:0|3:2,0:0:0:0:
493,14,168457,2,0,P|455:4|398:88,1,151.999995941162,14|2,2:0|3:2,0:0:0:0:
502,118,168980,1,10,2:0:0:0:
507,116,169067,1,8,2:0:0:0:
512,114,169154,1,10,2:0:0:0:
441,270,169329,6,0,P|434:230|424:190,1,75.9999979705811,2|2,3:2|3:2,0:0:0:0:
345,384,169678,2,0,P|351:346|360:309,1,75.9999979705811,10|2,2:0|2:0,0:0:0:0:
191,329,170026,2,0,P|227:316|278:334,1,75.9999979705811,10|2,2:0|3:2,0:0:0:0:
58,245,170375,2,0,L|137:255,1,75.9999979705811,10|2,2:0|3:2,0:0:0:0:
281,188,170724,5,10,2:0:0:0:
176,32,170898,1,10,2:0:0:0:
272,0,171073,5,2,3:2:0:0:
156,152,171247,1,14,2:0:0:0:
349,265,171422,5,0,3:2:0:0:
380,166,171596,1,4,3:0:0:0:
281,188,171771,1,12,2:0:0:0:
278,202,171858,1,12,2:0:0:0:
275,216,171945,1,12,2:0:0:0:
450,244,172119,5,2,2:0:0:0:
462,0,177701,6,0,P|451:42|440:126,1,120.000004577637,2|2,3:2|3:2,0:0:0:0:
440,117,178398,2,0,P|466:110|500:107,1,60.0000022888184,0|0,3:2|0:0,0:0:0:0:
393,197,178747,2,0,P|363:194|334:186,1,60.0000022888184,0|2,3:2|2:0,0:0:0:0:
233,305,179096,6,0,P|263:280|348:293,1,120.000004577637,2|2,3:2|3:2,0:0:0:0:
339,286,179794,2,0,P|343:318|349:353,1,60.0000022888184,0|2,3:2|2:0,0:0:0:0:
441,307,180143,2,0,P|437:275|431:240,1,60.0000022888184,2|2,3:2|2:0,0:0:0:0:
329,123,180492,6,0,B|254:111|283:144|208:131,1,120.000004577637,2|0,3:2|3:2,0:0:0:0:
201,128,181189,1,2,3:2:0:0:
128,88,181364,1,2,2:0:0:0:
90,160,181538,2,0,P|98:200|102:228,1,60.0000022888184,2|2,3:2|2:0,0:0:0:0:
29,381,181887,5,14,2:0:0:0:
179,256,182061,1,10,2:0:0:0:
18,291,182236,2,0,L|100:308,1,75.9999979705811,2|14,3:2|2:0,0:0:0:0:
319,259,182585,5,0,3:2:0:0:
177,160,182759,1,4,3:0:0:0:
223,350,182933,1,12,2:0:0:0:
226,357,183021,1,12,2:0:0:0:
229,364,183108,1,12,2:0:0:0:
417,266,183282,6,0,L|425:329,1,60.0000022888184,14|2,2:0|2:0,0:0:0:0:
494,198,183631,5,10,2:0:0:0:
508,111,183805,1,2,3:2:0:0:
392,13,183980,5,10,2:0:0:0:
408,140,184154,1,2,3:2:0:0:
280,277,184329,5,10,2:0:0:0:
302,128,184503,1,10,2:0:0:0:
150,21,184678,6,0,P|130:-1|145:27,1,90.0000034332277,2|0,3:2|0:0,0:0:0:0:
156,34,185026,5,14,2:0:0:0:
302,128,185201,1,2,2:0:0:0:
118,133,185375,2,0,L|209:118,1,83.9999974365235,2|2,3:2|3:2,0:0:0:0:
354,15,185724,5,10,2:0:0:0:
209,127,185899,1,2,2:0:0:0:
409,108,186073,6,0,B|393:160|398:202|398:202|429:226|428:272,1,167.999994873047,2|8,3:2|2:0,0:0:0:0:
253,384,186596,1,2,2:0:0:0:
340,272,186771,1,2,3:2:0:0:
432,378,186945,2,0,L|340:364,1,83.9999974365235,2|8,3:2|2:0,0:0:0:0:
233,246,187294,1,2,2:0:0:0:
387,177,187469,6,0,P|341:184|297:167,1,83.9999974365235,6|2,3:2|2:0,0:0:0:0:
150,258,187817,2,0,L|240:245,1,83.9999974365235,10|0,2:0|0:0,0:0:0:0:
84,185,188166,1,2,3:2:0:0:
243,250,188341,1,2,3:2:0:0:
64,300,188515,5,10,2:0:0:0:
219,133,188689,1,2,2:0:0:0:
8,140,188864,6,0,P|-7:182|13:230,1,83.9999974365235,2|0,3:2|0:0,0:0:0:0:
56,291,189125,1,2,2:0:0:0:
63,300,189213,2,0,L|55:384,1,83.9999974365235,8|2,2:0|2:0,0:0:0:0:
243,250,189562,5,0,3:2:0:0:
84,185,189736,1,0,3:2:0:0:
252,244,189910,5,8,2:0:0:0:
153,88,190085,1,2,2:0:0:0:
205,332,190259,6,0,P|244:344|285:337,1,83.9999974365235,6|0,3:2|0:0,0:0:0:0:
147,255,190608,1,8,2:0:0:0:
292,330,190782,6,0,L|309:153,1,167.999994873047,2|0,2:0|3:2,0:0:0:0:
404,119,191306,2,0,P|413:165|404:204,1,83.9999974365235,8|2,2:0|3:2,0:0:0:0:
288,26,191655,6,0,B|399:32|350:-2|458:6,1,167.999994873047,6|10,3:2|2:0,0:0:0:0:
308,162,192178,2,0,L|204:149,1,83.9999974365235,2|0,2:0|3:2,0:0:0:0:
136,234,192527,1,2,3:2:0:0:
258,371,192701,2,0,P|261:332|251:281,1,83.9999974365235,10|2,2:0|3:2,0:0:0:0:
129,226,193050,6,0,P|68:238|5:163,1,167.999994873047,6|8,3:2|2:0,0:0:0:0:
70,26,193573,1,2,2:0:0:0:
185,127,193748,2,0,L|93:116,1,83.9999974365235,2|2,3:2|3:2,0:0:0:0:
341,49,194096,2,0,L|249:60,1,83.9999974365235,10|2,2:0|3:2,0:0:0:0:
413,133,194445,5,14,2:0:0:0:
247,53,194620,1,10,2:0:0:0:
421,130,194794,1,2,3:2:0:0:
281,232,194968,6,0,L|290:142,1,83.9999974365235,10|0,2:0|3:2,0:0:0:0:
191,179,195317,1,0,3:2:0:0:
337,313,195492,1,10,2:0:0:0:
343,310,195579,1,8,2:0:0:0:
349,307,195666,1,10,2:0:0:0:
240,309,195840,6,0,P|192:311|152:337,1,83.9999974365235,6|2,3:2|2:0,0:0:0:0:
16,154,196189,1,10,2:0:0:0:
174,225,196364,1,2,2:0:0:0:
77,383,196538,2,0,L|63:300,1,83.9999974365235,0|0,3:2|3:2,0:0:0:0:
132,133,196887,1,10,2:0:0:0:
57,293,197062,1,2,2:0:0:0:
212,211,197236,6,0,P|246:204|297:215,1,83.9999974365235,2|2,3:2|2:0,0:0:0:0:
407,384,197585,1,10,2:0:0:0:
251,297,197759,1,2,2:0:0:0:
393,183,197934,2,0,L|382:266,1,83.9999974365235,0|2,3:2|3:2,0:0:0:0:
255,383,198282,1,10,2:0:0:0:
388,275,198457,1,2,2:0:0:0:
249,120,198631,6,0,P|213:103|167:107,1,83.9999974365235,6|0,3:2|0:0,0:0:0:0:
310,196,198980,2,0,L|392:183,1,83.9999974365235,10|0,2:0|0:0,0:0:0:0:
486,22,199329,2,0,L|404:9,1,83.9999974365235,2|0,3:2|3:2,0:0:0:0:
223,87,199678,5,10,2:0:0:0:
394,16,199852,1,2,2:0:0:0:
216,79,200026,5,2,3:2:0:0:
392,182,200201,1,2,2:0:0:0:
282,241,200375,5,10,2:0:0:0:
497,126,200550,2,0,L|493:210,1,83.9999974365235,2|0,2:0|3:2,0:0:0:0:
410,344,200898,5,2,3:2:0:0:
277,157,201073,2,0,L|281:240,1,83.9999974365235,10|2,2:0|2:0,0:0:0:0:
128,317,201422,6,0,P|168:337|213:325,1,83.9999974365235,6|0,3:2|0:0,0:0:0:0:
291,247,201771,1,2,3:2:0:0:
95,194,201945,6,0,P|143:185|183:215,1,83.9999974365235,14|0,2:0|3:2,0:0:0:0:
315,366,202294,1,2,2:0:0:0:
128,317,202469,1,8,2:0:0:0:
127,309,202556,1,8,2:0:0:0:
126,301,202643,1,10,2:0:0:0:
291,247,202817,6,0,L|380:257,1,83.9999974365235,6|2,3:2|2:0,0:0:0:0:
221,308,203166,1,2,3:2:0:0:
349,162,203341,6,0,L|438:152,1,83.9999974365235,14|2,2:0|3:2,0:0:0:0:
282,97,203689,1,2,2:0:0:0:
428,0,203864,1,10,2:0:0:0:
426,8,203951,1,8,2:0:0:0:
424,16,204038,1,10,2:0:0:0:
275,102,204213,6,0,L|186:92,1,83.9999974365235,6|0,3:2|3:2,0:0:0:0:
432,152,204562,2,0,L|349:161,1,83.9999974365235,10|0,2:0|3:2,0:0:0:0:
490,307,204910,2,0,P|497:261|475:217,1,83.9999974365235,10|2,2:0|3:2,0:0:0:0:
350,384,205259,2,0,P|343:338|365:294,1,83.9999974365235,10|2,2:0|3:2,0:0:0:0:
208,212,205608,5,14,2:0:0:0:
364,299,205782,1,10,2:0:0:0:
201,217,205957,5,2,3:2:0:0:
373,293,206131,1,10,2:0:0:0:
179,318,206306,6,0,L|262:303,1,83.9999974365235,2|10,3:2|2:0,0:0:0:0:
407,193,206654,1,10,2:0:0:0:
401,191,206742,1,8,2:0:0:0:
395,189,206829,1,8,2:0:0:0:
210,44,207003,6,0,P|261:25|320:112,1,167.999994873047,14|0,2:0|3:2,0:0:0:0:
182,152,207526,2,0,B|65:138|129:175|12:160,1,167.999994873047,14|0,2:0|3:2,0:0:0:0:
146,269,208050,1,10,2:0:0:0:
149,263,208137,1,8,2:0:0:0:
147,257,208224,1,10,2:0:0:0:
257,383,208398,6,0,P|280:343|391:342,1,167.999994873047,14|2,2:0|3:2,0:0:0:0:
505,208,208922,2,0,B|501:173|466:158|466:158|425:177|364:183,1,167.999994873047,14|0,2:0|3:2,0:0:0:0:
265,89,209445,1,10,2:0:0:0:
262,82,209532,1,8,2:0:0:0:
263,75,209619,1,10,2:0:0:0:
394,0,209794,6,0,L|382:95,1,83.9999974365235,14|0,2:0|3:2,0:0:0:0:
273,158,210143,2,0,L|262:74,1,83.9999974365235,10|0,2:0|3:2,0:0:0:0:
142,6,210492,2,0,P|116:54|130:98,1,83.9999974365235,10|2,2:0|3:2,0:0:0:0:
37,197,210840,2,0,P|66:244|111:254,1,83.9999974365235,2|2,3:2|3:2,0:0:0:0:
192,203,212061,5,0,3:2:0:0:
187,384,212235,2,0,P|171:350|177:276,1,83.9999974365235,10|0,2:0|3:2,0:0:0:0:
203,207,212585,6,0,B|299:222|260:185|359:202,1,151.999995941162,6|8,3:2|2:0,0:0:0:0:
495,276,213107,2,0,L|483:359,1,75.9999979705811,2|2,0:0|3:2,0:0:0:0:
362,198,213456,1,2,3:2:0:0:
439,116,213630,2,0,P|482:112|517:98,1,75.9999979705811,10|2,2:0|2:0,0:0:0:0:
306,23,213980,6,0,P|241:13|182:88,1,151.999995941162,2|8,3:2|2:0,0:0:0:0:
58,213,214502,1,0,0:0:0:0:
26,116,214677,2,0,L|112:124,1,75.9999979705811,2|2,3:2|3:2,0:0:0:0:
193,321,215026,2,0,P|175:286|185:235,1,75.9999979705811,10|2,2:0|3:2,0:0:0:0:
321,139,215375,6,0,B|430:126|375:169|476:155,1,151.999995941162,6|8,3:2|2:0,0:0:0:0:
350,241,215898,1,2,2:0:0:0:
455,374,216073,2,0,L|445:297,1,75.9999979705811,2|2,3:2|3:2,0:0:0:0:
279,314,216421,2,0,P|240:318|205:332,1,75.9999979705811,10|2,2:0|2:0,0:0:0:0:
159,176,216770,6,0,P|120:188|41:120,2,151.999995941162,2|10|2,3:2|2:0|3:2,0:0:0:0:
290,61,217642,1,2,3:2:0:0:
133,83,217817,2,0,L|211:93,1,75.9999979705811,10|2,2:0|3:2,0:0:0:0:
373,92,218165,6,0,L|382:7,1,75.9999979705811,6|0,3:2|0:0,0:0:0:0:
302,146,218514,1,2,3:2:0:0:
391,250,218689,6,0,P|396:212|378:172,1,75.9999979705811,14|0,2:0|3:2,0:0:0:0:
290,61,219037,1,2,3:2:0:0:
455,116,219212,1,10,2:0:0:0:
461,114,219299,1,8,2:0:0:0:
467,112,219386,1,10,2:0:0:0:
302,146,219561,6,0,L|226:136,1,75.9999979705811,6|0,3:2|0:0,0:0:0:0:
373,92,219909,1,2,3:2:0:0:
250,228,220084,6,0,L|173:238,1,75.9999979705811,14|0,2:0|3:2,0:0:0:0:
324,291,220433,1,2,3:2:0:0:
158,384,220607,1,10,2:0:0:0:
160,378,220694,1,8,2:0:0:0:
162,372,220782,1,10,2:0:0:0:
330,285,220956,6,0,P|367:281|404:307,1,75.9999979705811,6|0,3:2|3:2,0:0:0:0:
512,182,221305,2,0,L|427:197,1,75.9999979705811,10|0,2:0|3:2,0:0:0:0:
241,164,221654,5,10,2:0:0:0:
370,62,221828,1,0,3:2:0:0:
235,162,222002,5,10,2:0:0:0:
377,64,222177,1,2,3:2:0:0:
291,17,222351,5,6,3:2:0:0:
462,93,222526,2,0,P|468:56|456:21,1,75.9999979705811,10|2,2:0|3:2,0:0:0:0:
311,212,222875,5,14,2:0:0:0:
377,64,223049,2,0,L|367:151,1,75.9999979705811,2|2,3:2|3:2,0:0:0:0:
507,231,223398,1,10,2:0:0:0:
505,224,223485,1,8,2:0:0:0:
503,217,223572,1,10,2:0:0:0:
386,326,223747,5,6,0:0:0:0:
256,192,223835,12,0,229329,0:0:0:0:
