osu file format v14

[General]
AudioFilename: audio.mp3
AudioLeadIn: 0
PreviewTime: 57265
Countdown: 0
SampleSet: Soft
StackLeniency: 0.4
Mode: 0
LetterboxInBreaks: 0
WidescreenStoryboard: 1

[Editor]
Bookmarks: 82817,149794,185026
DistanceSpacing: 0.8
BeatDivisor: 2
GridSize: 4
TimelineZoom: 1

[Metadata]
Title:Shitsuren Repeater
TitleUnicode:失恋リピーター
Artist:Takanon feat. sana
ArtistUnicode:タカノン feat. 鎖那
Creator:sanairrt
Version:Chihara's Normal
Source:
Tags:sanapri GUMI cover female 歌い手 utaite japanese jpop pop j-pop kuse KuBsNia_ZhoYL_ misure arronchu1207 eclipselotus chihara minori time capsule airiesu Mujina
BeatmapID:3024609
BeatmapSetID:1429397

[Difficulty]
HPDrainRate:4
CircleSize:3.2
OverallDifficulty:4
ApproachRate:5
SliderMultiplier:1.2
SliderTickRate:1

[Events]
//Background and Video events
0,0,"aw.jpg",0,0
//Break Periods
2,16040,22315
2,83017,91385
2,172319,176501
//Storyboard Layer 0 (Background)
//Storyboard Layer 1 (Fail)
//Storyboard Layer 2 (Pass)
//Storyboard Layer 3 (Foreground)
//Storyboard Layer 4 (Overlay)
//Storyboard Sound Samples

[TimingPoints]
492,348.837209302326,4,2,1,60,1,0
1364,-111.111111111111,4,2,1,60,0,0
1887,-111.111111111111,4,2,1,50,0,0
13050,-111.111111111111,4,2,1,50,0,0
15840,-111.111111111111,4,2,1,40,0,0
23515,-111.111111111111,4,2,1,60,0,0
35375,-125,4,2,1,55,0,0
52119,-125,4,2,1,60,0,0
54910,-125,4,2,1,70,0,0
57701,-111.111111111111,4,2,1,80,0,1
82817,-111.111111111111,4,2,1,60,0,0
105143,-125,4,2,1,55,0,0
121887,-125,4,2,1,60,0,0
124678,-125,4,2,1,70,0,0
126596,-125,4,2,1,50,0,0
126945,-125,4,2,1,70,0,0
127468,-111.111111111111,4,2,1,80,0,1
149794,-111.111111111111,4,2,1,70,0,0
160957,-111.111111111111,4,2,1,70,0,1
166538,-111.111111111111,4,2,1,75,0,1
172119,-111.111111111111,4,2,1,75,0,0
177701,-111.111111111111,4,2,1,50,0,0
178572,-111.111111111111,4,2,1,50,0,0
178747,-111.111111111111,4,2,1,50,0,0
180840,-111.111111111111,4,2,1,50,0,0
181189,-111.111111111111,4,2,1,50,0,0
181887,-111.111111111111,4,2,1,70,0,0
183282,-111.111111111111,4,2,1,75,0,0
184678,-111.111111111111,4,2,1,80,0,0
185026,-111.111111111111,4,2,1,85,0,1
207002,-111.111111111111,4,2,1,80,0,1
211189,-111.111111111111,4,2,1,60,0,0
212235,-111.111111111111,4,2,1,80,0,0
212585,-111.111111111111,4,2,1,70,0,0
224445,-111.111111111111,4,2,1,60,0,0
225143,-111.111111111111,4,2,1,50,0,0
225840,-111.111111111111,4,2,1,40,0,0
226538,-111.111111111111,4,2,1,30,0,0
227236,-111.111111111111,4,2,1,20,0,0
227933,-111.111111111111,4,2,1,10,0,0
228631,-111.111111111111,4,2,1,5,0,0

[Colours]
Combo1 : 233,159,22
Combo2 : 255,0,0
Combo3 : 0,191,0

[HitObjects]
22,294,1364,6,0,L|92:285,1,53.9999983520508,0|10,3:2|2:0,0:0:0:0:
145,235,1887,6,0,P|179:273|231:270,1,107.999996704102,6|8,3:2|2:0,0:0:0:0:
283,339,2585,2,0,L|355:333,1,53.9999983520508,2|2,3:2|3:2,0:0:0:0:
363,301,2933,2,0,L|416:305,1,53.9999983520508,10|2,2:0|2:0,0:0:0:0:
457,319,3282,2,0,P|467:267|481:214,1,107.999996704102,2|8,3:2|2:0,0:0:0:0:
446,135,3980,1,2,3:2:0:0:
496,65,4329,1,10,2:0:0:0:
427,12,4678,6,0,L|319:24,1,107.999996704102,6|8,3:2|2:0,0:0:0:0:
290,56,5201,1,2,2:0:0:0:
290,56,5375,2,0,P|263:49|237:45,1,53.9999983520508,2|2,3:2|3:2,0:0:0:0:
196,29,5724,2,0,P|169:32|143:39,1,53.9999983520508,10|2,2:0|2:0,0:0:0:0:
100,34,6073,2,0,P|85:86|75:139,1,107.999996704102,2|10,3:2|2:0,0:0:0:0:
53,223,6771,2,0,L|0:227,2,53.9999983520508,2|2|10,3:2|3:2|2:0,0:0:0:0:
112,285,7468,6,0,B|141:277|172:291|172:291|200:308|240:297,1,107.999996704102,6|2,3:2|3:2,0:0:0:0:
257,316,7992,2,0,P|291:277|343:280,1,107.999996704102,14|2,2:0|3:2,0:0:0:0:
386,290,8515,1,10,2:0:0:0:
458,242,8864,2,0,L|445:134,1,107.999996704102,6|2,3:2|3:2,0:0:0:0:
413,105,9387,2,0,B|384:97|353:111|353:111|325:128|285:117,1,107.999996704102,14|2,2:0|3:2,0:0:0:0:
268,138,9910,2,0,L|214:133,1,53.9999983520508,10|10,2:0|2:0,0:0:0:0:
181,105,10259,5,6,3:2:0:0:
125,39,10608,1,10,2:0:0:0:
42,63,10957,2,0,P|3:97|6:149,1,107.999996704102,10|10,2:0|2:0,0:0:0:0:
3,236,11655,1,6,3:2:0:0:
3,236,11829,2,0,P|18:288|28:341,1,107.999996704102,10|14,2:0|2:0,0:0:0:0:
65,363,12352,2,0,L|172:350,1,107.999996704102,2|10,3:2|2:0,0:0:0:0:
239,295,13050,5,2,2:0:0:0:
256,192,13224,12,0,15840,0:0:0:0:
306,360,23515,6,0,L|359:364,2,53.9999983520508,2|10|8,3:2|2:0|2:0,0:0:0:0:
236,309,24212,6,0,B|207:301|176:315|176:315|148:332|108:321,1,107.999996704102,6|8,3:2|2:0,0:0:0:0:
44,321,24910,2,0,P|6:287|9:235,1,107.999996704102,2|10,3:2|2:0,0:0:0:0:
3,190,25433,1,2,2:0:0:0:
3,190,25608,2,0,P|54:175|107:165,1,107.999996704102,0|8,3:2|2:0,0:0:0:0:
164,99,26305,2,0,L|217:103,1,53.9999983520508,2|2,3:2|3:2,0:0:0:0:
257,120,26654,1,8,2:0:0:0:
333,79,27003,6,0,P|385:75|421:112,1,107.999996704102,2|10,3:2|2:0,0:0:0:0:
461,189,27701,2,0,P|446:240|436:293,1,107.999996704102,0|10,3:2|2:0,0:0:0:0:
441,337,28224,1,2,2:0:0:0:
441,337,28398,2,0,L|333:324,1,107.999996704102,0|8,3:2|2:0,0:0:0:0:
251,297,29096,1,2,3:2:0:0:
189,357,29445,1,10,2:0:0:0:
110,319,29794,6,0,L|97:211,1,107.999996704102,2|10,3:2|2:0,0:0:0:0:
81,126,30492,2,0,B|110:118|141:132|141:132|169:149|209:138,1,107.999996704102,0|10,3:2|2:0,0:0:0:0:
228,145,31015,1,2,2:0:0:0:
228,145,31189,2,0,P|266:111|263:59,1,107.999996704102,0|8,3:2|2:0,0:0:0:0:
196,1,31887,2,0,L|143:5,1,53.9999983520508,0|2,3:2|3:2,0:0:0:0:
101,20,32236,1,8,2:0:0:0:
27,66,32585,6,0,P|12:117|2:170,1,107.999996704102,2|10,3:2|2:0,0:0:0:0:
6,213,33108,2,0,L|114:226,1,107.999996704102,2|2,2:0|3:2,0:0:0:0:
155,215,33631,1,10,2:0:0:0:
220,271,33980,2,0,L|224:324,1,53.9999983520508,2|2,3:2|2:0,0:0:0:0:
242,363,34329,1,10,2:0:0:0:
313,313,34678,2,0,L|366:309,1,53.9999983520508,0|4,3:2|3:0,0:0:0:0:
396,277,35026,2,0,L|449:281,1,53.9999983520508,8|0,2:0|3:2,0:0:0:0:
487,302,35375,6,0,L|497:205,1,96,6|2,3:2|2:0,0:0:0:0:
506,164,35898,1,0,3:2:0:0:
506,164,36073,2,0,L|496:67,1,96,2|10,3:2|2:0,0:0:0:0:
430,12,36771,2,0,B|383:7|358:33|358:33|319:55|273:36,1,144,2|0,3:2|3:2,0:0:0:0:
269,77,37468,1,2,3:2:0:0:
200,24,37817,1,10,2:0:0:0:
135,82,38166,6,0,P|88:79|50:107,1,96,2|0,3:2|0:0,0:0:0:0:
8,118,38689,1,2,3:2:0:0:
8,118,38864,2,0,L|17:213,1,96,2|10,3:2|2:0,0:0:0:0:
4,299,39561,2,0,P|76:307|147:318,1,144,2|0,3:2|3:2,0:0:0:0:
187,303,40259,1,2,3:2:0:0:
257,352,40608,1,10,2:0:0:0:
336,317,40957,6,0,L|345:222,1,96,2|2,3:2|2:0,0:0:0:0:
381,198,41480,1,2,3:2:0:0:
381,198,41654,2,0,P|384:151|356:113,1,96,0|10,3:2|2:0,0:0:0:0:
337,29,42352,2,0,P|290:26|252:54,1,96,2|2,3:2|2:0,0:0:0:0:
213,72,42875,1,0,3:2:0:0:
213,72,43050,2,0,P|166:75|128:47,1,96,2|10,3:2|2:0,0:0:0:0:
44,71,43747,6,0,P|31:117|21:163,1,96,2|2,3:2|2:0,0:0:0:0:
5,204,44271,1,2,3:2:0:0:
5,204,44445,2,0,P|18:250|28:296,1,96,2|10,3:2|2:0,0:0:0:0:
97,349,45143,2,0,L|192:340,1,96,2|2,3:2|2:0,0:0:0:0:
219,306,45666,1,8,2:0:0:0:
295,345,46015,2,0,L|342:348,1,48,10|10,2:0|2:0,0:0:0:0:
428,334,46538,6,0,P|438:287|451:241,1,96,6|2,3:2|2:0,0:0:0:0:
479,207,47061,1,0,3:2:0:0:
479,207,47236,2,0,P|432:210|394:182,1,96,2|10,3:2|2:0,0:0:0:0:
310,160,47933,2,0,B|268:169|241:185|241:185|213:172|173:165,1,144,2|0,3:2|3:2,0:0:0:0:
131,173,48631,1,2,3:2:0:0:
74,107,48980,1,10,2:0:0:0:
119,33,49329,6,0,L|214:42,1,96,2|2,3:2|2:0,0:0:0:0:
251,65,49852,1,0,3:2:0:0:
251,65,50026,2,0,P|288:37|335:40,1,96,2|10,3:2|2:0,0:0:0:0:
422,30,50724,2,0,P|435:76|445:122,1,96,2|2,3:2|2:0,0:0:0:0:
490,196,51422,2,0,L|487:243,1,48,2|8,3:2|2:0,0:0:0:0:
494,286,51771,1,10,2:0:0:0:
420,347,52119,6,0,L|325:338,1,96,6|10,3:2|2:0,0:0:0:0:
295,305,52643,1,2,2:0:0:0:
295,305,52817,2,0,P|257:332|210:329,1,96,0|10,3:2|2:0,0:0:0:0:
127,359,53515,2,0,P|116:312|103:266,1,96,2|10,3:2|2:0,0:0:0:0:
61,253,54038,1,2,2:0:0:0:
61,253,54212,2,0,L|70:158,1,96,0|10,3:2|2:0,0:0:0:0:
35,77,54910,5,6,3:2:0:0:
96,16,55259,1,10,2:0:0:0:
161,75,55608,2,0,P|207:85|253:98,1,96,10|10,2:0|2:0,0:0:0:0:
338,82,56305,2,0,L|348:130,1,48,6|10,3:2|2:0,0:0:0:0:
385,150,56654,1,2,3:2:0:0:
385,150,56829,2,0,P|371:196|361:242,1,96,10|8,2:0|2:0,0:0:0:0:
371,284,57352,1,10,2:0:0:0:
289,313,57701,6,0,P|255:351|203:348,1,107.999996704102,6|8,3:2|2:0,0:0:0:0:
115,356,58399,2,0,L|43:350,1,53.9999983520508,2|2,3:2|3:2,0:0:0:0:
18,352,58747,2,0,L|13:298,1,53.9999983520508,10|2,2:0|2:0,0:0:0:0:
1,256,59096,2,0,P|10:202|24:150,1,107.999996704102,2|8,3:2|2:0,0:0:0:0:
18,107,59619,1,2,2:0:0:0:
76,43,59968,1,2,3:2:0:0:
152,85,60317,5,2,2:0:0:0:
152,85,60492,2,0,L|260:73,1,107.999996704102,6|10,3:2|2:0,0:0:0:0:
296,41,61015,1,2,2:0:0:0:
296,41,61189,2,0,L|349:45,1,53.9999983520508,2|2,3:2|3:2,0:0:0:0:
384,33,61538,1,10,2:0:0:0:
437,101,61887,2,0,P|476:135|472:187,1,107.999996704102,2|8,3:2|2:0,0:0:0:0:
453,272,62585,2,0,L|506:276,2,53.9999983520508,0|2|10,3:2|3:2|2:0,0:0:0:0:
388,329,63282,6,0,B|359:321|328:335|328:335|300:352|260:341,1,107.999996704102,6|10,3:2|2:0,0:0:0:0:
241,354,63805,2,0,P|206:314|154:318,1,107.999996704102,2|0,2:0|3:2,0:0:0:0:
120,344,64329,1,8,2:0:0:0:
53,288,64678,2,0,P|63:234|77:182,1,107.999996704102,6|10,3:2|2:0,0:0:0:0:
110,154,65201,2,0,P|144:193|196:189,1,107.999996704102,2|2,2:0|3:2,0:0:0:0:
237,204,65724,2,0,L|290:199,1,53.9999983520508,10|2,2:0|3:2,0:0:0:0:
325,225,66073,5,6,3:2:0:0:
383,161,66422,1,8,2:0:0:0:
340,85,66771,2,0,L|232:73,1,107.999996704102,2|10,3:2|2:0,0:0:0:0:
161,23,67468,2,0,L|107:27,1,53.9999983520508,14|10,2:0|2:0,0:0:0:0:
63,28,67817,1,2,3:2:0:0:
63,28,67992,2,0,P|23:62|27:114,1,107.999996704102,10|0,2:0|3:2,0:0:0:0:
14,155,68515,1,10,2:0:0:0:
52,232,68864,6,0,B|81:224|112:238|112:238|140:255|180:244,1,107.999996704102,6|8,3:2|2:0,0:0:0:0:
181,283,69387,2,0,L|289:295,1,107.999996704102,2|2,2:0|3:2,0:0:0:0:
316,328,69910,1,10,2:0:0:0:
397,298,70259,2,0,P|407:244|421:192,1,107.999996704102,2|8,3:2|2:0,0:0:0:0:
489,138,70957,2,0,L|484:84,1,53.9999983520508,2|2,3:2|3:2,0:0:0:0:
465,47,71305,2,0,L|411:42,1,53.9999983520508,10|2,2:0|3:2,0:0:0:0:
371,25,71654,5,6,3:2:0:0:
308,85,72003,1,10,2:0:0:0:
224,62,72352,2,0,L|219:8,2,53.9999983520508,2|2|10,3:2|3:2|2:0,0:0:0:0:
207,101,72875,1,2,2:0:0:0:
207,101,73050,2,0,B|178:93|147:107|147:107|119:124|79:113,1,107.999996704102,2|10,3:2|2:0,0:0:0:0:
43,180,73747,1,2,3:2:0:0:
83,256,74096,1,10,2:0:0:0:
59,339,74445,6,0,L|167:327,1,107.999996704102,6|2,3:2|3:2,0:0:0:0:
208,315,74968,2,0,P|261:325|313:339,1,107.999996704102,14|2,2:0|2:0,0:0:0:0:
343,370,75492,1,8,2:0:0:0:
411,318,75840,2,0,P|400:264|386:212,1,107.999996704102,6|2,3:2|3:2,0:0:0:0:
425,192,76364,2,0,P|435:138|449:86,1,107.999996704102,14|2,2:0|2:0,0:0:0:0:
424,51,76887,1,10,2:0:0:0:
343,19,77236,6,0,P|290:15|256:54,1,107.999996704102,6|10,3:2|2:0,0:0:0:0:
207,126,77933,1,10,2:0:0:0:
274,180,78282,1,10,2:0:0:0:
250,263,78631,2,0,L|196:267,2,53.9999983520508,14|10|2,2:0|2:0|3:2,0:0:0:0:
279,301,79154,1,14,2:0:0:0:
279,301,79329,2,0,B|308:293|339:307|339:307|367:324|407:313,1,107.999996704102,2|10,3:2|2:0,0:0:0:0:
460,278,80026,6,0,P|463:225|424:191,1,107.999996704102,6|2,3:2|3:2,0:0:0:0:
406,151,80550,2,0,L|298:163,1,107.999996704102,10|2,2:0|2:0,0:0:0:0:
257,148,81073,2,0,P|222:187|170:183,1,107.999996704102,10|2,2:0|3:2,0:0:0:0:
127,185,81596,1,14,2:0:0:0:
72,118,81945,1,10,2:0:0:0:
113,42,82294,1,2,3:2:0:0:
113,42,82468,2,0,L|166:46,1,53.9999983520508,10|10,2:0|2:0,0:0:0:0:
214,52,82817,5,6,3:2:0:0:
488,84,92585,6,0,L|492:31,2,53.9999983520508,2|2|2,2:0|2:0|2:0,0:0:0:0:
455,112,93108,1,2,2:0:0:0:
455,112,93282,2,0,L|459:165,1,53.9999983520508,2|10,3:2|2:0,0:0:0:0:
486,199,93631,1,8,2:0:0:0:
456,281,93980,6,0,B|427:273|396:287|396:287|368:304|328:293,1,107.999996704102,6|8,3:2|2:0,0:0:0:0:
270,328,94678,2,0,L|162:315,1,107.999996704102,2|10,3:2|2:0,0:0:0:0:
123,333,95201,1,2,2:0:0:0:
123,333,95375,2,0,P|113:280|99:228,1,107.999996704102,0|10,3:2|2:0,0:0:0:0:
41,162,96073,2,0,L|45:109,1,53.9999983520508,0|2,3:2|3:2,0:0:0:0:
66,70,96422,1,10,2:0:0:0:
136,20,96771,6,0,P|188:16|224:53,1,107.999996704102,2|10,3:2|2:0,0:0:0:0:
309,41,97468,2,0,P|345:78|397:74,1,107.999996704102,0|10,3:2|2:0,0:0:0:0:
440,69,97992,1,2,2:0:0:0:
440,69,98166,2,0,P|425:121|415:174,1,107.999996704102,0|8,3:2|2:0,0:0:0:0:
358,239,98864,1,2,3:2:0:0:
425,293,99212,1,10,2:0:0:0:
376,364,99561,6,0,L|268:377,1,107.999996704102,2|10,3:2|2:0,0:0:0:0:
185,351,100259,2,0,B|177:322|191:291|191:291|208:263|197:223,1,107.999996704102,0|10,3:2|2:0,0:0:0:0:
204,204,100782,1,2,2:0:0:0:
204,204,100956,2,0,P|170:166|118:169,1,107.999996704102,0|8,3:2|2:0,0:0:0:0:
31,183,101654,2,0,L|35:236,1,53.9999983520508,0|2,3:2|3:2,0:0:0:0:
16,275,102003,1,8,2:0:0:0:
80,334,102352,6,0,B|109:326|140:340|140:340|168:357|208:346,1,107.999996704102,2|10,3:2|2:0,0:0:0:0:
268,376,103050,1,0,3:2:0:0:
268,376,103224,2,0,P|278:322|292:271,1,107.999996704102,2|2,3:2|2:0,0:0:0:0:
320,237,103747,1,2,3:2:0:0:
279,160,104096,1,10,2:0:0:0:
204,204,104445,2,0,L|200:257,2,53.9999983520508,0|4|8,3:2|3:0|2:0,0:0:0:0:
151,134,105143,6,0,P|114:106|67:109,1,96,6|2,3:2|2:0,0:0:0:0:
24,120,105666,1,0,3:2:0:0:
24,120,105841,2,0,L|14:217,1,96,2|10,3:2|2:0,0:0:0:0:
19,301,106538,2,0,B|61:310|88:326|88:326|116:313|156:306,1,144,2|0,3:2|3:2,0:0:0:0:
188,278,107236,1,2,3:2:0:0:
240,347,107585,1,10,2:0:0:0:
326,345,107934,6,0,P|373:348|411:320,1,96,2|2,3:2|2:0,0:0:0:0:
452,307,108457,1,0,3:2:0:0:
452,307,108632,2,0,L|461:212,1,96,2|10,3:2|2:0,0:0:0:0:
466,125,109329,2,0,P|394:113|323:106,1,144,2|0,3:2|3:2,0:0:0:0:
296,72,110027,1,2,3:2:0:0:
224,26,110376,1,10,2:0:0:0:
154,76,110725,6,0,L|145:171,1,96,2|2,3:2|2:0,0:0:0:0:
108,194,111248,1,2,3:2:0:0:
108,194,111422,2,0,P|105:241|133:279,1,96,0|10,3:2|2:0,0:0:0:0:
175,355,112120,2,0,P|222:358|260:330,1,96,2|2,3:2|2:0,0:0:0:0:
332,284,112817,1,2,3:2:0:0:
388,348,113166,1,10,2:0:0:0:
467,313,113515,6,0,P|477:266|490:219,1,96,2|2,3:2|2:0,0:0:0:0:
508,180,114039,1,2,3:2:0:0:
508,180,114213,2,0,P|497:133|484:86,1,96,2|10,3:2|2:0,0:0:0:0:
415,35,114911,2,0,L|320:44,1,96,2|2,3:2|2:0,0:0:0:0:
293,78,115434,1,8,2:0:0:0:
217,39,115783,2,0,L|170:36,1,48,10|10,2:0|2:0,0:0:0:0:
84,51,116306,6,0,P|70:97|60:144,1,96,6|2,3:2|2:0,0:0:0:0:
33,177,116829,1,0,3:2:0:0:
33,177,117004,2,0,P|80:174|118:202,1,96,2|10,3:2|2:0,0:0:0:0:
202,224,117701,2,0,B|263:218|263:218|286:226|286:226|345:218,1,144,2|0,3:2|3:2,0:0:0:0:
386,211,118399,1,2,3:2:0:0:
440,278,118748,1,10,2:0:0:0:
393,351,119097,6,0,L|298:342,1,96,2|2,3:2|2:0,0:0:0:0:
261,319,119620,1,0,3:2:0:0:
261,319,119794,2,0,P|224:347|177:344,1,96,2|10,3:2|2:0,0:0:0:0:
90,353,120492,2,0,P|76:307|66:260,1,96,2|2,3:2|2:0,0:0:0:0:
17,188,121189,2,0,L|20:141,1,48,2|8,3:2|2:0,0:0:0:0:
13,98,121538,1,10,2:0:0:0:
85,35,121887,6,0,L|180:44,1,96,6|10,3:2|2:0,0:0:0:0:
216,68,122411,1,2,2:0:0:0:
216,68,122585,2,0,P|254:41|301:44,1,96,0|10,3:2|2:0,0:0:0:0:
386,25,123283,2,0,P|399:71|409:117,1,96,2|10,3:2|2:0,0:0:0:0:
448,135,123806,1,2,2:0:0:0:
448,135,123980,2,0,L|439:230,1,96,0|10,3:2|2:0,0:0:0:0:
472,310,124678,5,6,3:2:0:0:
410,370,125027,1,10,2:0:0:0:
345,313,125376,2,0,P|298:299|251:289,1,96,10|10,2:0|2:0,0:0:0:0:
183,342,126073,2,0,B|136:337|111:363|111:363|72:385|26:366,1,144,2|0,2:0|0:0,0:0:0:0:
2,298,126945,2,0,L|11:251,1,48,0|10,3:2|2:0,0:0:0:0:
6,164,127468,6,0,P|40:126|92:129,1,107.999996704102,6|8,3:2|2:0,0:0:0:0:
145,60,128167,2,0,L|217:54,1,53.9999983520508,2|2,3:2|3:2,0:0:0:0:
232,29,128515,2,0,L|285:33,1,53.9999983520508,10|2,2:0|2:0,0:0:0:0:
327,19,128864,2,0,P|362:57|414:53,1,107.999996704102,2|8,3:2|2:0,0:0:0:0:
457,51,129387,1,2,2:0:0:0:
510,118,129736,1,2,3:2:0:0:
464,191,130085,5,2,2:0:0:0:
464,191,130260,2,0,L|452:299,1,107.999996704102,6|10,3:2|2:0,0:0:0:0:
446,341,130783,1,2,2:0:0:0:
446,341,130957,2,0,L|393:345,1,53.9999983520508,2|2,3:2|3:2,0:0:0:0:
350,356,131306,1,10,2:0:0:0:
270,321,131655,2,0,P|235:281|183:286,1,107.999996704102,2|8,3:2|2:0,0:0:0:0:
109,330,132353,2,0,L|105:383,2,53.9999983520508,0|2|10,3:2|3:2|2:0,0:0:0:0:
37,281,133050,6,0,L|25:173,1,107.999996704102,6|10,3:2|2:0,0:0:0:0:
0,137,133573,2,0,P|52:123|105:113,1,107.999996704102,2|0,2:0|3:2,0:0:0:0:
135,81,134096,1,8,2:0:0:0:
185,151,134445,2,0,B|214:143|245:157|245:157|273:174|313:163,1,107.999996704102,6|10,3:2|2:0,0:0:0:0:
332,161,134968,2,0,P|342:107|356:55,1,107.999996704102,2|2,2:0|3:2,0:0:0:0:
394,35,135492,2,0,L|447:39,1,53.9999983520508,10|2,2:0|3:2,0:0:0:0:
482,64,135840,5,6,3:2:0:0:
511,145,136189,1,8,2:0:0:0:
473,222,136538,2,0,B|444:214|413:228|413:228|385:245|345:234,1,107.999996704102,2|10,3:2|2:0,0:0:0:0:
302,293,137236,2,0,L|248:289,1,53.9999983520508,14|10,2:0|2:0,0:0:0:0:
204,288,137585,1,2,3:2:0:0:
204,288,137760,2,0,P|164:254|168:202,1,107.999996704102,10|0,2:0|3:2,0:0:0:0:
153,161,138283,1,10,2:0:0:0:
193,84,138631,6,0,L|301:72,1,107.999996704102,6|10,3:2|2:0,0:0:0:0:
336,48,139154,2,0,P|369:87|421:84,1,107.999996704102,2|2,2:0|3:2,0:0:0:0:
462,102,139678,1,10,2:0:0:0:
509,173,140026,2,0,P|495:225|485:278,1,107.999996704102,2|8,3:2|2:0,0:0:0:0:
428,343,140724,2,0,L|375:347,1,53.9999983520508,2|2,3:2|3:2,0:0:0:0:
337,370,141073,2,0,L|284:366,1,53.9999983520508,10|2,2:0|3:2,0:0:0:0:
256,331,141422,6,0,B|227:323|196:337|196:337|168:354|128:343,1,107.999996704102,6|10,3:2|2:0,0:0:0:0:
68,324,142119,2,0,L|63:378,2,53.9999983520508,2|2|10,3:2|3:2|2:0,0:0:0:0:
38,292,142643,1,2,2:0:0:0:
38,292,142817,2,0,P|28:238|14:186,1,107.999996704102,2|10,3:2|2:0,0:0:0:0:
10,100,143515,1,2,3:2:0:0:
68,36,143864,1,10,2:0:0:0:
151,64,144212,6,0,P|184:103|236:100,1,107.999996704102,6|2,3:2|3:2,0:0:0:0:
259,62,144736,2,0,L|367:50,1,107.999996704102,14|2,2:0|2:0,0:0:0:0:
406,65,145259,1,8,2:0:0:0:
474,117,145608,2,0,L|469:171,1,53.9999983520508,6|2,3:2|2:0,0:0:0:0:
467,214,145957,2,0,L|413:219,1,53.9999983520508,2|14,3:2|2:0,0:0:0:0:
372,232,146305,2,0,P|337:192|286:196,1,107.999996704102,2|10,3:2|2:0,0:0:0:0:
199,194,147003,5,6,3:2:0:0:
154,268,147352,1,10,2:0:0:0:
197,342,147701,2,0,P|250:351|302:365,1,107.999996704102,10|10,2:0|2:0,0:0:0:0:
387,379,148398,1,14,2:0:0:0:
387,379,148573,2,0,P|396:325|410:273,1,107.999996704102,10|10,2:0|2:0,0:0:0:0:
446,249,149096,2,0,L|434:141,1,107.999996704102,2|10,3:2|2:0,0:0:0:0:
377,76,149794,6,0,B|329:81|329:81|319:93|319:93|272:97,1,107.999996704102,6|10,3:2|2:0,0:0:0:0:
234,112,150317,1,0,2:0:0:0:
173,50,150666,1,0,3:2:0:0:
89,70,151015,2,0,P|75:122|65:175,1,107.999996704102,2|0,2:0|0:0,0:0:0:0:
28,253,151712,1,0,0:0:0:0:
28,253,151887,2,0,B|58:256|82:269|82:269|140:244,1,107.999996704102,2|10,3:2|2:0,0:0:0:0:
184,315,152585,6,0,B|231:320|231:320|242:332|242:332|289:336,1,107.999996704102,2|10,3:2|2:0,0:0:0:0:
325,353,153108,1,0,0:0:0:0:
325,353,153282,2,0,B|345:305|345:305|333:282|329:251,1,107.999996704102,2|10,3:2|2:0,0:0:0:0:
401,203,153980,2,0,L|413:95,1,107.999996704102,2|10,3:2|2:0,0:0:0:0:
430,55,154503,1,2,2:0:0:0:
362,1,154852,1,2,3:2:0:0:
284,40,155201,5,2,3:2:0:0:
284,40,155375,2,0,L|230:45,1,53.9999983520508,6|2,3:2|2:0,0:0:0:0:
202,77,155724,1,10,2:0:0:0:
202,77,155898,2,0,B|173:69|142:83|142:83|114:100|74:89,1,107.999996704102,2|0,2:0|3:2,0:0:0:0:
59,70,156422,1,10,2:0:0:0:
3,136,156771,2,0,P|16:188|26:241,1,107.999996704102,0|10,0:0|2:0,0:0:0:0:
19,287,157294,1,2,2:0:0:0:
19,287,157468,2,0,B|48:279|79:293|79:293|107:310|147:299,1,107.999996704102,0|10,0:0|2:0,0:0:0:0:
209,288,158166,6,0,P|243:327|294:323,1,107.999996704102,0|10,0:0|2:0,0:0:0:0:
320,357,158689,2,0,L|374:352,1,53.9999983520508,2|0,2:0|3:2,0:0:0:0:
416,361,159038,1,2,3:2:0:0:
466,290,159387,1,2,3:2:0:0:
466,290,159561,2,0,L|461:236,1,53.9999983520508,10|10,2:0|2:0,0:0:0:0:
498,214,159910,2,0,L|503:160,1,53.9999983520508,2|10,3:2|2:0,0:0:0:0:
503,116,160259,2,0,P|469:77|418:81,1,107.999996704102,2|10,3:2|2:0,0:0:0:0:
337,45,160957,6,0,P|303:84|252:80,1,107.999996704102,6|10,3:2|2:0,0:0:0:0:
221,47,161480,2,0,B|177:50|177:50|167:62|167:62|119:67,1,107.999996704102,2|2,2:0|3:2,0:0:0:0:
81,45,162003,1,10,2:0:0:0:
16,102,162352,1,2,3:2:0:0:
67,179,162701,1,10,2:0:0:0:
67,179,162875,2,0,P|106:213|101:265,1,107.999996704102,2|2,2:0|3:2,0:0:0:0:
78,302,163398,1,10,2:0:0:0:
142,359,163747,6,0,L|196:354,1,53.9999983520508,2|2,3:2|2:0,0:0:0:0:
234,334,164096,1,10,2:0:0:0:
234,334,164271,2,0,B|278:337|278:337|288:349|288:349|336:354,1,107.999996704102,2|2,2:0|3:2,0:0:0:0:
372,330,164794,1,10,2:0:0:0:
438,274,165143,2,0,B|459:226|459:226|436:175,1,107.999996704102,2|10,3:2|2:0,0:0:0:0:
440,88,165840,2,0,L|386:83,1,53.9999983520508,2|2,3:2|3:2,0:0:0:0:
359,48,166189,1,10,2:0:0:0:
272,53,166538,6,0,B|243:45|212:59|212:59|184:76|144:65,1,107.999996704102,14|2,2:0|3:2,0:0:0:0:
124,65,167061,2,0,P|85:99|89:150,1,107.999996704102,14|0,2:0|3:2,0:0:0:0:
104,192,167585,1,10,2:0:0:0:
187,213,167933,2,0,P|226:247|222:298,1,107.999996704102,14|2,2:0|3:2,0:0:0:0:
194,333,168457,2,0,B|151:336|151:336|141:348|141:348|93:353,1,107.999996704102,14|2,2:0|3:2,0:0:0:0:
49,346,168980,1,10,2:0:0:0:
0,273,169329,6,0,L|12:165,1,107.999996704102,2|10,3:2|2:0,0:0:0:0:
8,122,169852,1,2,2:0:0:0:
8,122,170026,2,0,L|62:117,1,53.9999983520508,10|2,2:0|3:2,0:0:0:0:
94,89,170375,1,10,2:0:0:0:
161,35,170724,2,0,L|215:40,1,53.9999983520508,10|10,2:0|2:0,0:0:0:0:
252,56,171073,1,2,3:2:0:0:
252,56,171247,2,0,B|281:48|312:62|312:62|340:79|380:68,1,107.999996704102,14|4,2:0|3:0,0:0:0:0:
387,103,171771,1,12,2:0:0:0:
464,65,172119,5,2,2:0:0:0:
512,145,177701,6,0,P|499:197|489:250,1,107.999996704102,2|2,3:2|3:2,0:0:0:0:
456,279,178224,2,0,P|404:274|369:313,1,107.999996704102,2|0,2:0|0:0,0:0:0:0:
335,339,178747,1,0,3:2:0:0:
257,376,179096,2,0,P|205:363|152:353,1,107.999996704102,2|2,3:2|3:2,0:0:0:0:
109,364,179619,2,0,L|97:256,1,107.999996704102,2|2,2:0|2:0,0:0:0:0:
60,232,180143,1,2,3:2:0:0:
7,163,180492,1,2,3:2:0:0:
58,93,180840,1,0,0:0:0:0:
135,130,181189,6,0,B|164:122|195:136|195:136|223:153|263:142,1,107.999996704102,2|2,3:2|3:2,0:0:0:0:
318,111,181887,2,0,L|323:57,1,53.9999983520508,14|10,2:0|2:0,0:0:0:0:
406,34,182410,2,0,P|419:86|429:139,1,107.999996704102,14|4,2:0|3:0,0:0:0:0:
464,164,182933,1,12,2:0:0:0:
426,241,183282,2,0,P|391:280|339:275,1,107.999996704102,14|10,2:0|2:0,0:0:0:0:
300,293,183805,1,2,3:2:0:0:
300,293,183980,2,0,P|265:253|213:258,1,107.999996704102,10|10,2:0|2:0,0:0:0:0:
152,320,184678,1,2,3:2:0:0:
68,297,185026,6,0,P|62:270|60:243,1,53.9999983520508,14|2,2:0|2:0,0:0:0:0:
34,209,185375,2,0,P|35:182|41:155,1,53.9999983520508,2|2,3:2|3:2,0:0:0:0:
16,120,185723,1,10,2:0:0:0:
73,55,186073,2,0,P|127:65|179:79,1,107.999996704102,2|8,3:2|2:0,0:0:0:0:
218,62,186596,2,0,L|271:58,1,53.9999983520508,2|2,2:0|3:2,0:0:0:0:
306,83,186944,1,2,3:2:0:0:
376,32,187293,5,2,2:0:0:0:
376,32,187468,2,0,P|427:28|461:67,1,107.999996704102,6|10,3:2|2:0,0:0:0:0:
502,143,188165,2,0,L|506:196,1,53.9999983520508,2|2,3:2|3:2,0:0:0:0:
469,220,188515,2,0,L|465:273,1,53.9999983520508,10|2,2:0|2:0,0:0:0:0:
476,315,188864,2,0,P|424:310|389:349,1,107.999996704102,2|8,3:2|2:0,0:0:0:0:
352,371,189387,2,0,P|299:357|246:347,1,107.999996704102,2|0,2:0|3:2,0:0:0:0:
226,308,189910,1,8,2:0:0:0:
151,352,190259,6,0,B|122:344|91:358|91:358|63:375|23:364,1,107.999996704102,6|8,3:2|2:0,0:0:0:0:
23,331,190782,2,0,P|13:277|-1:225,1,107.999996704102,2|0,2:0|3:2,0:0:0:0:
16,186,191305,1,8,2:0:0:0:
3,100,191654,2,0,P|37:61|89:65,1,107.999996704102,6|10,3:2|2:0,0:0:0:0:
130,80,192178,2,0,P|164:119|216:115,1,107.999996704102,2|2,2:0|3:2,0:0:0:0:
247,85,192700,2,0,L|300:80,1,53.9999983520508,10|2,2:0|3:2,0:0:0:0:
340,97,193049,5,6,3:2:0:0:
396,162,193398,1,8,2:0:0:0:
351,236,193747,2,0,L|243:248,1,107.999996704102,2|10,3:2|2:0,0:0:0:0:
158,264,194444,2,0,L|154:318,1,53.9999983520508,14|10,2:0|2:0,0:0:0:0:
175,355,194793,1,2,3:2:0:0:
175,355,194968,2,0,L|283:367,1,107.999996704102,10|0,2:0|3:2,0:0:0:0:
318,343,195491,1,10,2:0:0:0:
403,330,195840,6,0,P|409:356|415:382,2,53.9999983520508,6|2|10,3:2|2:0|2:0,0:0:0:0:
427,294,196363,2,0,L|439:186,1,107.999996704102,2|0,2:0|3:2,0:0:0:0:
467,154,196886,1,10,2:0:0:0:
460,67,197236,2,0,P|486:60|512:54,2,53.9999983520508,2|2|10,3:2|2:0|2:0,0:0:0:0:
418,56,197759,2,0,P|365:42|312:32,1,107.999996704102,2|2,2:0|3:2,0:0:0:0:
271,20,198282,1,10,2:0:0:0:
186,36,198631,6,0,L|174:144,1,107.999996704102,6|10,3:2|2:0,0:0:0:0:
103,193,199329,1,2,3:2:0:0:
135,275,199678,2,0,L|139:329,1,53.9999983520508,10|2,2:0|2:0,0:0:0:0:
175,351,200026,2,0,B|204:343|235:357|235:357|263:374|303:363,1,107.999996704102,2|10,3:2|2:0,0:0:0:0:
316,343,200550,1,2,2:0:0:0:
398,368,200898,2,0,L|452:364,1,53.9999983520508,2|10,3:2|2:0,0:0:0:0:
498,291,201422,6,0,L|510:183,1,107.999996704102,6|2,3:2|3:2,0:0:0:0:
510,140,201945,2,0,P|476:101|424:105,1,107.999996704102,14|2,2:0|2:0,0:0:0:0:
368,38,202643,1,10,2:0:0:0:
368,38,202817,2,0,P|315:51|262:62,1,107.999996704102,6|2,3:2|3:2,0:0:0:0:
245,101,203340,2,0,P|192:87|139:77,1,107.999996704102,14|2,2:0|2:0,0:0:0:0:
100,94,203863,1,10,2:0:0:0:
32,147,204212,6,0,P|-6:181|-2:233,1,107.999996704102,6|10,3:2|2:0,0:0:0:0:
22,317,204909,1,10,2:0:0:0:
95,362,205258,1,10,2:0:0:0:
153,298,205608,2,0,L|157:244,2,53.9999983520508,14|10|2,2:0|2:0|3:2,0:0:0:0:
191,328,206131,1,10,2:0:0:0:
191,328,206305,2,0,B|220:320|251:334|251:334|279:351|319:340,1,107.999996704102,2|10,3:2|2:0,0:0:0:0:
369,299,207003,6,0,P|372:246|333:212,1,107.999996704102,14|0,2:0|3:2,0:0:0:0:
315,172,207526,2,0,L|207:184,1,107.999996704102,14|0,2:0|3:2,0:0:0:0:
175,213,208050,1,10,2:0:0:0:
89,207,208398,2,0,P|78:154|64:101,1,107.999996704102,14|2,2:0|3:2,0:0:0:0:
45,62,208921,1,14,2:0:0:0:
120,19,209271,2,0,L|173:23,1,53.9999983520508,0|10,3:2|2:0,0:0:0:0:
236,82,209794,5,14,2:0:0:0:
308,35,210143,2,0,L|361:31,1,53.9999983520508,10|0,2:0|3:2,0:0:0:0:
404,21,210492,2,0,L|438:61,1,53.9999983520508,10|2,2:0|3:2,0:0:0:0:
473,88,210840,2,0,L|469:141,1,53.9999983520508,2|2,3:2|3:2,0:0:0:0:
448,179,211189,1,2,2:0:0:0:
494,299,212061,6,0,L|440:294,1,53.9999983520508,0|10,3:2|2:0,0:0:0:0:
355,281,212585,6,0,P|321:319|269:316,1,107.999996704102,6|8,3:2|2:0,0:0:0:0:
229,335,213108,1,2,0:0:0:0:
149,301,213457,1,2,3:2:0:0:
149,301,213631,2,0,L|96:305,1,53.9999983520508,10|2,2:0|2:0,0:0:0:0:
55,319,213980,2,0,P|45:267|31:214,1,107.999996704102,2|8,3:2|2:0,0:0:0:0:
66,135,214678,1,2,3:2:0:0:
16,65,215027,1,10,2:0:0:0:
85,12,215376,6,0,L|193:24,1,107.999996704102,6|8,3:2|2:0,0:0:0:0:
222,56,215899,1,2,2:0:0:0:
316,29,216247,1,2,3:2:0:0:
316,29,216422,2,0,P|343:32|369:39,1,53.9999983520508,10|2,2:0|2:0,0:0:0:0:
412,34,216771,2,0,P|427:86|437:139,1,107.999996704102,2|10,3:2|2:0,0:0:0:0:
459,223,217469,2,0,L|512:227,2,53.9999983520508,2|2|10,3:2|3:2|2:0,0:0:0:0:
400,285,218166,6,0,B|371:277|340:291|340:291|312:308|272:297,1,107.999996704102,6|2,3:2|3:2,0:0:0:0:
255,316,218690,2,0,P|221:277|169:280,1,107.999996704102,14|2,2:0|3:2,0:0:0:0:
126,290,219213,1,10,2:0:0:0:
54,242,219562,2,0,L|67:134,1,107.999996704102,6|2,3:2|3:2,0:0:0:0:
99,105,220085,2,0,B|128:97|159:111|159:111|187:128|227:117,1,107.999996704102,14|2,2:0|3:2,0:0:0:0:
244,138,220608,2,0,L|298:133,1,53.9999983520508,10|10,2:0|2:0,0:0:0:0:
331,105,220957,5,6,3:2:0:0:
387,39,221306,1,10,2:0:0:0:
470,63,221655,2,0,P|509:97|506:149,1,107.999996704102,10|10,2:0|2:0,0:0:0:0:
509,236,222353,1,6,3:2:0:0:
509,236,222527,2,0,P|494:288|484:341,1,107.999996704102,10|14,2:0|2:0,0:0:0:0:
447,363,223050,2,0,L|340:350,1,107.999996704102,2|10,3:2|2:0,0:0:0:0:
273,295,223748,5,6,0:0:0:0:
256,192,223922,12,0,229329,0:0:0:0:
