osu file format v14

[General]
AudioFilename: audio.mp3
AudioLeadIn: 0
PreviewTime: 467
Countdown: 0
SampleSet: Soft
StackLeniency: 0.4
Mode: 0
LetterboxInBreaks: 0
WidescreenStoryboard: 1

[Editor]
Bookmarks: 62024,73827,87106,148089
DistanceSpacing: 0.2
BeatDivisor: 6
GridSize: 32
TimelineZoom: 1.4

[Metadata]
Title:Ketsudan no Toki
TitleUnicode:決断の時
Artist:Takanashi Yasuharu
ArtistUnicode:高梨康治
Creator:Mordred
Version:Yogurtt's Extra
Source:Caligula-カリギュラ-
Tags:the caligula effect anime original soundtrack ost instrumental yogurtt lasse eiri- ayyri classical gothic orchestral
BeatmapID:2734813
BeatmapSetID:1312098

[Difficulty]
HPDrainRate:7
CircleSize:4.5
OverallDifficulty:8
ApproachRate:8.5
SliderMultiplier:3
SliderTickRate:1

[Events]
//Background and Video events
0,0,"z-w-gu-thronef3handfixweb.jpg",0,0
//Break Periods
2,120799,127717
//Storyboard Layer 0 (Background)
//Storyboard Layer 1 (Fail)
//Storyboard Layer 2 (Pass)
//Storyboard Layer 3 (Foreground)
//Storyboard Layer 4 (Overlay)
//Storyboard Sound Samples

[TimingPoints]
599,491.803278688525,4,2,1,60,1,0
14369,-100,4,2,1,30,0,0
14861,-100,4,2,1,40,0,0
15353,-100,4,2,1,50,0,0
15844,-100,4,2,1,60,0,0
16254,-100,4,2,99,5,0,0
16336,-100,4,2,1,70,0,0
19287,-166.666666666667,4,2,1,70,0,0
20107,-166.666666666667,4,2,1,5,0,0
20271,-100,4,2,1,70,0,0
27156,-166.666666666667,4,2,1,70,0,0
27976,-166.666666666667,4,2,1,5,0,0
28139,-100,4,2,1,70,0,0
32074,-142.857142857143,4,2,1,60,0,0
33385,-111.111111111111,4,2,1,60,0,0
33713,-90.909090909091,4,2,1,60,0,0
34041,-142.857142857143,4,2,1,60,0,0
36992,-111.111111111111,4,2,1,70,0,0
37320,-90.9090909090908,4,2,1,70,0,0
37648,-76.9230769230769,4,2,1,70,0,0
37976,-111.111111111111,4,2,1,70,0,0
39943,-142.857142857143,4,2,1,70,0,0
41254,-111.111111111111,4,2,1,70,0,0
41582,-90.909090909091,4,2,1,70,0,0
41910,-142.857142857143,4,2,1,70,0,0
44861,-111.111111111111,4,2,1,60,0,0
45189,-90.9090909090908,4,2,1,60,0,0
45517,-76.9230769230769,4,2,1,60,0,0
45844,-111.111111111111,4,2,1,60,0,0
46828,-83.3333333333333,4,2,1,70,0,0
47074,-83.3333333333333,4,2,1,5,0,0
47156,-83.3333333333333,4,2,1,70,0,0
47402,-83.3333333333333,4,2,1,5,0,0
47484,-83.3333333333333,4,2,1,70,0,0
47730,-83.3333333333333,4,2,1,5,0,0
47812,-83.3333333333333,4,2,1,70,0,1
47894,-83.3333333333333,4,2,1,70,0,0
49287,-166.666666666667,4,2,1,70,0,0
49615,-83.3333333333333,4,2,1,70,0,0
53221,-166.666666666667,4,2,1,70,0,0
55680,-83.3333333333333,4,2,1,80,0,1
55762,-83.3333333333333,4,2,1,80,0,0
63549,-100,4,2,1,70,0,0
66500,-166.666666666667,4,2,1,70,0,0
67320,-166.666666666667,4,2,1,5,0,0
67484,-100,4,2,1,70,0,0
71418,-142.857142857143,4,2,1,60,0,0
72730,-111.111111111111,4,2,1,60,0,0
73058,-90.909090909091,4,2,1,60,0,0
73385,-142.857142857143,4,2,1,60,0,0
76336,-111.111111111111,4,2,1,60,0,0
76664,-90.9090909090908,4,2,1,60,0,0
76992,-76.9230769230769,4,2,1,60,0,0
77320,-111.111111111111,4,2,1,60,0,0
79287,-142.857142857143,4,2,1,60,0,0
80599,-111.111111111111,4,2,1,60,0,0
80926,-90.909090909091,4,2,1,60,0,0
81254,-142.857142857143,4,2,1,60,0,0
84205,-111.111111111111,4,2,1,60,0,0
84533,-90.9090909090908,4,2,1,60,0,0
84861,-76.9230769230769,4,2,1,60,0,0
85189,-111.111111111111,4,2,1,60,0,0
86172,-83.3333333333333,4,2,1,70,0,0
86418,-83.3333333333333,4,2,1,5,0,0
86500,-83.3333333333333,4,2,1,70,0,0
86746,-83.3333333333333,4,2,1,5,0,0
86828,-83.3333333333333,4,2,1,70,0,0
87074,-83.3333333333333,4,2,1,5,0,0
87156,-83.3333333333333,4,2,1,70,0,1
87238,-83.3333333333333,4,2,1,70,0,0
88631,-166.666666666667,4,2,1,70,0,0
95025,-83.3333333333333,4,2,1,80,0,1
95107,-83.3333333333333,4,2,1,80,0,0
102894,-100,4,2,1,70,0,0
105844,-166.666666666667,4,2,1,70,0,0
106664,-166.666666666667,4,2,1,5,0,0
106828,-100,4,2,1,70,0,0
110680,-83.3333333333333,4,2,1,5,0,0
110762,-83.3333333333333,4,2,1,60,0,0
111746,-83.3333333333333,4,2,1,70,0,0
112730,-83.3333333333333,4,2,1,80,0,0
113713,-83.3333333333333,4,2,1,90,0,0
114697,-83.3333333333333,4,2,1,70,0,0
121582,-83.3333333333333,4,2,1,30,0,0
128467,-83.3333333333333,4,2,1,50,0,0
133549,-166.666666666667,4,2,1,50,0,0
135353,-100,4,2,1,60,0,0
136336,-100,4,2,1,60,0,0
139287,-166.666666666667,4,2,1,60,0,0
140107,-166.666666666667,4,2,1,5,0,0
140271,-100,4,2,1,60,0,0
144123,-83.3333333333333,4,2,1,5,0,0
144205,-83.3333333333333,4,2,1,60,0,0
145189,-83.3333333333333,4,2,1,70,0,0
146172,-83.3333333333333,4,2,1,80,0,0
147156,-83.3333333333333,4,2,1,90,0,0
148139,-83.3333333333333,4,2,1,100,0,0
150107,-420.168067226891,4,2,3,100,0,0
150599,-420.168067226891,4,2,3,90,0,0
151090,-420.168067226891,4,2,3,80,0,0
151582,-420.168067226891,4,2,3,70,0,0
152074,-420.168067226891,4,2,3,60,0,0
152566,-420.168067226891,4,2,3,50,0,0
153058,-420.168067226891,4,2,3,40,0,0
153549,-420.168067226891,4,2,3,30,0,0
154041,-420.168067226891,4,2,3,20,0,0
156008,-420.168067226891,4,2,3,10,0,0
157976,-420.168067226891,4,2,3,5,0,0

[Colours]
Combo1 : 250,180,240
Combo2 : 110,190,225
Combo3 : 255,230,130
Combo4 : 150,230,140

[HitObjects]
256,192,14369,12,0,16254,0:2:0:0:
104,237,16336,6,0,P|154:242|216:276,1,100,6|0,1:1|0:2,0:0:0:0:
198,262,16664,1,0,0:2:0:0:
296,223,16828,2,0,P|346:218|408:184,1,100,2|0,0:2|0:2,0:0:0:0:
390,197,17156,1,0,0:2:0:0:
216,180,17320,5,2,1:2:0:0:
368,331,17648,1,2,1:2:0:0:
288,136,17976,1,2,1:2:0:0:
198,262,18303,5,2,1:2:0:0:
176,186,19287,6,0,B|241:162|298:213|298:213|317:208|317:208|387:276|475:215,1,299.999990844727,2|0,0:2|0:0,0:0:0:0:
303,121,20271,6,0,P|252:101|187:102,1,100,2|0,1:2|0:2,0:0:0:0:
207,98,20599,1,0,0:2:0:0:
80,208,20762,2,0,P|131:188|196:189,1,100,2|2,0:2|0:2,0:0:0:0:
175,185,21090,1,2,0:2:0:0:
299,288,21254,5,2,1:2:0:0:
452,228,21582,1,2,1:2:0:0:
259,169,21910,1,2,1:2:0:0:
159,354,22238,5,2,1:2:0:0:
76,298,23221,6,0,P|141:277|199:267,1,100,8|0,0:3|0:0,0:0:0:0:
454,210,23549,1,8,0:2:0:0:
279,117,23713,1,8,0:2:0:0:
104,208,23877,1,8,0:2:0:0:
198,34,24041,1,4,0:3:0:0:
337,226,24205,6,0,P|277:212|227:205,1,100,6|0,1:2|0:2,0:2:0:0:
46,284,24533,1,0,0:2:0:0:
171,270,24697,2,0,P|163:220|151:172,1,100,2|0,0:2|0:2,0:2:0:0:
68,47,25025,1,0,0:2:0:0:
29,190,25189,6,0,P|92:170|145:157,1,100,10|0,0:2|0:2,0:2:0:0:
317,338,25517,2,0,P|254:358|201:371,1,100,2|0,0:2|0:2,0:2:0:0:
342,258,25844,1,2,0:2:0:0:
399,316,26008,1,0,1:2:0:0:
363,177,26172,5,2,1:2:0:0:
363,177,26664,1,0,1:2:0:0:
287,138,27156,6,0,B|238:121|238:121|236:122|236:122|176:103|176:103|208:186|208:186|206:188|206:188|242:296,1,299.999990844727,10|0,0:2|0:0,0:2:0:0:
23,257,28139,6,0,P|43:205|94:170,1,100,2|0,1:2|0:2,0:0:0:0:
240,205,28467,1,0,0:2:0:0:
299,347,28631,2,0,P|248:369|187:358,1,100,2|2,0:2|0:2,0:0:0:0:
110,257,28959,1,2,0:2:0:0:
256,40,29123,5,10,0:2:0:0:
256,160,29451,1,2,1:2:0:0:
256,281,29779,1,2,1:2:0:0:
256,40,30107,5,2,1:2:0:0:
306,274,31090,6,0,P|262:263|208:260,1,100,12|0,0:2|0:0,0:0:0:0:
107,86,31418,1,0,1:1:0:0:
234,171,31582,1,8,0:2:0:0:
383,141,31746,1,8,0:2:0:0:
467,14,31910,1,8,0:3:0:0:
318,64,32074,6,0,P|309:139|306:281,1,209.999993591309,6|0,1:1|0:2,0:2:0:0:
305,273,33058,2,0,P|262:263|222:261,1,69.9999978637696,10|0,0:2|0:2,0:2:0:0:
224,243,33385,2,0,P|186:266|150:306,1,89.999997253418,2|0,0:2|0:2,0:2:0:0:
140,282,33713,2,0,P|130:325|140:404,1,110.000003356934,2|0,0:2|0:2,0:2:0:0:
406,281,34041,6,0,P|443:218|324:215,1,209.999993591309,2|0,1:2|1:2,0:2:0:0:
342,180,35025,2,0,P|279:200|136:212,1,209.999993591309,8|0,0:2|0:2,0:0:0:0:
86,319,36008,6,0,B|131:203|45:231|114:90,1,209.999993591309,2|0,1:2|0:2,0:2:0:0:
102,114,36992,2,0,P|158:105|220:83,1,89.999997253418,10|0,0:2|0:2,0:2:0:0:
264,216,37320,2,0,P|228:172|168:128,1,110.000003356934,2|0,0:2|0:2,0:2:0:0:
259,0,37648,2,0,P|238:52|223:148,1,129.999994049073,2|0,0:2|0:2,0:2:0:0:
455,309,37976,6,0,P|475:256|477:41,1,269.999991760254,2|0,1:2|1:2,0:2:0:0:
143,238,38959,1,8,0:2:0:0:
377,157,39287,1,8,0:3:0:0:
143,238,39615,1,4,0:3:0:0:
429,331,39943,6,0,B|372:283|372:283|237:316,1,209.999993591309,6|0,1:1|0:2,0:2:0:0:
120,158,40926,2,0,P|103:200|96:240,1,69.9999978637696,10|0,0:2|0:2,0:2:0:0:
250,302,41254,2,0,P|237:249|223:216,1,89.999997253418,2|0,0:2|0:2,0:2:0:0:
70,262,41582,2,0,P|83:315|117:388,1,110.000003356934,2|0,0:2|0:2,0:2:0:0:
294,166,41910,6,0,P|203:135|136:225,1,209.999993591309,2|0,1:2|1:2,0:2:0:0:
337,288,42894,1,10,0:2:0:0:
409,263,43058,1,0,0:2:0:0:
265,313,43221,1,0,0:2:0:0:
383,182,43385,5,2,0:2:0:0:
294,166,43549,1,0,0:2:0:0:
350,97,43713,1,0,0:2:0:0:
409,263,43877,6,0,B|329:256|329:256|289:282|289:282|184:279,1,209.999993591309,2|0,1:2|0:2,0:2:0:0:
51,70,44861,2,0,P|89:119|106:168,1,89.999997253418,10|0,0:2|0:2,0:2:0:0:
225,192,45189,2,0,P|217:253|187:318,1,110.000003356934,2|0,0:2|0:2,0:2:0:0:
36,266,45517,2,0,P|44:205|74:140,1,129.999994049073,2|0,0:2|0:2,0:2:0:0:
336,72,45844,6,0,P|410:161|352:309,1,269.999991760254,2|0,1:2|1:2,0:2:0:0:
41,226,46828,6,0,P|121:194|222:199,1,179.999994506836,14|0,0:2|0:2,0:2:0:0:
160,156,47156,2,0,P|240:188|341:183,1,179.999994506836,14|0,0:2|0:2,0:2:0:0:
285,230,47484,2,0,P|365:198|466:203,1,179.999994506836,14|0,0:2|0:2,0:2:0:0:
512,308,47812,5,6,1:2:0:0:
419,338,47976,1,0,0:2:0:0:
337,290,48139,1,0,0:2:0:0:
262,366,48303,5,2,1:2:0:0:
169,336,48467,1,0,0:2:0:0:
87,384,48630,1,0,0:2:0:0:
0,267,48795,5,10,0:2:0:0:
93,297,48959,1,0,0:2:0:0:
175,249,49122,1,0,0:2:0:0:
82,153,49287,6,0,L|64:237,2,59.9999981689454,2|2|2,0:2|0:2|0:2,0:0:0:0:
194,233,49779,5,2,1:2:0:0:
180,141,49943,1,0,0:2:0:0:
266,174,50107,1,0,0:2:0:0:
186,24,50271,5,2,1:2:0:0:
275,69,50435,1,0,0:2:0:0:
369,37,50599,1,0,0:2:0:0:
491,193,50762,5,10,0:2:0:0:
343,118,50926,1,2,0:2:0:0:
240,294,51090,1,2,0:2:0:0:
395,226,51254,5,2,0:2:0:0:
337,371,51418,1,2,0:2:0:0:
266,174,51582,1,2,0:2:0:0:
63,357,51746,5,2,1:2:0:0:
96,273,51910,1,0,0:2:0:0:
59,190,52074,1,0,0:2:0:0:
139,176,52238,5,2,1:2:0:0:
106,92,52402,1,0,0:2:0:0:
143,9,52566,1,0,0:2:0:0:
194,115,52730,5,10,0:2:0:0:
230,32,52894,1,0,0:2:0:0:
314,0,53058,1,0,0:2:0:0:
275,233,53221,6,0,L|264:164,2,59.9999981689454,2|2|2,0:2|0:2|0:2,0:0:0:0:
468,86,53713,5,2,1:2:0:0:
487,207,53877,1,0,0:2:0:0:
372,163,54041,1,0,0:2:0:0:
475,342,54205,5,2,1:2:0:0:
379,294,54369,1,0,0:2:0:0:
277,327,54533,1,0,0:2:0:0:
184,236,54697,5,14,0:2:0:0:
90,327,54861,1,2,0:2:0:0:
145,164,55025,1,2,0:2:0:0:
305,225,55189,5,10,0:2:0:0:
107,95,55353,1,10,0:2:0:0:
311,10,55517,1,10,0:2:0:0:
184,236,55680,5,6,1:2:0:0:
70,258,55844,1,0,0:2:0:0:
6,352,56008,1,0,0:2:0:0:
226,377,56172,5,2,1:2:0:0:
303,293,56336,1,0,0:2:0:0:
301,177,56500,1,0,0:2:0:0:
251,63,56664,5,10,0:2:0:0:
301,177,56828,1,0,0:2:0:0:
416,223,56992,1,0,0:2:0:0:
398,98,57156,5,2,0:2:0:0:
202,218,57320,1,2,0:2:0:0:
236,37,57484,1,2,0:2:0:0:
301,177,57648,5,2,1:2:0:0:
251,63,57812,1,0,0:2:0:0:
136,21,57976,1,0,0:2:0:0:
0,312,58139,5,2,1:2:0:0:
105,271,58303,1,0,0:2:0:0:
150,168,58467,1,0,0:2:0:0:
226,315,58631,5,10,0:2:0:0:
150,168,58795,1,2,0:2:0:0:
153,368,58959,1,2,0:2:0:0:
262,234,59123,5,2,0:2:0:0:
428,298,59287,1,2,0:2:0:0:
325,116,59451,1,2,0:2:0:0:
148,247,59615,5,2,1:2:0:0:
262,234,59779,1,0,0:2:0:0:
351,305,59943,1,0,0:2:0:0:
466,176,60107,5,2,1:2:0:0:
351,163,60271,1,0,0:2:0:0:
262,234,60435,1,0,0:2:0:0:
148,105,60599,5,14,0:2:0:0:
262,92,60763,1,0,0:2:0:0:
351,163,60927,1,0,0:2:0:0:
409,11,61090,5,2,0:2:0:0:
221,164,61254,1,2,0:2:0:0:
444,229,61418,1,2,1:2:0:0:
337,57,61582,5,6,1:2:0:0:
362,143,61746,1,0,0:2:0:0:
337,57,61910,1,2,0:2:0:0:
73,243,62074,5,14,1:2:0:0:
98,157,62238,1,0,0:2:0:0:
73,243,62402,1,2,0:2:0:0:
256,42,62566,5,10,0:2:0:0:
166,221,62730,1,10,0:2:0:0:
328,263,62894,1,10,0:3:0:0:
240,318,63058,1,10,0:3:0:0:
269,345,63221,1,6,0:3:0:0:
257,364,63385,1,6,0:3:0:0:
409,182,63549,6,0,L|423:288,1,100,6|0,1:1|0:2,0:0:0:0:
422,281,63877,1,0,0:2:0:0:
242,141,64041,2,0,L|256:35,1,100,2|0,0:2|0:2,0:0:0:0:
255,41,64369,1,0,0:2:0:0:
34,274,64533,5,10,0:2:0:0:
149,211,64861,1,2,0:2:0:0:
299,378,65189,1,2,0:2:0:0:
299,378,65353,1,2,1:2:0:0:
256,252,65517,5,2,1:2:0:0:
256,252,66008,1,0,1:2:0:0:
390,123,66500,2,0,B|333:125|274:71|274:71|316:142|316:201|316:201|301:188|286:181,1,299.999990844727,10|0,0:2|0:0,0:2:0:0:
163,143,67484,6,0,P|105:122|37:139,1,100,2|0,1:2|0:2,0:0:0:0:
67,125,67812,1,0,0:2:0:0:
160,269,67976,2,0,P|218:248|285:264,1,100,2|2,0:2|0:2,0:0:0:0:
255,251,68303,1,2,0:2:0:0:
308,84,68467,5,10,0:2:0:0:
308,84,68795,2,0,P|304:132|279:204,1,100,2|0,1:2|0:0,0:0:0:0:
90,149,69123,2,0,P|94:101|119:29,1,100,2|0,1:2|0:0,0:0:0:0:
197,119,69451,5,2,1:2:0:0:
197,119,69943,1,0,1:2:0:0:
43,279,70435,6,0,P|102:266|169:256,1,100,12|0,0:2|0:0,0:0:0:0:
280,339,70762,1,8,0:3:0:0:
206,206,70926,1,8,0:2:0:0:
339,132,71090,1,8,0:2:0:0:
413,265,71254,1,4,0:3:0:0:
295,16,71418,6,0,B|343:171|223:186|314:366,1,349.999989318848,6|0,1:1|0:2,0:2:0:0:
437,174,72402,2,0,P|388:156|356:167,1,69.9999978637696,10|0,0:2|0:2,0:2:0:0:
173,141,72730,2,0,P|181:192|214:217,1,89.999997253418,2|0,0:2|0:2,0:2:0:0:
309,356,73058,2,0,P|349:322|361:266,1,110.000003356934,2|0,0:2|0:2,0:2:0:0:
319,204,73385,5,2,1:2:0:0:
277,137,73549,1,0,0:2:0:0:
319,204,73713,1,0,0:2:0:0:
228,75,73877,5,0,1:2:0:0:
173,141,74041,1,0,0:2:0:0:
228,75,74205,1,0,0:2:0:0:
256,274,74369,5,8,0:2:0:0:
407,338,75353,6,0,B|313:277|313:277|77:355,1,349.999989318848,2|0,1:2|0:2,0:0:0:0:
88,242,76336,2,0,P|46:232|-15:222,1,89.999997253418,10|0,0:2|0:2,0:2:0:0:
122,74,76664,2,0,P|132:116|144:191,1,110.000003356934,2|0,0:2|0:2,0:2:0:0:
236,275,76992,2,0,P|243:230|266:146,1,129.999994049073,2|0,0:2|0:2,0:2:0:0:
458,109,77320,6,0,P|414:119|369:126,1,89.999997253418,2|0,1:2|0:2,0:2:0:0:
305,86,77648,1,0,0:2:0:0:
333,202,77812,2,0,P|377:208|421:219,1,89.999997253418,0|0,1:2|0:2,0:0:0:0:
478,281,78139,1,0,0:2:0:0:
256,354,78303,5,8,0:2:0:0:
221,110,78631,1,8,0:3:0:0:
190,292,78959,1,4,0:3:0:0:
287,48,79287,6,0,B|339:56|387:25|387:25|322:65|293:156|293:156|331:187|333:252,1,349.999989318848,6|0,1:1|0:2,0:2:0:0:
483,180,80271,2,0,L|405:157,1,69.9999978637696,10|0,0:2|0:2,0:2:0:0:
445,334,80599,2,0,L|513:268,1,89.999997253418,2|0,0:2|0:2,0:2:0:0:
330,224,80926,2,0,L|355:338,1,110.000003356934,2|0,0:2|0:2,0:2:0:0:
212,364,81254,5,2,1:2:0:0:
145,298,81418,1,0,0:2:0:0:
57,336,81582,1,0,0:2:0:0:
232,278,81746,5,0,1:2:0:0:
165,212,81910,1,0,0:2:0:0:
77,250,82074,1,0,0:2:0:0:
182,136,82238,6,0,L|201:58,2,69.9999978637696,10|0|0,0:2|0:2|0:2,0:2:0:0:
258,192,82730,2,0,L|277:114,2,69.9999978637696,2|0|0,0:2|0:2|0:2,0:2:0:0:
498,212,83221,6,0,B|384:197|384:197|295:244|295:244|131:203,1,349.999989318848,2|0,1:2|0:2,0:0:0:0:
91,272,84205,2,0,P|74:202|94:162,1,89.999997253418,10|0,0:2|0:2,0:2:0:0:
247,153,84533,2,0,P|265:223|246:269,1,110.000003356934,2|0,0:2|0:2,0:2:0:0:
0,209,84861,2,0,P|14:138|59:106,1,129.999994049073,2|0,0:2|0:2,0:2:0:0:
201,35,85189,6,0,P|174:140|162:243,1,179.999994506836,2|0,1:2|0:2,0:2:0:0:
405,384,85680,2,0,P|381:297|368:208,1,179.999994506836,0|0,1:2|0:2,0:2:0:0:
492,36,86172,6,0,P|398:63|462:144,1,179.999994506836,14|0,0:2|0:2,0:2:0:0:
488,203,86500,2,0,P|402:155|390:258,1,179.999994506836,14|0,0:2|0:2,0:2:0:0:
367,318,86828,2,0,P|340:223|259:288,1,179.999994506836,14|0,0:2|0:2,0:2:0:0:
220,353,87156,5,6,1:2:0:0:
131,308,87320,1,0,0:2:0:0:
36,339,87484,1,0,0:2:0:0:
0,193,87648,5,2,1:2:0:0:
89,238,87812,1,0,0:2:0:0:
184,207,87976,1,0,0:2:0:0:
134,116,88139,5,10,0:2:0:0:
223,71,88303,1,0,0:2:0:0:
318,102,88467,1,0,0:2:0:0:
428,21,88631,6,0,P|419:57|412:99,2,59.9999981689454,2|2|2,0:2|0:2|0:2,0:0:0:0:
506,199,89123,5,2,1:2:0:0:
382,169,89287,1,0,0:2:0:0:
273,235,89451,1,0,0:2:0:0:
276,324,89615,5,2,1:2:0:0:
385,258,89779,1,0,0:2:0:0:
509,288,89943,1,0,0:2:0:0:
512,377,90107,5,10,0:2:0:0:
305,161,90271,1,2,0:2:0:0:
506,199,90435,1,2,0:2:0:0:
357,330,90599,5,2,0:2:0:0:
345,98,90762,1,2,0:2:0:0:
153,212,90926,1,2,0:2:0:0:
385,258,91090,5,2,1:2:0:0:
305,161,91254,1,0,0:2:0:0:
261,279,91418,1,0,0:2:0:0:
189,377,91582,5,2,1:2:0:0:
137,302,91746,1,0,0:2:0:0:
153,212,91910,1,0,0:2:0:0:
99,38,92074,5,10,0:2:0:0:
115,128,92238,1,0,0:2:0:0:
63,203,92402,1,0,0:2:0:0:
206,137,92566,6,0,P|249:126|285:120,2,59.9999981689454,2|2|2,0:2|0:2|0:2,0:0:0:0:
350,117,93058,5,2,1:2:0:0:
313,195,93221,1,0,0:2:0:0:
341,276,93385,1,0,0:2:0:0:
493,353,93549,5,2,1:2:0:0:
412,325,93713,1,0,0:2:0:0:
334,362,93876,1,0,0:2:0:0:
229,219,94041,5,14,0:2:0:0:
125,278,94205,1,2,0:2:0:0:
206,137,94369,1,2,0:2:0:0:
32,234,94533,5,10,0:2:0:0:
211,304,94697,1,10,0:2:0:0:
281,125,94861,1,10,0:2:0:0:
102,55,95025,5,6,1:2:0:0:
129,166,95189,1,0,0:2:0:0:
229,219,95353,1,0,0:2:0:0:
341,28,95517,5,2,1:2:0:0:
281,125,95681,1,0,0:2:0:0:
314,233,95845,1,0,0:2:0:0:
512,190,96008,5,10,0:2:0:0:
401,217,96172,1,0,0:2:0:0:
348,316,96336,1,0,0:2:0:0:
510,364,96500,5,2,0:2:0:0:
314,233,96664,1,2,0:2:0:0:
433,121,96828,1,2,0:2:0:0:
348,316,96992,5,2,1:2:0:0:
231,359,97156,1,0,0:2:0:0:
117,306,97320,1,0,0:2:0:0:
236,275,97484,5,2,1:2:0:0:
122,222,97648,1,0,0:2:0:0:
79,104,97812,1,0,0:2:0:0:
241,191,97976,5,10,0:2:0:0:
142,4,98139,1,2,0:2:0:0:
122,222,98303,1,2,0:2:0:0:
232,63,98467,5,2,0:2:0:0:
354,224,98631,1,2,0:2:0:0:
433,38,98795,1,2,0:2:0:0:
241,191,98959,5,2,1:2:0:0:
280,286,99123,1,0,0:2:0:0:
374,325,99287,1,0,0:2:0:0:
354,224,99451,5,2,1:2:0:0:
315,130,99615,1,0,0:2:0:0:
355,36,99779,1,0,0:2:0:0:
488,92,99943,5,14,0:2:0:0:
449,186,100107,1,0,0:2:0:0:
354,224,100271,1,0,0:2:0:0:
250,54,100435,5,2,0:2:0:0:
103,187,100599,1,2,0:2:0:0:
164,13,100762,1,2,1:2:0:0:
354,224,100926,5,6,1:2:0:0:
216,148,101090,1,0,0:2:0:0:
354,224,101254,1,2,0:2:0:0:
87,376,101418,5,14,1:2:0:0:
225,300,101582,1,0,0:2:0:0:
87,376,101746,1,2,0:2:0:0:
141,104,101910,5,10,0:2:0:0:
263,222,102074,1,10,0:2:0:0:
374,148,102238,1,10,0:3:0:0:
446,203,102402,1,10,0:3:0:0:
491,169,102566,1,6,0:3:0:0:
511,187,102730,1,6,0:3:0:0:
399,333,102894,6,0,P|346:344|283:345,1,100,6|0,1:1|0:2,0:0:0:0:
300,345,103221,1,0,0:2:0:0:
202,143,103385,2,0,P|238:183|270:237,1,100,2|0,0:2|0:2,0:0:0:0:
262,221,103712,1,0,0:2:0:0:
132,270,103877,5,2,1:2:0:0:
257,80,104205,1,2,1:2:0:0:
300,345,104533,1,2,1:2:0:0:
262,221,104861,5,2,1:2:0:0:
382,185,105844,2,0,B|378:225|378:225|328:208|300:167|300:167|259:198|206:201|206:201|235:225|295:220,1,299.999990844727,2|0,0:2|0:0,0:0:0:0:
378,85,106828,6,0,P|328:66|266:60,1,100,2|0,1:2|0:2,0:0:0:0:
282,59,107156,1,0,0:2:0:0:
119,150,107320,2,0,P|169:131|231:125,1,100,2|2,0:2|0:2,0:0:0:0:
214,124,107648,1,2,0:2:0:0:
297,239,107812,5,2,1:2:0:0:
89,335,108139,1,2,1:2:0:0:
194,100,108467,1,2,1:2:0:0:
223,318,108795,5,2,1:2:0:0:
256,192,108877,12,0,110680,0:2:0:0:
87,331,110762,5,2,1:2:0:0:
87,331,110926,1,0,0:2:0:0:
87,331,111090,1,0,0:2:0:0:
425,331,111254,5,2,0:2:0:0:
425,331,111418,1,0,0:2:0:0:
425,331,111582,1,0,0:2:0:0:
127,221,111746,5,2,1:2:0:0:
193,161,111910,1,0,0:2:0:0:
211,248,112074,1,0,0:2:0:0:
385,221,112238,5,2,0:2:0:0:
319,161,112402,1,0,0:2:0:0:
301,248,112566,1,0,0:2:0:0:
85,61,112730,5,2,1:2:0:0:
193,161,112894,1,0,0:2:0:0:
173,6,113058,1,0,0:2:0:0:
339,6,113221,5,2,0:2:0:0:
319,161,113385,1,0,0:2:0:0:
427,61,113549,1,0,0:2:0:0:
456,313,113713,5,2,1:2:0:0:
256,100,113877,1,0,0:2:0:0:
56,313,114041,1,0,0:2:0:0:
257,16,114205,5,2,0:2:0:0:
256,339,114369,1,2,0:2:0:0:
257,16,114533,1,2,0:2:0:0:
255,191,114697,5,6,1:1:0:0:
256,192,114779,12,8,120599,1:2:0:0:
89,248,128467,5,2,0:2:0:0:
89,248,128549,1,0,0:2:0:0:
89,248,128631,1,0,0:2:0:0:
128,322,128795,1,0,0:2:0:0:
145,180,128959,1,0,0:2:0:0:
224,204,129123,1,0,0:2:0:0:
206,124,129287,1,0,0:2:0:0:
347,247,129451,5,2,0:2:0:0:
347,247,129533,1,0,0:2:0:0:
347,247,129615,1,0,0:2:0:0:
417,139,129779,1,0,0:2:0:0:
436,228,129943,1,0,0:2:0:0:
436,228,130025,1,0,0:2:0:0:
436,228,130107,1,0,0:2:0:0:
328,158,130271,1,0,0:2:0:0:
409,316,130435,5,2,0:2:0:0:
409,316,130517,1,0,0:2:0:0:
409,316,130599,1,0,0:2:0:0:
347,247,130762,1,0,0:2:0:0:
316,330,130926,1,0,0:2:0:0:
235,366,131090,1,0,0:2:0:0:
152,334,131254,1,0,0:2:0:0:
223,198,131418,5,2,0:2:0:0:
223,198,131500,1,0,0:2:0:0:
223,198,131582,1,0,0:2:0:0:
248,280,131746,1,0,0:2:0:0:
164,260,131910,1,0,0:2:0:0:
80,280,132074,1,0,0:2:0:0:
104,198,132238,1,0,0:2:0:0:
26,101,132402,5,2,0:2:0:0:
26,101,132484,1,0,0:2:0:0:
26,101,132566,1,0,0:2:0:0:
106,114,132730,1,0,0:2:0:0:
221,26,132894,1,0,0:2:0:0:
141,39,133058,1,0,0:2:0:0:
193,102,133221,1,0,0:2:0:0:
313,64,133385,5,2,0:2:0:0:
313,64,133467,1,0,0:2:0:0:
313,64,133549,2,0,L|397:50,1,59.9999981689454,0|0,0:2|0:2,0:0:0:0:
491,116,133877,1,2,0:2:0:0:
491,116,133959,1,0,0:2:0:0:
491,116,134041,2,0,L|407:130,1,59.9999981689454,0|0,0:2|0:2,0:0:0:0:
254,180,134369,1,2,0:2:0:0:
254,180,134451,1,0,0:2:0:0:
254,180,134533,2,0,L|338:194,1,59.9999981689454,0|0,0:2|0:2,0:0:0:0:
427,258,134861,5,0,0:2:0:0:
358,310,135025,1,0,0:2:0:0:
286,260,135189,1,0,0:2:0:0:
138,270,135353,6,0,P|147:220|159:172,1,100,10|0,0:2|0:2,0:2:0:0:
313,64,135680,1,8,0:3:0:0:
74,146,135843,1,8,0:2:0:0:
226,36,136007,1,8,0:2:0:0:
160,173,136171,1,4,0:3:0:0:
88,47,136336,6,0,P|77:108|72:165,1,100,6|0,1:1|0:2,0:0:0:0:
73,145,136664,1,0,0:2:0:0:
246,252,136828,2,0,P|257:191|262:134,1,100,2|0,0:2|0:2,0:0:0:0:
260,153,137156,1,0,0:2:0:0:
93,232,137320,5,2,1:2:0:0:
226,36,137648,1,2,1:2:0:0:
347,266,137976,1,2,1:2:0:0:
160,173,138303,5,2,1:2:0:0:
310,116,139287,6,0,B|265:53|162:90|160:196|270:313,1,299.999990844727,2|0,0:2|0:0,0:0:0:0:
408,212,140271,6,0,P|346:196|281:198,1,100,2|0,1:2|0:2,0:0:0:0:
310,194,140599,1,0,0:2:0:0:
108,128,140762,2,0,P|170:112|235:114,1,100,2|2,0:2|0:2,0:0:0:0:
205,110,141090,1,2,0:2:0:0:
242,280,141254,5,2,1:2:0:0:
36,364,141582,1,2,1:2:0:0:
108,128,141910,1,2,1:2:0:0:
154,355,142238,5,2,1:2:0:0:
256,192,142320,12,0,144123,0:2:0:0:
442,356,144205,5,2,1:2:0:0:
435,333,144369,1,0,0:2:0:0:
428,310,144533,1,0,0:2:0:0:
84,310,144697,5,2,0:2:0:0:
77,333,144861,1,0,0:2:0:0:
70,356,145025,1,0,0:2:0:0:
31,163,145189,5,2,1:2:0:0:
131,234,145353,1,0,0:2:0:0:
143,112,145517,1,0,0:2:0:0:
481,163,145680,5,2,0:2:0:0:
381,234,145844,1,2,0:2:0:0:
369,112,146008,1,2,0:2:0:0:
209,329,146172,5,2,1:2:0:0:
131,234,146336,1,0,0:2:0:0:
143,112,146500,1,0,0:2:0:0:
369,112,146664,5,2,0:2:0:0:
381,234,146828,1,0,0:2:0:0:
303,329,146992,1,0,0:2:0:0:
118,318,147156,5,2,1:2:0:0:
256,99,147320,1,0,0:2:0:0:
394,318,147484,1,0,0:2:0:0:
197,54,147648,5,2,0:2:0:0:
255,268,147812,1,2,0:2:0:0:
315,54,147976,1,2,0:2:0:0:
118,318,148139,5,10,1:2:0:0:
172,171,148303,1,10,1:2:0:0:
340,171,148467,1,10,1:2:0:0:
394,318,148631,1,10,1:2:0:0:
67,116,149123,5,10,1:2:0:0:
175,258,149287,1,10,1:2:0:0:
337,258,149451,1,10,1:2:0:0:
445,116,149615,1,10,1:2:0:0:
255,370,150107,5,6,1:1:0:0:
256,192,150189,12,0,157976,0:0:0:0:
