osu file format v14

[General]
AudioFilename: audio.mp3
AudioLeadIn: 0
PreviewTime: 467
Countdown: 0
SampleSet: Soft
StackLeniency: 0.4
Mode: 0
LetterboxInBreaks: 0
WidescreenStoryboard: 0

[Editor]
Bookmarks: 599,8467,16336,24205,32074,39943,47812,55680,63549,71418,79287,87156,95025,102894,110762,120599,128467,136336,144205,150107,157976
DistanceSpacing: 1.6
BeatDivisor: 3
GridSize: 32
TimelineZoom: 1.1

[Metadata]
Title:Ketsudan no Toki
TitleUnicode:決断の時
Artist:Takanashi Yasuharu
ArtistUnicode:高梨康治
Creator:Mordred
Version:Ayyri's Hard
Source:Caligula-カリギュラ-
Tags:the caligula effect anime original soundtrack ost instrumental yogurtt lasse eiri- ayyri classical gothic orchestral
BeatmapID:2766028
BeatmapSetID:1312098

[Difficulty]
HPDrainRate:4.5
CircleSize:3.5
OverallDifficulty:5
ApproachRate:6.5
SliderMultiplier:1.6
SliderTickRate:1

[Events]
//Background and Video events
0,0,"z-w-gu-thronef3handfixweb.jpg",0,0
//Break Periods
//Storyboard Layer 0 (Background)
//Storyboard Layer 1 (Fail)
//Storyboard Layer 2 (Pass)
//Storyboard Layer 3 (Foreground)
//Storyboard Layer 4 (Overlay)
//Storyboard Sound Samples

[TimingPoints]
599,491.803278688525,4,2,1,60,1,0
14369,-100,4,2,1,30,0,0
14861,-100,4,2,1,40,0,0
15353,-100,4,2,1,50,0,0
15844,-100,4,2,1,60,0,0
16254,-100,4,2,99,5,0,0
16336,-100,4,2,1,70,0,0
25189,-100,4,2,1,60,0,0
28139,-100,4,2,1,60,0,0
30107,-100,4,2,1,60,0,0
32074,-100,4,2,1,60,0,0
36992,-100,4,2,1,70,0,0
39943,-100,4,2,1,70,0,0
44861,-100,4,2,1,60,0,0
46828,-100,4,2,1,70,0,0
47074,-100,4,2,1,5,0,0
47156,-100,4,2,1,70,0,0
47402,-100,4,2,1,5,0,0
47484,-100,4,2,1,70,0,0
47730,-100,4,2,1,5,0,0
47812,-100,4,2,1,70,0,1
47894,-100,4,2,1,70,0,0
55680,-100,4,2,1,80,0,1
55762,-100,4,2,1,80,0,0
63549,-100,4,2,1,70,0,0
64533,-100,4,2,1,70,0,0
67484,-100,4,2,1,70,0,0
69451,-100,4,2,1,70,0,0
71418,-100,4,2,1,60,0,0
76336,-100,4,2,1,60,0,0
79287,-100,4,2,1,60,0,0
84205,-100,4,2,1,60,0,0
86172,-100,4,2,1,70,0,0
86418,-100,4,2,1,5,0,0
86500,-100,4,2,1,70,0,0
86746,-100,4,2,1,5,0,0
86828,-100,4,2,1,70,0,0
87074,-100,4,2,1,70,0,0
87156,-100,4,2,1,70,0,1
87238,-100,4,2,1,70,0,0
95025,-100,4,2,1,80,0,1
95107,-100,4,2,1,80,0,0
102894,-100,4,2,1,70,0,0
110680,-100,4,2,1,5,0,0
110762,-100,4,2,1,60,0,0
111746,-100,4,2,1,70,0,0
112730,-100,4,2,1,80,0,0
113713,-100,4,2,1,90,0,0
114697,-100,4,2,1,70,0,0
121582,-100,4,2,1,30,0,0
128467,-100,4,2,1,50,0,0
128959,-100,4,2,1,50,0,0
135353,-100,4,2,1,60,0,0
136336,-100,4,2,1,60,0,0
144123,-100,4,2,1,5,0,0
144205,-100,4,2,1,60,0,0
145189,-100,4,2,1,70,0,0
146172,-100,4,2,1,80,0,0
147156,-100,4,2,1,90,0,0
148139,-100,4,2,1,100,0,0
150107,-100,4,2,3,100,0,0
150599,-100,4,2,3,90,0,0
151090,-100,4,2,3,80,0,0
151582,-100,4,2,3,70,0,0
152074,-100,4,2,3,60,0,0
152566,-100,4,2,3,50,0,0
153058,-100,4,2,3,40,0,0
153549,-100,4,2,3,30,0,0
154041,-100,4,2,3,20,0,0
156008,-100,4,2,3,10,0,0
157976,-100,4,2,3,5,0,0

[Colours]
Combo1 : 250,180,240
Combo2 : 110,190,225
Combo3 : 255,230,130
Combo4 : 150,230,140

[HitObjects]
256,192,14369,12,0,15844,0:2:0:0:
28,182,16336,6,0,B|-1:207|-1:207|16:279,1,106.666666666667,6|0,1:1|0:2,0:0:0:0:
40,355,16828,2,0,P|105:348|179:345,1,106.666666666667,2|0,0:2|0:2,0:0:0:0:
197,277,17320,2,0,P|158:222|143:170,2,106.666666666667,2|2|2,1:2|1:2|1:2,0:0:0:0:
352,347,18303,2,0,P|416:327|404:273,1,106.666666666667,2|0,1:2|0:0,0:0:0:0:
375,222,18795,2,0,P|378:145|445:47,2,160,0|2|0,0:0|0:2|0:0,0:0:0:0:
149,98,20271,6,0,P|224:72|289:30,1,106.666666666667,2|0,1:2|0:2,0:0:0:0:
284,136,20762,2,0,L|277:211,1,53.3333333333333,2|2,0:2|0:2,0:0:0:0:
304,276,21090,1,2,0:2:0:0:
304,276,21254,2,0,P|245:238|172:258,2,106.666666666667,2|2|2,1:2|1:2|1:2,0:0:0:0:
155,361,22238,6,0,P|67:325|16:327,1,106.666666666667,2|0,1:2|0:0,0:0:0:0:
23,245,22730,2,0,P|43:163|131:136,1,160,0|8,0:0|0:3,0:0:0:0:
224,256,23549,1,8,0:2:0:0:
224,256,23713,1,8,0:2:0:0:
224,256,23877,2,0,L|215:340,1,53.3333333333333,8|4,0:2|0:3,0:0:0:0:
283,364,24205,6,0,L|394:347,1,106.666666666667,6|0,1:2|0:2,0:0:0:0:
471,371,24697,2,0,P|501:317|470:248,1,106.666666666667,2|0,0:2|0:2,0:0:0:0:
436,210,25189,2,0,P|371:268|317:251,2,106.666666666667,10|2|2,0:2|0:2|0:2,0:0:0:0:
438,128,26008,1,0,1:2:0:0:
438,128,26172,6,0,L|258:118,1,160,2|0,1:2|1:2,0:0:0:0:
30,52,27156,2,0,L|20:-7,2,53.3333333333333,10|0|0,0:2|0:0|0:0,0:0:0:0:
79,122,27648,2,0,L|57:248,1,106.666666666667,0|0,0:2|0:0,0:0:0:0:
125,282,28139,6,0,P|156:264|205:261,2,53.3333333333333,2|0|0,1:2|0:2|0:2,0:0:0:0:
181,346,28631,2,0,P|212:364|261:367,2,53.3333333333333,2|2|2,0:2|0:2|0:2,0:0:0:0:
245,288,29123,2,0,L|365:302,1,106.666666666667,10|2,0:2|1:2,0:0:0:0:
501,218,29779,1,2,1:2:0:0:
356,127,30107,6,0,L|370:42,2,53.3333333333333,2|0|0,1:2|0:0|1:2,0:0:0:0:
278,89,30599,2,0,L|264:4,2,53.3333333333333,0|0|0,1:2|0:0|1:2,0:0:0:0:
212,143,31090,2,0,P|153:126|74:118,1,106.666666666667,12|0,0:2|1:1,0:0:0:0:
35,161,31582,1,8,0:2:0:0:
35,161,31746,2,0,P|53:195|62:232,1,53.3333333333333,8|8,0:2|0:3,0:0:0:0:
27,289,32074,6,0,P|108:244|288:232,1,266.666666666667,6|0,1:1|0:0,0:0:0:0:
354,270,33058,2,0,P|364:296|369:340,1,53.3333333333333,10|0,0:2|0:2,0:0:0:0:
443,361,33385,2,0,P|458:339|468:314,1,53.3333333333333,2|0,0:2|0:2,0:0:0:0:
432,236,33713,2,0,P|416:214|406:189,1,53.3333333333333,2|0,0:2|0:2,0:0:0:0:
458,121,34041,6,0,P|422:135|352:37,3,160,2|0|8|0,1:2|1:2|0:2|0:2,0:0:0:0:
95,8,36008,6,0,P|141:77|163:261,1,266.666666666667,2|0,1:2|0:0,0:0:0:0:
99,312,36992,2,0,P|67:295|16:289,1,53.3333333333333,10|0,0:2|0:2,0:0:0:0:
7,216,37320,2,0,P|39:199|90:193,1,53.3333333333333,2|0,0:2|0:2,0:0:0:0:
117,135,37648,2,0,P|149:152|200:158,1,53.3333333333333,2|0,0:2|0:2,0:0:0:0:
220,90,37976,6,0,L|209:294,2,160,2|0|8,1:2|1:2|0:2,0:0:0:0:
372,14,39287,1,8,0:3:0:0:
495,132,39615,2,0,L|481:221,1,53.3333333333333,4|0,0:3|0:0,0:0:0:0:
510,267,39943,6,0,P|443:216|246:203,1,266.666666666667,6|0,1:1|0:0,0:0:0:0:
205,256,40926,2,0,P|231:295|238:324,1,53.3333333333333,10|0,0:2|0:2,0:0:0:0:
314,328,41254,2,0,P|338:316|358:299,1,53.3333333333333,2|0,0:2|0:2,0:0:0:0:
444,304,41582,2,0,P|453:278|455:252,1,53.3333333333333,2|0,0:2|0:2,0:0:0:0:
435,169,41910,6,0,B|422:128|422:128|295:155,3,160,2|0|10|2,1:2|1:2|0:2|0:2,0:0:0:0:
60,219,43877,6,0,P|181:248|274:377,1,266.666666666667,2|0,1:2|0:0,0:0:0:0:
351,373,44861,2,0,P|398:331|402:322,1,53.3333333333333,10|0,0:2|0:2,0:0:0:0:
342,270,45189,2,0,P|295:228|291:219,1,53.3333333333333,2|0,0:2|0:2,0:0:0:0:
218,212,45517,2,0,P|214:149|218:139,1,53.3333333333333,2|0,0:2|0:2,0:0:0:0:
290,126,45844,6,0,P|371:112|452:50,1,160,2|0,1:2|1:2,0:0:0:0:
191,0,46828,2,0,L|183:90,1,53.3333333333333,14|0,0:2|0:0,0:0:0:0:
122,111,47156,2,0,L|140:201,1,53.3333333333333,14|0,0:2|0:0,0:0:0:0:
199,216,47484,2,0,L|170:302,1,53.3333333333333,14|0,0:2|0:0,0:0:0:0:
185,352,47812,6,0,L|257:333,2,53.3333333333333,6|0|0,1:2|0:2|0:2,0:0:0:0:
101,334,48303,2,0,P|133:248|120:196,1,106.666666666667,2|0,1:2|0:2,0:0:0:0:
99,156,48795,2,0,L|21:139,2,53.3333333333333,10|0|0,0:2|0:2|0:2,0:0:0:0:
176,119,49287,1,2,0:2:0:0:
251,157,49451,1,2,0:2:0:0:
274,239,49615,1,2,0:2:0:0:
346,284,49779,6,0,P|432:272|512:259,1,160,2|2,1:2|1:2,0:0:0:0:
463,7,50762,2,0,L|452:76,1,53.3333333333333,10|2,0:2|0:2,0:0:0:0:
439,144,51090,1,2,0:2:0:0:
361,179,51254,2,0,L|372:248,1,53.3333333333333,2|2,0:2|0:2,0:0:0:0:
385,316,51582,1,2,0:2:0:0:
320,371,51746,6,0,P|237:349|144:342,1,160,2|2,1:2|1:2,0:0:0:0:
20,128,52730,2,0,L|12:203,2,53.3333333333333,10|0|0,0:2|0:2|0:2,0:0:0:0:
11,43,53221,1,2,0:2:0:0:
89,10,53385,1,2,0:2:0:0:
155,63,53549,1,2,0:2:0:0:
235,34,53713,6,0,L|225:206,1,160,2|2,1:2|1:2,0:0:0:0:
413,368,54697,2,0,L|486:352,1,53.3333333333333,14|2,0:2|0:2,0:0:0:0:
500,278,55025,1,2,0:2:0:0:
451,221,55189,1,10,0:2:0:0:
451,221,55353,1,10,0:2:0:0:
451,221,55517,1,10,0:2:0:0:
485,143,55680,6,0,L|464:0,1,106.666666666667,6|0,1:2|0:2,0:0:0:0:
388,67,56172,2,0,L|251:39,1,106.666666666667,2|0,1:2|0:2,0:0:0:0:
263,129,56664,2,0,L|400:157,1,106.666666666667,10|0,0:2|0:2,0:0:0:0:
411,224,57156,1,2,0:2:0:0:
391,307,57320,1,2,0:2:0:0:
308,329,57484,1,2,0:2:0:0:
241,275,57648,6,0,L|446:294,1,160,2|2,1:2|1:2,0:0:0:0:
481,46,58631,2,0,L|403:59,1,53.3333333333333,10|2,0:2|0:2,0:0:0:0:
344,72,58959,1,2,0:2:0:0:
282,131,59123,2,0,L|204:118,1,53.3333333333333,2|2,0:2|0:2,0:0:0:0:
145,105,59451,1,2,0:2:0:0:
109,27,59615,6,0,P|126:103|129:205,1,160,2|2,1:2|1:2,0:0:0:0:
304,372,60599,2,0,L|293:287,2,53.3333333333333,14|0|0,0:2|0:2|0:2,0:0:0:0:
389,375,61090,1,2,0:2:0:0:
443,309,61254,1,2,0:2:0:0:
403,233,61418,1,2,1:2:0:0:
318,243,61582,6,0,L|240:228,1,53.3333333333333,6|0,1:2|0:2,0:0:0:0:
192,187,61910,1,2,1:2:0:0:
150,261,62074,2,0,L|72:276,1,53.3333333333333,14|0,1:2|0:2,0:0:0:0:
24,317,62402,1,2,1:2:0:0:
104,370,62566,1,10,0:2:0:0:
104,370,62730,1,10,0:2:0:0:
104,370,62894,1,10,0:3:0:0:
175,323,63058,2,0,L|253:308,2,53.3333333333333,10|6|6,0:3|0:3|0:3,0:0:0:0:
118,258,63549,6,0,L|128:122,1,106.666666666667,6|0,1:1|0:2,0:0:0:0:
88,74,64041,2,0,P|143:49|202:49,1,106.666666666667,2|0,0:2|0:2,0:0:0:0:
258,96,64533,2,0,P|193:154|139:137,2,106.666666666667,10|2|2,0:2|0:2|0:2,0:0:0:0:
316,34,65352,1,2,1:2:0:0:
316,34,65516,6,0,L|502:20,1,160,2|0,1:2|1:2,0:0:0:0:
271,177,66500,2,0,L|261:118,2,53.3333333333333,10|0|0,0:2|0:0|0:0,0:0:0:0:
308,254,66992,2,0,L|286:380,1,106.666666666667,0|0,0:2|0:0,0:0:0:0:
203,354,67484,6,0,P|168:363|131:395,2,53.3333333333333,2|0|0,1:2|0:2|0:2,0:0:0:0:
222,270,67976,2,0,P|190:251|141:248,2,53.3333333333333,2|2|2,0:2|0:2|0:2,0:0:0:0:
292,221,68467,2,0,L|270:95,1,106.666666666667,10|2,0:2|1:2,0:0:0:0:
128,32,69123,1,2,1:2:0:0:
62,189,69451,6,0,L|-23:175,2,53.3333333333333,2|0|0,1:2|0:0|0:0,0:0:0:0:
131,239,69943,2,0,L|216:225,2,53.3333333333333,0|0|0,1:2|0:0|0:0,0:0:0:0:
103,319,70434,2,0,P|162:336|241:344,1,106.666666666667,12|8,0:2|0:3,0:0:0:0:
280,301,70926,1,8,0:2:0:0:
280,301,71090,2,0,P|262:267|253:230,1,53.3333333333333,8|4,0:2|0:3,0:0:0:0:
256,167,71418,6,0,P|337:122|517:110,1,266.666666666667,6|0,1:1|0:2,0:0:0:0:
463,181,72402,2,0,P|473:207|478:251,1,53.3333333333333,10|0,0:2|0:2,0:0:0:0:
398,266,72730,2,0,P|388:292|383:336,1,53.3333333333333,2|0,0:2|0:2,0:0:0:0:
446,374,73058,2,0,L|524:357,1,53.3333333333333,2|0,0:2|0:2,0:0:0:0:
508,277,73385,6,0,P|472:291|402:193,3,160,2|0|8|0,1:2|1:2|0:2|0:2,0:0:0:0:
250,5,75353,6,0,P|181:51|-3:73,1,266.666666666667,2|0,1:2|0:2,0:0:0:0:
4,159,76336,2,0,P|36:176|87:182,1,53.3333333333333,10|0,0:2|0:2,0:0:0:0:
125,225,76664,2,0,P|157:208|208:202,1,53.3333333333333,2|0,0:2|0:2,0:0:0:0:
234,143,76992,2,0,P|208:135|185:121,1,53.3333333333333,2|0,0:2|0:2,0:0:0:0:
246,61,77320,6,0,L|450:38,2,160,2|0|8,1:2|1:2|0:2,0:0:0:0:
174,215,78631,1,8,0:3:0:0:
341,248,78959,2,0,L|355:337,1,53.3333333333333,4|0,0:3|0:0,0:0:0:0:
425,340,79287,6,0,P|358:289|161:276,1,266.666666666667,6|0,1:1|0:2,0:0:0:0:
97,250,80271,2,0,P|108:225|125:205,1,53.3333333333333,10|0,0:2|0:2,0:0:0:0:
189,147,80599,2,0,P|177:122|160:102,1,53.3333333333333,2|0,0:2|0:2,0:0:0:0:
106,36,80926,2,0,L|188:10,1,53.3333333333333,2|0,0:2|0:2,0:0:0:0:
240,40,81254,6,0,B|253:-1|253:-1|380:26,3,160,2|0|10|2,1:2|1:2|0:2|0:2,0:0:0:0:
510,235,83221,6,0,P|441:338|279:365,1,266.666666666667,2|0,1:2|0:2,0:0:0:0:
250,309,84205,2,0,P|297:267|301:258,1,53.3333333333333,10|0,0:2|0:2,0:0:0:0:
326,198,84533,2,0,P|279:156|275:147,1,53.3333333333333,2|0,0:2|0:2,0:0:0:0:
204,196,84861,2,0,P|200:133|204:123,1,53.3333333333333,2|0,0:2|0:2,0:0:0:0:
247,74,85188,6,0,P|328:59|396:-12,1,160,2|0,1:2|1:2,0:0:0:0:
127,8,86172,2,0,L|135:98,1,53.3333333333333,14|0,0:2|0:0,0:0:0:0:
196,119,86500,2,0,L|178:209,1,53.3333333333333,14|0,0:2|0:0,0:0:0:0:
119,224,86828,2,0,L|148:310,1,53.3333333333333,14|0,0:2|0:0,0:0:0:0:
133,360,87156,6,0,L|61:341,2,53.3333333333333,6|0|0,1:2|0:2|0:2,0:0:0:0:
209,321,87648,2,0,P|294:354|301:369,1,106.666666666667,2|0,1:2|0:2,0:0:0:0:
373,320,88139,2,0,L|381:237,2,53.3333333333333,10|0|0,0:2|0:2|0:2,0:0:0:0:
439,375,88632,1,2,0:2:0:0:
503,318,88796,1,2,0:2:0:0:
460,243,88960,1,2,0:2:0:0:
393,296,89124,6,0,P|307:284|227:271,1,160,2|2,1:2|1:2,0:0:0:0:
31,361,90107,2,0,L|20:292,1,53.3333333333333,10|2,0:2|0:2,0:0:0:0:
7,224,90435,1,2,0:2:0:0:
91,211,90599,2,0,L|102:280,1,53.3333333333333,2|2,0:2|0:2,0:0:0:0:
115,348,90927,1,2,0:2:0:0:
198,364,91091,6,0,P|281:342|374:335,1,160,2|2,1:2|1:2,0:0:0:0:
490,117,92075,2,0,L|482:42,2,53.3333333333333,10|0|0,0:2|0:2|0:2,0:0:0:0:
427,174,92566,1,2,0:2:0:0:
365,114,92730,1,2,0:2:0:0:
279,115,92894,1,2,0:2:0:0:
250,195,93058,6,0,L|420:164,1,160,2|2,1:2|1:2,0:0:0:0:
188,32,94042,2,0,L|115:48,1,53.3333333333333,14|2,0:2|0:2,0:0:0:0:
51,60,94370,1,2,0:2:0:0:
77,150,94534,1,10,0:2:0:0:
77,150,94698,1,10,0:2:0:0:
77,150,94862,1,10,0:2:0:0:
99,231,95025,6,0,L|78:374,1,106.666666666667,6|0,1:2|0:2,0:0:0:0:
164,365,95517,2,0,L|268:343,1,106.666666666667,2|0,1:2|0:2,0:0:0:0:
248,260,96009,2,0,L|143:281,1,106.666666666667,10|0,0:2|0:2,0:0:0:0:
64,246,96501,1,2,0:2:0:0:
113,176,96665,1,2,0:2:0:0:
198,171,96829,1,2,0:2:0:0:
149,241,96992,6,0,L|169:62,1,160,2|2,1:2|1:2,0:0:0:0:
416,32,97976,2,0,L|337:25,1,53.3333333333333,10|2,0:2|0:2,0:0:0:0:
277,19,98304,1,2,0:2:0:0:
307,98,98467,2,0,L|385:104,1,53.3333333333333,2|2,0:2|0:2,0:0:0:0:
446,111,98795,1,2,0:2:0:0:
405,186,98959,6,0,P|429:265|514:263,1,160,2|2,1:2|1:2,0:0:0:0:
256,352,99944,2,0,L|245:267,2,53.3333333333333,14|0|0,0:2|0:2|0:2,0:0:0:0:
173,375,100435,1,2,0:2:0:0:
104,323,100599,1,2,0:2:0:0:
141,246,100763,1,2,1:2:0:0:
88,178,100927,6,0,L|73:100,1,53.3333333333333,6|0,1:2|0:2,0:0:0:0:
62,41,101255,1,2,1:2:0:0:
145,53,101418,2,0,L|223:38,1,53.3333333333333,14|0,1:2|0:2,0:0:0:0:
282,27,101746,1,2,1:2:0:0:
339,104,101911,1,10,0:2:0:0:
339,104,102075,1,10,0:2:0:0:
339,104,102239,1,10,0:3:0:0:
273,158,102403,2,0,L|195:143,2,53.3333333333333,10|6|6,0:3|0:3|0:3,0:0:0:0:
320,228,102894,6,0,L|334:367,1,106.666666666667,6|0,1:1|0:2,0:0:0:0:
254,373,103386,2,0,P|201:369|153:345,1,106.666666666667,2|0,0:2|0:0,0:0:0:0:
152,259,103878,2,0,P|87:317|33:300,2,106.666666666667,2|2|2,1:2|1:2|1:2,0:0:0:0:
74,236,104697,1,0,0:0:0:0:
74,236,104861,6,0,L|262:205,1,160,2|0,1:2|0:0,0:0:0:0:
449,73,105845,2,0,L|442:9,2,53.3333333333333,2|0|0,0:2|0:0|0:0,0:0:0:0:
391,135,106336,2,0,P|346:95|271:89,1,106.666666666667,0|0,0:0|0:0,0:0:0:0:
246,150,106828,6,0,L|239:214,2,53.3333333333333,2|0|0,1:2|0:2|0:2,0:0:0:0:
186,87,107320,2,0,L|173:21,2,53.3333333333333,2|2|2,0:2|0:2|0:2,0:0:0:0:
127,149,107812,2,0,L|1:138,1,106.666666666667,2|2,1:2|1:2,0:0:0:0:
62,305,108468,1,2,1:2:0:0:
194,198,108795,6,0,L|283:190,2,53.3333333333333,2|0|0,1:2|0:0|0:0,0:0:0:0:
231,275,109287,2,0,L|320:267,2,53.3333333333333,0|0|0,0:0|0:0|0:0,0:0:0:0:
177,341,109779,2,0,P|247:375|302:353,1,106.666666666667,2|0,0:0|0:0,0:0:0:0:
353,336,110271,2,0,P|320:277|319:245,1,53.3333333333333,0|0,0:0|0:0,0:0:0:0:
345,208,110599,1,0,0:0:0:0:
426,231,110762,6,0,L|503:221,2,53.3333333333333,2|0|0,1:2|0:2|0:2,0:0:0:0:
366,169,111254,2,0,L|398:94,2,53.3333333333333,2|0|0,0:2|0:2|0:2,0:0:0:0:
319,241,111746,1,2,1:2:0:0:
237,217,111910,1,0,0:2:0:0:
155,193,112074,1,0,0:2:0:0:
184,112,112238,2,0,L|169:39,2,53.3333333333333,2|0|0,0:2|0:2|0:2,0:0:0:0:
269,116,112730,6,0,L|361:99,1,53.3333333333333,2|0,1:2|0:2,0:0:0:0:
406,91,113058,1,0,0:2:0:0:
383,172,113221,2,0,L|291:189,1,53.3333333333333,2|0,0:2|0:2,0:0:0:0:
246,197,113549,1,0,0:2:0:0:
290,269,113713,2,0,L|282:343,2,53.3333333333333,2|0|0,1:2|0:2|0:2,0:0:0:0:
365,228,114205,1,2,0:2:0:0:
409,301,114369,1,2,0:2:0:0:
453,374,114533,1,2,0:2:0:0:
506,307,114697,5,6,1:1:0:0:
256,192,114861,12,8,120599,1:2:0:0:
506,307,121582,5,0,3:2:0:0:
506,307,122566,5,0,3:2:0:0:
506,307,123549,6,0,L|478:138,1,160,0|0,3:2|3:2,0:0:0:0:
480,149,124533,5,0,3:2:0:0:
480,149,125517,5,0,3:2:0:0:
480,149,126500,5,0,3:2:0:0:
480,149,127484,5,0,3:2:0:0:
480,149,128467,6,0,L|488:106,2,26.6666666666667,2|0|0,0:2|0:2|0:2,0:0:0:0:
417,208,128795,1,0,0:2:0:0:
339,172,128959,1,0,0:2:0:0:
339,172,129123,2,0,P|304:197|231:205,1,106.666666666667,0|2,0:2|0:2,0:0:0:0:
94,130,129779,1,0,0:2:0:0:
94,130,129943,2,0,L|86:83,2,26.6666666666667,0|0|0,0:2|0:2|0:2,0:0:0:0:
44,199,130271,1,0,0:2:0:0:
99,263,130435,6,0,L|220:241,1,106.666666666667,2|0,0:2|0:2,0:0:0:0:
288,256,130926,2,0,L|296:303,2,26.6666666666667,0|0|0,0:2|0:0|0:2,0:0:0:0:
337,186,131254,1,0,0:2:0:0:
337,186,131418,2,0,L|329:139,2,26.6666666666667,2|0|0,0:2|0:2|0:2,0:0:0:0:
423,214,131746,1,0,0:2:0:0:
423,214,131910,2,0,P|447:159|480:99,1,106.666666666667,0|0,0:2|0:2,0:0:0:0:
426,43,132402,6,0,L|444:0,2,26.6666666666667,2|0|0,0:2|0:2|0:2,0:0:0:0:
347,78,132730,1,0,0:2:0:0:
347,78,132894,2,0,P|302:56|241:46,1,106.666666666667,0|0,0:2|0:2,0:0:0:0:
167,77,133385,1,2,0:2:0:0:
222,238,133713,1,0,0:2:0:0:
222,238,133877,2,0,L|261:229,2,26.6666666666667,2|0|0,0:2|0:2|0:2,0:0:0:0:
161,298,134205,1,0,0:2:0:0:
161,298,134369,6,0,L|122:289,2,26.6666666666667,2|0|0,0:2|0:2|0:2,0:0:0:0:
224,355,134697,1,0,0:2:0:0:
224,355,134861,2,0,P|279:320|339:313,1,106.666666666667,0|0,0:2|0:2,0:0:0:0:
401,335,135353,1,10,0:2:0:0:
471,182,135680,1,8,0:3:0:0:
448,104,135844,1,8,0:2:0:0:
448,104,136008,2,0,L|465:40,1,53.3333333333333,8|4,0:2|0:3,0:0:0:0:
386,11,136336,6,0,P|332:14|279:20,1,106.666666666667,6|0,1:1|0:2,0:0:0:0:
205,63,136828,2,0,P|151:59|98:53,1,106.666666666667,2|0,0:2|0:2,0:0:0:0:
20,18,137320,2,0,B|53:38|53:38|39:127,2,106.666666666667,2|2|2,1:2|1:2|1:2,0:0:0:0:
116,158,138303,6,0,P|166:95|254:86,1,160,2|0,1:2|0:0,0:0:0:0:
302,247,139123,1,0,0:0:0:0:
302,247,139287,2,0,L|192:223,1,106.666666666667,2|0,0:2|0:0,0:0:0:0:
122,183,139779,1,0,0:0:0:0:
282,119,140107,1,0,0:0:0:0:
282,119,140271,6,0,L|275:44,1,53.3333333333333,2|0,1:2|0:2,0:0:0:0:
339,6,140598,1,0,0:2:0:0:
398,67,140762,2,0,L|506:54,1,106.666666666667,2|2,0:2|0:2,0:0:0:0:
511,139,141254,2,0,P|477:191|423:192,2,106.666666666667,2|2|2,1:2|1:2|1:2,0:0:0:0:
364,50,142238,6,0,L|348:227,1,160,2|0,1:2|0:0,0:0:0:0:
215,313,143057,1,0,0:0:0:0:
215,313,143221,2,0,L|224:397,2,53.3333333333333,2|0|0,0:0|0:0|0:0,0:0:0:0:
132,287,143713,2,0,L|62:275,1,53.3333333333333,0|0,0:0|0:0,0:0:0:0:
32,206,144041,1,0,0:0:0:0:
102,157,144205,6,0,L|93:73,2,53.3333333333333,2|0|0,1:2|0:2|0:2,0:0:0:0:
171,207,144697,2,0,P|221:200|285:197,1,106.666666666667,2|0,0:2|0:2,0:0:0:0:
354,159,145189,6,0,L|363:243,2,53.3333333333333,2|0|0,1:2|0:2|0:2,0:0:0:0:
285,109,145681,2,0,P|235:116|171:119,1,106.666666666667,2|2,0:2|0:2,0:0:0:0:
102,157,146172,6,0,L|93:73,2,53.3333333333333,2|0|0,1:2|0:2|0:2,0:0:0:0:
171,207,146664,2,0,P|221:200|285:197,1,106.666666666667,2|0,0:2|0:2,0:0:0:0:
354,159,147156,6,0,L|363:243,2,53.3333333333333,2|0|0,1:2|0:2|0:2,0:0:0:0:
285,109,147648,2,0,P|235:116|171:119,1,106.666666666667,2|2,0:2|0:2,0:0:0:0:
102,157,148139,5,10,1:2:0:0:
64,80,148303,1,10,1:2:0:0:
141,42,148467,1,10,1:2:0:0:
179,119,148631,1,10,1:2:0:0:
410,157,149123,5,10,1:2:0:0:
448,80,149287,1,10,1:2:0:0:
371,42,149451,1,10,1:2:0:0:
333,119,149615,1,10,1:2:0:0:
256,352,150107,5,6,1:1:0:0:
256,192,150271,12,0,157976,0:0:0:0:
