osu file format v14

[General]
AudioFilename: audio.mp3
AudioLeadIn: 0
PreviewTime: 74953
Countdown: 0
SampleSet: Soft
StackLeniency: 0.7
Mode: 0
LetterboxInBreaks: 0
WidescreenStoryboard: 1

[Editor]
Bookmarks: 5353,17353,26953,38953,48553,56953,58153,72553,74953,88153,89353,91753,95653
DistanceSpacing: 1
BeatDivisor: 4
GridSize: 4
TimelineZoom: 3.199999

[Metadata]
Title:Doku Ryuu no Cobra
TitleUnicode:毒竜のコブラ
Artist:Takanashi Yasuharu
ArtistUnicode:高梨康治
Creator:Aerous
Version:Insane
Source:FAIRY TAIL
Tags:フェアリーテイル Aistre alphabet venax Flask dora- doraemonelf fairy tail japanese anime Lucy Heartfilia Natsu Dragneel Erza Scarlet Gray Fullbuster Happy ナツ ルーシィ ハッピー ost original soundtrack vol.3 instrumental dokuryuu kobura rock オリジナルサウンドトラック
BeatmapID:3192083
BeatmapSetID:1561963

[Difficulty]
HPDrainRate:6
CircleSize:4
OverallDifficulty:7.5
ApproachRate:9
SliderMultiplier:1.7
SliderTickRate:1

[Events]
//Background and Video events
0,0,"Webp.net-resizeimage (4).jpg",0,0
//Break Periods
//Storyboard Layer 0 (Background)
//Storyboard Layer 1 (Fail)
//Storyboard Layer 2 (Pass)
//Storyboard Layer 3 (Foreground)
//Storyboard Layer 4 (Overlay)
//Storyboard Sound Samples

[TimingPoints]
553,300,4,2,1,65,1,0
2353,-200,4,2,2,65,0,0
2653,-200,4,2,3,65,0,0
2953,-200,4,2,1,65,0,0
3253,-100,4,2,1,65,0,0
4753,-100,4,2,3,65,0,0
5053,-100,4,2,4,65,0,0
5353,-100,4,2,5,70,0,1
5653,-100,4,2,3,70,0,1
6553,-100,4,2,2,70,0,1
6853,-100,4,2,4,70,0,1
7003,-100,4,2,3,70,0,1
7153,-100,4,2,4,70,0,1
7303,-100,4,2,3,70,0,1
7453,-100,4,2,4,70,0,1
7603,-100,4,2,3,70,0,1
7753,-100,4,2,6,70,0,1
8053,-100,4,2,3,70,0,1
8953,-100,4,2,2,70,0,1
9253,-100,4,2,4,70,0,1
9403,-100,4,2,3,70,0,1
9553,-100,4,2,4,70,0,1
9703,-100,4,2,3,70,0,1
9853,-100,4,2,4,70,0,1
9928,-100,4,2,3,70,0,1
10153,-100,4,2,7,75,0,1
10453,-100,4,2,8,75,0,1
11353,-100,4,2,9,75,0,1
11653,-100,4,2,10,75,0,1
11803,-100,4,2,3,75,0,1
11953,-100,4,2,10,75,0,1
12103,-100,4,2,3,75,0,1
12253,-100,4,2,10,75,0,1
12403,-100,4,2,3,75,0,1
12553,-100,4,2,7,75,0,1
12853,-100,4,2,5,75,0,1
13153,-100,4,2,9,75,0,1
13453,-100,4,2,5,75,0,1
13753,-100,4,2,11,75,0,1
13903,-100,4,2,2,75,0,1
14053,-100,4,2,10,75,0,1
14203,-100,4,2,9,75,0,1
14653,-100,4,2,6,75,0,1
14803,-100,4,2,2,75,0,1
14953,-100,4,2,12,65,0,1
15253,-100,4,2,3,65,0,1
16153,-100,4,2,4,65,0,1
16903,-100,4,2,1,65,0,0
17053,-200,4,2,1,65,0,0
17353,-111.111111111111,4,2,13,55,0,0
17652,-111.111111111111,4,2,7,55,0,0
17803,-111.111111111111,4,2,3,55,0,0
17953,-111.111111111111,4,2,4,55,0,0
18102,-111.111111111111,4,2,3,55,0,0
18253,-111.111111111111,4,2,7,55,0,0
18402,-111.111111111111,4,2,3,55,0,0
18553,-111.111111111111,4,2,4,55,0,0
18702,-111.111111111111,4,2,3,55,0,0
18853,-111.111111111111,4,2,7,55,0,0
19002,-111.111111111111,4,2,3,55,0,0
19153,-111.111111111111,4,2,4,55,0,0
19302,-111.111111111111,4,2,3,55,0,0
19453,-111.111111111111,4,2,7,55,0,0
19602,-111.111111111111,4,2,3,55,0,0
19753,-111.111111111111,4,2,4,55,0,0
19903,-111.111111111111,4,2,3,55,0,0
20053,-111.111111111111,4,2,7,55,0,0
20203,-111.111111111111,4,2,3,55,0,0
20353,-111.111111111111,4,2,4,55,0,0
20502,-111.111111111111,4,2,3,55,0,0
20653,-111.111111111111,4,2,7,55,0,0
20953,-76.9230769230769,4,2,11,60,0,0
21552,-76.9230769230769,4,2,2,60,0,0
21853,-76.9230769230769,4,2,3,60,0,0
22153,-99.9999999999999,4,2,14,65,0,0
22453,-99.9999999999999,4,2,13,65,0,0
22753,-99.9999999999999,4,2,12,65,0,0
22903,-99.9999999999999,4,2,3,65,0,0
23053,-99.9999999999999,4,2,13,65,0,0
23353,-99.9999999999999,4,2,12,65,0,0
23503,-99.9999999999999,4,2,3,65,0,0
23653,-99.9999999999999,4,2,13,65,0,0
23953,-99.9999999999999,4,2,10,65,0,0
24103,-99.9999999999999,4,2,2,65,0,0
24253,-99.9999999999999,4,2,13,65,0,0
24553,-99.9999999999999,4,2,12,65,0,0
24853,-99.9999999999999,4,2,13,65,0,0
25153,-99.9999999999999,4,2,10,65,0,0
25303,-99.9999999999999,4,2,1,65,0,0
25453,-99.9999999999999,4,2,14,65,0,0
25753,-76.9230769230769,4,2,15,65,0,0
25902,-76.9230769230769,4,2,3,65,0,0
26053,-76.9230769230769,4,2,15,65,0,0
26203,-76.9230769230769,4,2,3,65,0,0
26353,-76.9230769230769,4,2,15,65,0,0
26502,-76.9230769230769,4,2,3,65,0,0
26653,-76.9230769230769,4,2,4,65,0,0
26803,-76.9230769230769,4,2,6,65,0,0
26953,-125,4,2,6,65,0,0
27403,-125,4,2,3,65,0,0
27553,-125,4,2,6,65,0,0
27703,-125,4,2,8,65,0,0
28153,-125,4,2,3,65,0,0
28303,-125,4,2,6,65,0,0
28453,-125,4,2,9,65,0,0
28753,-125,4,2,6,65,0,0
29803,-125,4,2,3,65,0,0
29953,-125,4,2,6,65,0,0
30103,-125,4,2,8,65,0,0
30553,-125,4,2,3,65,0,0
30703,-125,4,2,6,65,0,0
30853,-125,4,2,8,65,0,0
31153,-125,4,2,16,65,0,0
31303,-125,4,2,3,65,0,0
31753,-111.111111111111,4,2,16,65,0,0
32052,-111.111111111111,4,2,3,65,0,0
32353,-111.111111111111,4,2,2,65,0,0
32428,-111.111111111111,4,2,3,65,0,0
32502,-111.111111111111,4,2,3,65,0,0
33553,-111.111111111111,4,2,2,65,0,0
34602,-111.111111111111,4,2,3,65,0,0
34753,-111.111111111111,4,2,2,65,0,0
34903,-111.111111111111,4,2,3,65,0,0
35053,-111.111111111111,4,2,2,65,0,0
35502,-111.111111111111,4,2,3,65,0,0
35802,-111.111111111111,4,2,2,65,0,0
35953,-111.111111111111,4,2,3,65,0,0
36253,-111.111111111111,4,2,2,65,0,0
36553,-166.666666666667,4,2,1,65,0,0
38653,-166.666666666667,4,2,17,65,0,0
38953,-90.909090909091,4,2,18,70,0,1
39253,-90.909090909091,4,2,13,70,0,1
39553,-90.909090909091,4,2,3,70,0,1
39853,-90.909090909091,4,2,14,70,0,1
40153,-90.909090909091,4,2,3,70,0,1
40453,-90.909090909091,4,2,13,70,0,1
40753,-90.909090909091,4,2,3,70,0,1
41053,-90.909090909091,4,2,13,70,0,1
41353,-90.909090909091,4,2,2,70,0,1
41503,-90.909090909091,4,2,3,70,0,1
41653,-90.909090909091,4,2,13,70,0,1
41803,-90.909090909091,4,2,3,70,0,1
42253,-90.909090909091,4,2,14,70,0,1
42403,-90.909090909091,4,2,3,70,0,1
42553,-71.4285714285714,4,2,4,70,0,1
42703,-71.4285714285714,4,2,3,70,0,1
42853,-71.4285714285714,4,2,4,70,0,1
43003,-71.4285714285714,4,2,2,70,0,1
43153,-71.4285714285714,4,2,4,70,0,1
43303,-71.4285714285714,4,2,1,70,0,1
43453,-71.4285714285714,4,2,4,70,0,1
43603,-71.4285714285714,4,2,16,70,0,1
43753,-71.4285714285714,4,2,16,70,0,1
44053,-90.9090909090909,4,2,13,70,0,1
44353,-90.9090909090909,4,2,3,70,0,1
44653,-90.9090909090909,4,2,14,70,0,1
44953,-90.9090909090909,4,2,3,70,0,1
45253,-90.9090909090909,4,2,13,70,0,1
45553,-90.9090909090909,4,2,3,70,0,1
45853,-90.9090909090909,4,2,13,70,0,1
46153,-90.9090909090909,4,2,2,70,0,1
46303,-90.9090909090909,4,2,3,70,0,1
46453,-90.9090909090909,4,2,13,70,0,1
46603,-90.9090909090909,4,2,3,70,0,1
47053,-90.9090909090909,4,2,14,70,0,1
47203,-90.9090909090909,4,2,3,70,0,1
47353,-71.4285714285714,4,2,4,70,0,1
47503,-71.4285714285714,4,2,3,70,0,1
47653,-71.4285714285714,4,2,4,70,0,1
47803,-71.4285714285714,4,2,2,70,0,1
47953,-71.4285714285714,4,2,4,70,0,1
48103,-71.4285714285714,4,2,1,70,0,1
48253,-71.4285714285714,4,2,4,70,0,1
48403,-71.4285714285714,4,2,6,70,0,1
48553,-71.4285714285714,4,2,6,70,0,1
48853,-71.4285714285714,4,2,13,70,0,1
49153,-90.9090909090909,4,2,8,70,0,1
49453,-90.9090909090909,4,2,14,70,0,1
49753,-90.9090909090909,4,2,8,70,0,1
50053,-90.9090909090909,4,2,13,70,0,1
50353,-90.9090909090909,4,2,8,70,0,1
50653,-90.9090909090909,4,2,13,70,0,1
50953,-90.9090909090909,4,2,9,70,0,1
51103,-90.9090909090909,4,2,3,70,0,1
51253,-90.9090909090909,4,2,13,70,0,1
51403,-90.9090909090909,4,2,8,70,0,1
51853,-90.9090909090909,4,2,14,70,0,1
52003,-90.9090909090909,4,2,3,70,0,1
52153,-71.4285714285714,4,2,19,70,0,1
52303,-71.4285714285714,4,2,20,70,0,1
52453,-71.4285714285714,4,2,19,70,0,1
52603,-71.4285714285714,4,2,17,70,0,1
52753,-71.4285714285714,4,2,19,70,0,1
52903,-71.4285714285714,4,2,17,70,0,1
53053,-71.4285714285714,4,2,19,70,0,1
53203,-71.4285714285714,4,2,17,70,0,1
53353,-90.9090909090909,4,2,5,70,0,1
53653,-90.9090909090909,4,2,8,70,0,1
53953,-90.9090909090909,4,2,12,70,0,1
54103,-90.9090909090909,4,2,3,70,0,1
54253,-90.9090909090909,4,2,5,70,0,1
54553,-90.9090909090909,4,2,12,70,0,1
54703,-90.9090909090909,4,2,8,70,0,1
55153,-90.9090909090909,4,2,12,70,0,1
55303,-90.9090909090909,4,2,8,70,0,1
55753,-90.9090909090909,4,2,9,70,0,1
55903,-90.9090909090909,4,2,8,70,0,1
56353,-90.9090909090909,4,2,12,70,0,1
56503,-90.9090909090909,4,2,3,70,0,1
56653,-90.9090909090909,4,2,5,70,0,1
56803,-90.9090909090909,4,2,3,70,0,1
56953,-90.9090909090909,4,2,21,70,0,1
57028,-90.9090909090909,4,2,3,70,0,1
57253,-90.9090909090909,4,2,21,70,0,1
57328,-90.9090909090909,4,2,2,70,0,1
57553,-71.4285714285714,4,2,21,70,0,1
57627,-71.4285714285714,4,2,2,70,0,1
58153,-71.4285714285714,4,2,1,55,0,0
58453,-100,4,2,1,55,0,0
59953,-71.4285714285714,4,2,2,55,0,0
60253,-71.4285714285714,4,2,3,55,0,0
60553,-71.4285714285714,4,2,1,55,0,0
60853,-100,4,2,1,55,0,0
62353,-71.4285714285714,4,2,3,55,0,0
62653,-71.4285714285714,4,2,4,55,0,0
62953,-71.4285714285714,4,2,1,60,0,0
63253,-100,4,2,1,60,0,0
64753,-71.4285714285714,4,2,2,60,0,0
65053,-71.4285714285714,4,2,3,60,0,0
65353,-71.4285714285714,4,2,1,60,0,0
65653,-100,4,2,1,60,0,0
67153,-71.4285714285714,4,2,3,60,0,0
67453,-71.4285714285714,4,2,4,60,0,0
67753,-71.4285714285714,4,2,1,60,0,0
68053,-100,4,2,1,60,0,0
69553,-71.4285714285714,4,2,2,60,0,0
69853,-71.4285714285714,4,2,3,60,0,0
70153,-71.4285714285714,4,2,1,60,0,0
70453,-100,4,2,1,60,0,0
71953,-71.4285714285714,4,2,22,60,0,0
72028,-71.4285714285714,4,2,1,60,0,0
72177,-71.4285714285714,4,2,1,60,0,0
72253,-71.4285714285714,4,2,21,60,0,0
72328,-71.4285714285714,4,2,2,60,0,0
72402,-71.4285714285714,4,2,2,60,0,0
72553,-76.9230769230769,4,2,2,60,0,0
72753,-76.9230769230769,4,2,17,60,0,0
73153,-76.9230769230769,4,2,3,60,0,0
73353,-76.9230769230769,4,2,17,60,0,0
73753,-76.9230769230769,4,2,3,60,0,0
74953,-76.9230769230769,4,2,5,70,0,1
75253,-76.9230769230769,4,2,3,70,0,1
75553,-83.3333333333333,4,2,3,70,0,1
76153,-83.3333333333333,4,2,2,70,0,1
76453,-83.3333333333333,4,2,4,70,0,1
76602,-83.3333333333333,4,2,3,70,0,1
76753,-83.3333333333333,4,2,4,70,0,1
76903,-83.3333333333333,4,2,3,70,0,1
77053,-83.3333333333333,4,2,4,70,0,1
77203,-83.3333333333333,4,2,3,70,0,1
77353,-83.3333333333333,4,2,6,70,0,1
77653,-83.3333333333333,4,2,3,70,0,1
78553,-83.3333333333333,4,2,2,70,0,1
78853,-83.3333333333333,4,2,4,70,0,1
79002,-83.3333333333333,4,2,3,70,0,1
79153,-83.3333333333333,4,2,4,70,0,1
79303,-83.3333333333333,4,2,3,70,0,1
79453,-83.3333333333333,4,2,4,70,0,1
79602,-83.3333333333333,4,2,3,70,0,1
79753,-83.3333333333333,4,2,7,75,0,1
80053,-83.3333333333333,4,2,8,75,0,1
80953,-83.3333333333333,4,2,9,75,0,1
81253,-83.3333333333333,4,2,10,75,0,1
81402,-83.3333333333333,4,2,3,75,0,1
81553,-83.3333333333333,4,2,10,75,0,1
81703,-83.3333333333333,4,2,3,75,0,1
81853,-83.3333333333333,4,2,10,75,0,1
82003,-83.3333333333333,4,2,3,75,0,1
82153,-83.3333333333333,4,2,7,75,0,1
82453,-83.3333333333333,4,2,5,75,0,1
82753,-83.3333333333333,4,2,9,75,0,1
83053,-83.3333333333333,4,2,5,75,0,1
83353,-83.3333333333333,4,2,11,75,0,1
83502,-83.3333333333333,4,2,2,75,0,1
83653,-83.3333333333333,4,2,10,75,0,1
83802,-83.3333333333333,4,2,9,75,0,1
84253,-83.3333333333333,4,2,6,75,0,1
84403,-83.3333333333333,4,2,2,75,0,1
84553,-83.3333333333333,4,2,7,80,0,1
84702,-83.3333333333333,4,2,4,80,0,1
84853,-83.3333333333333,4,2,8,80,0,1
85753,-83.3333333333333,4,2,9,80,0,1
85903,-83.3333333333333,4,2,5,80,0,1
86053,-83.3333333333333,4,2,10,80,0,1
86202,-83.3333333333333,4,2,8,80,0,1
86353,-83.3333333333333,4,2,10,80,0,1
86503,-83.3333333333333,4,2,8,80,0,1
86653,-83.3333333333333,4,2,10,80,0,1
86802,-83.3333333333333,4,2,8,80,0,1
86953,-83.3333333333333,4,2,7,80,0,1
87103,-83.3333333333333,4,2,5,80,0,1
87553,-83.3333333333333,4,2,9,80,0,1
87703,-83.3333333333333,4,2,5,80,0,1
88153,-83.3333333333333,4,2,23,80,0,1
88228,-83.3333333333333,4,2,1,80,0,1
88303,-83.3333333333333,4,2,5,80,0,1
88753,-83.3333333333333,4,2,23,80,0,1
88827,-83.3333333333333,4,2,1,80,0,1
88902,-83.3333333333333,4,2,5,80,0,1
89353,-83.3333333333333,4,2,12,70,0,1
89653,-83.3333333333333,4,2,3,70,0,1
90553,-83.3333333333333,4,2,4,70,0,1
91303,-83.3333333333333,4,2,3,70,0,1
91453,-100,4,2,3,70,0,1
91753,-100,4,2,3,70,0,0
94153,-100,4,2,4,70,0,0
94903,-166.666666666667,4,2,2,70,0,0
95652,-166.666666666667,4,2,99,5,0,0

[Colours]
Combo1 : 255,189,157
Combo2 : 39,155,241
Combo3 : 100,100,255
Combo4 : 255,89,89

[HitObjects]
117,216,553,5,4,2:0:0:0:
233,156,703,1,4,2:0:0:0:
128,300,853,2,0,L|114:199,1,85,2|2,2:0|2:0,0:0:0:0:
216,348,1153,2,0,L|230:247,1,85,2|2,2:0|2:0,0:0:0:0:
416,166,1453,5,4,2:0:0:0:
300,106,1603,1,4,2:0:0:0:
405,250,1753,2,0,L|419:149,1,85,2|2,2:0|2:0,0:0:0:0:
317,298,2053,2,0,L|303:197,1,85,2|2,2:0|2:0,0:0:0:0:
365,106,2353,6,0,B|300:88|300:88|300:118,1,85,4|4,1:2|1:2,0:0:0:0:
228,226,2953,5,4,2:0:0:0:
109,143,3103,1,4,2:0:0:0:
214,250,3253,2,0,P|213:294|214:346,1,85,2|2,2:0|2:0,0:0:0:0:
100,255,3553,2,0,P|100:212|99:170,1,85,2|2,2:0|2:0,0:0:0:0:
287,147,3853,5,4,2:0:0:0:
406,230,4003,1,4,2:0:0:0:
301,123,4153,2,0,P|301:78|301:27,1,85,10|10,2:3|2:3,0:0:0:0:
415,118,4453,2,0,P|414:160|415:202,1,85,6|6,2:3|2:3,0:0:0:0:
365,325,4753,6,0,B|249:323|249:323|298:279,1,170,4|4,1:2|1:2,0:0:0:0:
294,196,5353,6,0,P|282:145|279:99,1,85,6|2,3:2|2:0,0:0:0:0:
403,147,5653,2,0,P|398:189|388:230,1,85,2|2,1:2|2:0,0:0:0:0:
315,324,5953,1,2,3:2:0:0:
315,324,6028,1,2,2:0:0:0:
315,324,6103,2,0,P|272:319|231:309,1,85,2|2,3:2|1:2,0:0:0:0:
157,241,6403,1,2,2:0:0:0:
247,178,6553,5,2,3:2:0:0:
141,245,6703,1,2,3:2:0:0:
113,118,6853,2,0,P|98:61|92:20,1,85,6|2,1:2|3:2,0:0:0:0:
231,155,7153,2,0,P|243:114|251:73,1,85,6|2,1:2|3:2,0:0:0:0:
122,221,7453,1,6,1:2:0:0:
230,278,7603,1,2,3:2:0:0:
119,336,7753,6,0,P|64:313|14:306,1,85,6|2,3:2|2:0,0:0:0:0:
240,294,8053,2,0,P|278:276|319:266,1,85,2|2,1:2|2:0,0:0:0:0:
412,179,8353,1,2,3:2:0:0:
412,179,8428,1,2,2:0:0:0:
412,179,8503,2,0,P|355:154|314:144,1,85,2|2,3:2|1:2,0:0:0:0:
245,119,8803,1,2,2:0:0:0:
336,57,8953,5,2,3:2:0:0:
244,25,9103,1,2,3:2:0:0:
230,139,9253,2,0,B|231:205|242:254,1,85,6|2,1:2|3:2,0:0:0:0:
290,330,9553,1,6,1:2:0:0:
323,224,9703,1,2,3:2:0:0:
191,280,9853,2,0,P|158:270|134:268,2,42.5,6|2|2,1:2|3:2|3:2,0:0:0:0:
327,139,10153,6,0,P|323:172|322:223,1,85,6|2,3:2|2:0,0:0:0:0:
429,153,10453,2,0,P|427:110|424:68,1,85,2|2,1:2|2:0,0:0:0:0:
482,248,10753,1,6,3:2:0:0:
482,248,10828,1,2,2:0:0:0:
482,248,10903,2,0,P|416:253|383:250,1,85,2|2,3:2|1:2,0:0:0:0:
304,238,11203,1,2,2:0:0:0:
317,111,11353,5,6,3:2:0:0:
299,256,11503,1,2,3:2:0:0:
183,210,11653,2,0,P|122:200|92:191,1,85,6|2,1:2|3:2,0:0:0:0:
279,340,11953,2,0,P|340:330|370:321,1,85,6|2,1:2|3:2,0:0:0:0:
203,183,12253,1,6,1:2:0:0:
323,130,12403,1,2,3:2:0:0:
215,16,12553,6,0,P|211:73|217:129,1,85,6|2,3:2|3:2,0:0:0:0:
334,156,12853,2,0,P|335:113|331:71,1,85,2|2,1:2|3:2,0:0:0:0:
180,198,13153,1,6,1:2:0:0:
180,198,13228,1,2,2:0:0:0:
180,198,13303,2,0,P|128:186|71:177,1,85,2|2,3:2|1:2,0:0:0:0:
19,163,13603,1,2,3:2:0:0:
120,281,13753,5,6,1:2:0:0:
282,257,13903,1,2,3:2:0:0:
185,227,14053,1,6,1:2:0:0:
246,343,14203,1,2,3:2:0:0:
315,239,14353,2,0,L|426:226,1,85,6|2,3:2|1:2,0:0:0:0:
228,360,14653,2,0,L|117:347,1,85,10|6,1:3|2:3,0:0:0:0:
252,141,14953,6,0,P|240:91|239:20,1,85,6|2,1:2|1:2,0:0:0:0:
315,219,15253,2,0,P|356:211|397:198,1,85,10|10,2:3|2:3,0:0:0:0:
220,242,15553,2,0,P|191:273|169:309,1,85,10|6,2:3|2:3,0:0:0:0:
346,374,15853,2,0,P|323:337|294:306,1,85,6|6,2:3|2:3,0:0:0:0:
146,193,16153,5,6,1:2:0:0:
307,141,16303,1,6,1:2:0:0:
178,83,16453,1,6,1:2:0:0:
342,24,16603,1,6,1:2:0:0:
245,201,16903,5,0,3:0:0:0:
245,201,16978,1,0,3:0:0:0:
245,201,17053,2,0,P|254:242|253:280,1,63.75,0|0,1:0|0:0,0:0:0:0:
258,295,17353,6,0,P|298:274|413:279,1,152.999995330811,4|0,3:2|1:0,0:0:0:0:
483,317,17803,1,2,2:0:0:0:
468,218,17953,2,0,L|478:143,1,76.4999976654053,0|2,3:0|2:0,0:0:0:0:
382,102,18253,2,0,L|391:177,1,76.4999976654053,0|2,1:0|2:0,0:0:0:0:
325,47,18553,6,0,P|370:26|426:30,1,76.4999976654053,0|2,3:0|2:0,0:0:0:0:
215,101,18853,2,0,P|254:105|286:123,1,76.4999976654053,0|2,1:0|2:0,0:0:0:0:
117,206,19153,2,0,P|168:182|225:188,1,114.749996498108,0|0,3:0|2:0,0:0:0:0:
260,202,19453,2,0,L|251:300,1,76.4999976654053,0|0,1:0|2:0,0:0:0:0:
362,244,19753,5,0,3:0:0:0:
349,149,19903,1,2,2:0:0:0:
445,159,20053,1,0,1:0:0:0:
336,132,20203,1,2,2:0:0:0:
355,271,20353,2,0,L|434:269,1,76.4999976654053,0|2,3:0|2:0,0:0:0:0:
377,372,20653,2,0,L|283:354,1,76.4999976654053,8|0,1:2|0:0,0:0:0:0:
80,332,20953,6,0,B|169:269|169:269|289:290,2,220.999989883423,4|4|4,2:0|2:0|1:2,0:0:0:0:
190,356,21703,1,0,3:0:0:0:
101,212,21853,2,0,P|88:149|87:95,1,110.499994941712,4|0,1:2|0:0,0:0:0:0:
208,32,22153,6,0,P|205:87|195:135,1,85,6|0,3:2|0:0,0:0:0:0:
261,208,22453,1,2,1:2:0:0:
272,202,22528,1,2,2:0:0:0:
283,197,22603,1,2,2:0:0:0:
364,100,22753,1,2,3:2:0:0:
228,68,22903,1,2,3:2:0:0:
300,191,23053,2,0,P|288:258|280:300,1,85,2|2,1:2|2:0,0:0:0:0:
400,344,23353,6,0,P|392:302|384:260,1,85,2|2,3:2|3:2,0:0:0:0:
454,168,23653,1,2,1:2:0:0:
475,278,23803,1,2,2:0:0:0:
330,183,23953,1,2,3:2:0:0:
330,183,24028,1,2,2:0:0:0:
330,183,24103,1,2,3:2:0:0:
299,306,24253,2,0,P|243:296|198:289,1,85,2|0,1:2|0:0,0:0:0:0:
124,213,24553,5,2,3:2:0:0:
225,191,24703,1,2,2:0:0:0:
100,218,24853,1,2,1:2:0:0:
120,94,25003,1,2,2:0:0:0:
65,224,25153,2,0,P|58:283|56:321,1,85,2|0,3:2|3:0,0:0:0:0:
147,94,25453,2,0,P|143:51|138:9,1,85,2|2,1:2|2:0,0:0:0:0:
263,186,25753,6,0,P|340:180|383:142,1,110.499994941712,6|2,1:2|3:2,0:0:0:0:
184,120,26053,1,6,1:2:0:0:
288,62,26203,1,2,3:2:0:0:
301,270,26353,2,0,P|224:264|181:226,1,110.499994941712,6|2,1:2|3:2,0:0:0:0:
386,180,26653,1,6,1:2:0:0:
370,325,26803,1,2,3:2:0:0:
332,121,26953,6,0,P|404:103|466:160,1,136,14|2,3:2|3:2,0:0:0:0:
386,180,27403,1,2,2:0:0:0:
265,165,27553,2,0,P|253:112|258:78,1,68,10|2,1:2|2:0,0:0:0:0:
372,197,27853,2,0,P|371:230|360:263,1,68,6|2,3:2|2:0,0:0:0:0:
296,332,28153,5,10,3:2:0:0:
200,243,28303,2,0,L|105:231,1,68,2|6,1:2|3:2,0:0:0:0:
54,181,28603,1,6,3:2:0:0:
68,326,28753,2,0,L|135:317,1,68,10|0,1:2|3:0,0:0:0:0:
154,160,29053,2,0,L|86:151,1,68,2|0,1:2|3:0,0:0:0:0:
253,224,29353,6,0,B|349:191|349:191|403:213,1,136,14|2,3:2|3:2,0:0:0:0:
307,119,29803,1,2,2:0:0:0:
344,275,29953,2,0,L|338:365,1,68,10|2,1:2|2:0,0:0:0:0:
294,133,30253,2,0,L|289:65,1,68,6|2,3:2|2:0,0:0:0:0:
166,52,30553,5,10,3:2:0:0:
199,154,30703,1,2,1:2:0:0:
307,119,30853,1,6,3:2:0:0:
180,171,31003,1,6,3:2:0:0:
289,227,31153,2,0,L|364:210,1,68,10|8,1:3|2:3,0:0:0:0:
190,287,31453,2,0,L|256:302,1,68,10|8,2:3|2:3,0:0:0:0:
51,192,31753,6,0,P|98:205|190:134,1,152.999995330811,6|2,3:2|1:2,0:0:0:0:
200,72,32203,1,2,2:0:0:0:
97,35,32353,2,0,P|96:73|99:112,1,76.4999976654053,10|2,3:2|3:2,0:0:0:0:
256,199,32653,2,0,P|259:160|257:122,1,76.4999976654053,2|2,1:2|2:0,0:0:0:0:
172,278,32953,5,10,3:2:0:0:
269,227,33103,1,2,3:2:0:0:
154,183,33253,1,6,1:2:0:0:
169,305,33403,1,2,2:0:0:0:
91,241,33553,2,0,P|53:233|15:226,1,76.4999976654053,10|0,3:2|3:0,0:0:0:0:
257,317,33853,2,0,P|317:305|360:298,1,76.4999976654053,2|0,1:2|3:0,0:0:0:0:
411,119,34153,6,0,P|346:107|289:140,1,114.749996498108,10|0,3:2|0:0,0:0:0:0:
289,158,34453,2,0,P|293:201|304:252,1,76.4999976654053,2|2,1:2|2:0,0:0:0:0:
397,311,34753,1,10,2:3:0:0:
363,183,34903,1,10,2:3:0:0:
230,257,35053,1,6,2:3:0:0:
379,175,35203,1,6,2:3:0:0:
208,136,35353,6,0,P|199:88|195:60,1,76.4999976654053,2|2,1:2|3:2,0:0:0:0:
317,231,35653,2,0,P|311:268|304:306,1,76.4999976654053,2|2,3:2|1:2,0:0:0:0:
214,246,35953,1,2,3:2:0:0:
295,140,36103,1,2,3:2:0:0:
165,117,36253,1,6,1:2:0:0:
314,53,36403,1,0,0:0:0:0:
316,230,36553,6,0,P|357:258|408:259,1,101.999996887207,2|0,1:2|0:0,0:0:0:0:
295,140,37003,2,0,P|286:90|251:55,1,101.999996887207,2|0,1:2|0:0,0:0:0:0:
211,197,37453,2,0,P|175:208|148:235,1,76.4999976654053,2|0,1:2|0:0,0:0:0:0:
106,225,37753,6,0,P|77:221|43:222,2,50.9999984436036,8|8|8,2:3|2:3|2:3,0:0:0:0:
176,323,38203,2,0,P|201:321|226:319,2,50.9999984436036,4|4|4,2:3|2:3|2:3,0:0:0:0:
315,268,38653,1,6,3:2:0:0:
231,204,38803,1,6,3:2:0:0:
422,249,38953,6,0,P|356:241|322:126,1,187.000005706787,6|2,3:2|1:2,0:0:0:0:
331,104,39328,1,2,2:0:0:0:
331,104,39403,1,2,2:0:0:0:
490,199,39553,2,0,P|502:253|496:312,1,93.5000028533936,2|2,3:2|3:2,0:0:0:0:
352,358,39853,2,0,P|340:312|341:266,1,93.5000028533936,2|0,1:2|0:0,0:0:0:0:
397,172,40153,5,2,3:2:0:0:
283,95,40303,1,2,3:2:0:0:
179,234,40453,2,0,P|222:231|276:212,1,93.5000028533936,2|2,1:2|2:0,0:0:0:0:
117,309,40753,2,0,P|160:324|207:327,1,93.5000028533936,2|2,3:2|3:2,0:0:0:0:
210,154,41053,2,0,P|219:108|215:61,1,93.5000028533936,2|0,1:2|0:0,0:0:0:0:
115,13,41353,6,0,P|106:59|110:106,1,93.5000028533936,2|2,3:2|3:2,0:0:0:0:
150,235,41653,1,2,1:2:0:0:
50,171,41803,1,2,3:2:0:0:
71,309,41953,1,2,3:2:0:0:
59,317,42028,1,2,2:0:0:0:
47,325,42103,1,2,3:2:0:0:
190,232,42253,2,0,P|248:252|310:257,1,93.5000028533936,2|2,1:2|3:2,0:0:0:0:
476,130,42553,6,0,B|448:133|435:149|435:149|407:149|380:131|380:131|340:152|263:107,1,178.499994552612,6|0,1:2|0:0,0:0:0:0:
295,90,42853,2,0,P|205:72|180:141,1,178.499994552612,6|0,1:2|0:0,0:0:0:0:
182,188,43153,2,0,B|162:247|162:247|184:295|184:295|186:382,1,178.499994552612,6|0,1:2|0:0,0:0:0:0:
136,354,43453,2,0,P|150:290|276:278,1,178.499994552612,6|0,1:2|0:0,0:0:0:0:
288,272,43753,5,6,3:2:0:0:
168,166,43903,1,0,3:2:0:0:
313,108,44053,2,0,P|325:55|330:2,1,93.5000028533936,2|2,1:2|2:0,0:0:0:0:
177,51,44353,2,0,P|182:97|193:142,1,93.5000028533936,2|2,3:2|3:2,0:0:0:0:
337,237,44653,2,0,P|388:219|463:214,1,93.5000028533936,2|0,1:2|0:0,0:0:0:0:
229,149,44953,5,2,3:2:0:0:
251,291,45103,1,2,3:2:0:0:
147,214,45253,2,0,P|100:206|57:190,1,93.5000028533936,2|2,1:2|2:0,0:0:0:0:
248,323,45553,2,0,P|267:326|293:334,2,46.7500014266968,2|2|2,3:2|2:0|3:2,0:0:0:0:
136,384,45853,2,0,P|128:312|127:290,1,93.5000028533936,2|0,1:2|0:0,0:0:0:0:
206,122,46153,5,2,3:2:0:0:
326,90,46303,1,2,3:2:0:0:
208,208,46453,2,0,L|95:193,1,93.5000028533936,2|2,1:2|3:2,0:0:0:0:
351,114,46753,2,0,L|464:99,1,93.5000028533936,2|2,3:2|3:2,0:0:0:0:
204,84,47053,1,2,1:2:0:0:
315,189,47203,1,2,3:2:0:0:
229,296,47353,6,0,P|149:274|151:146,1,178.499994552612,6|0,1:2|0:0,0:0:0:0:
169,176,47653,2,0,B|309:164|309:164|282:205,1,178.499994552612,6|0,1:2|0:0,0:0:0:0:
367,217,47953,2,0,P|386:148|271:95,1,178.499994552612,6|0,1:2|0:0,0:0:0:0:
308,165,48253,2,0,B|270:222|270:222|304:277|304:277|293:336,1,178.499994552612,6|0,1:2|0:0,0:0:0:0:
288,368,48553,5,6,3:2:0:0:
204,288,48703,1,0,3:2:0:0:
108,351,48853,1,2,1:2:0:0:
108,351,48928,1,2,2:0:0:0:
108,351,49003,1,2,2:0:0:0:
197,248,49153,2,0,P|201:189|201:142,1,93.5000028533936,6|2,3:2|3:2,0:0:0:0:
101,101,49453,2,0,P|101:147|105:194,1,93.5000028533936,2|0,1:2|0:0,0:0:0:0:
217,30,49753,5,6,3:2:0:0:
117,79,49903,1,2,3:2:0:0:
235,148,50053,2,0,P|294:153|349:146,1,93.5000028533936,2|2,1:2|2:0,0:0:0:0:
400,59,50353,2,0,P|341:54|286:61,1,93.5000028533936,6|2,3:2|3:2,0:0:0:0:
284,235,50653,2,0,P|343:240|398:233,1,93.5000028533936,2|0,1:2|0:0,0:0:0:0:
208,329,50953,6,0,P|187:267|184:219,1,93.5000028533936,6|2,3:2|3:2,0:0:0:0:
315,142,51253,1,2,1:2:0:0:
273,262,51403,1,2,3:2:0:0:
138,180,51553,1,6,3:2:0:0:
133,166,51628,1,2,2:0:0:0:
129,152,51703,1,2,3:2:0:0:
100,266,51853,1,2,1:2:0:0:
210,190,52003,1,2,3:2:0:0:
160,11,52153,6,0,B|120:119|120:119|143:199,1,178.499994552612,6|0,3:2|0:0,0:0:0:0:
88,259,52453,2,0,P|153:273|225:176,1,178.499994552612,6|0,3:2|0:0,0:0:0:0:
211,146,52753,2,0,P|262:77|347:85,1,178.499994552612,6|0,3:2|0:0,0:0:0:0:
355,120,53053,2,0,B|334:180|334:180|368:229|368:229|365:311,1,178.499994552612,6|0,3:2|0:0,0:0:0:0:
372,308,53353,6,0,P|434:289|500:285,1,93.5000028533936,6|0,3:2|0:0,0:0:0:0:
285,249,53653,1,2,1:2:0:0:
285,249,53728,1,2,2:0:0:0:
285,249,53803,2,0,P|240:264|194:271,1,93.5000028533936,2|6,3:2|1:2,0:0:0:0:
92,188,54103,1,2,3:2:0:0:
83,292,54253,2,0,B|97:384,1,93.5000028533936,2|0,1:2|3:0,0:0:0:0:
218,190,54553,6,0,B|232:97,1,93.5000028533936,6|2,1:2|3:2,0:0:0:0:
125,31,54853,1,2,1:2:0:0:
137,153,55003,1,2,3:2:0:0:
33,77,55153,1,6,1:2:0:0:
33,77,55228,1,2,2:0:0:0:
33,77,55303,1,2,3:2:0:0:
30,246,55453,2,0,P|91:232|157:238,1,93.5000028533936,2|0,1:2|3:0,0:0:0:0:
313,148,55753,5,6,1:2:0:0:
212,116,55903,1,2,3:2:0:0:
244,227,56053,1,2,1:2:0:0:
351,144,56203,1,2,3:2:0:0:
286,311,56353,2,0,L|183:302,1,93.5000028533936,6|2,1:2|3:2,0:0:0:0:
418,226,56653,2,0,L|324:234,1,93.5000028533936,2|2,1:2|3:2,0:0:0:0:
158,293,56953,5,6,1:2:0:0:
154,276,57028,1,4,2:3:0:0:
151,259,57103,1,6,3:0:0:0:
147,243,57178,1,4,2:3:0:0:
144,226,57253,1,6,1:2:0:0:
140,209,57328,1,4,2:3:0:0:
137,193,57403,1,6,3:0:0:0:
133,176,57478,1,4,2:3:0:0:
128,158,57553,6,0,L|200:151,3,59.4999981842042,6|4|4|4,1:2|2:3|3:0|2:3,0:0:0:0:
217,149,57853,1,6,1:3:0:0:
256,235,58003,1,4,1:3:0:0:
329,147,58153,5,4,2:0:0:0:
329,147,58303,1,4,2:0:0:0:
388,222,58453,2,0,P|447:216|502:211,1,85,2|2,2:0|2:0,0:0:0:0:
427,312,58753,2,0,P|368:306|313:301,1,85,2|2,2:0|2:0,0:0:0:0:
220,202,59053,5,4,2:0:0:0:
220,202,59203,1,4,2:0:0:0:
161,277,59353,2,0,P|102:271|47:266,1,85,2|2,2:0|2:0,0:0:0:0:
122,367,59653,2,0,P|181:361|236:356,1,85,2|2,2:0|2:0,0:0:0:0:
220,202,59953,6,0,B|83:182|83:182|116:159,1,178.499994552612,4|0,1:2|0:0,0:0:0:0:
86,85,60253,2,0,P|166:98|190:140,1,118.999996368408,4|0,1:2|0:0,0:0:0:0:
322,203,60553,5,4,2:0:0:0:
322,203,60703,1,4,2:0:0:0:
331,88,60853,2,0,P|320:37|316:0,1,85,2|2,2:0|2:0,0:0:0:0:
428,69,61153,2,0,P|422:111|413:152,1,85,2|2,2:0|2:0,0:0:0:0:
224,306,61453,5,4,2:0:0:0:
224,306,61603,1,4,2:0:0:0:
233,191,61753,2,0,P|222:140|218:103,1,85,10|10,2:3|2:3,0:0:0:0:
330,172,62053,2,0,P|324:214|315:255,1,85,6|6,2:3|2:3,0:0:0:0:
162,359,62353,6,0,P|144:292|242:229,1,178.499994552612,4|0,1:2|0:0,0:0:0:0:
233,191,62653,2,0,B|243:124|234:73|234:73|191:87|154:138,1,178.499994552612,4|0,1:2|0:0,0:0:0:0:
157,133,62953,5,4,2:0:0:0:
362,256,63253,2,0,L|471:245,1,85,10|2,3:2|3:2,0:0:0:0:
279,344,63553,2,0,L|170:333,1,85,10|2,1:2|2:0,0:0:0:0:
99,262,63853,5,12,2:0:0:0:
152,357,64003,1,4,2:0:0:0:
237,250,64153,2,0,P|246:192|247:147,1,85,10|2,3:2|3:2,0:0:0:0:
91,296,64453,2,0,P|83:254|80:211,1,85,10|2,1:2|2:0,0:0:0:0:
189,107,64753,6,0,P|257:83|329:181,1,178.499994552612,4|0,1:2|0:0,0:0:0:0:
247,165,65053,2,0,P|244:208|224:291,1,118.999996368408,4|0,1:2|0:0,0:0:0:0:
379,217,65353,5,4,2:0:0:0:
431,118,65503,1,4,2:0:0:0:
371,239,65653,2,0,L|389:356,1,85,10|2,3:2|3:2,0:0:0:0:
439,96,65953,2,0,L|421:-21,1,85,10|2,1:2|2:0,0:0:0:0:
245,117,66253,5,12,2:0:0:0:
346,60,66403,1,4,2:0:0:0:
249,212,66553,2,0,L|152:204,1,85,10|2,3:2|1:2,0:0:0:0:
299,329,66853,2,0,L|396:321,1,85,10|10,1:2|2:3,0:0:0:0:
180,289,67153,6,0,P|98:258|115:148,1,178.499994552612,4|0,1:2|0:0,0:0:0:0:
164,205,67453,2,0,B|230:193|230:193|297:214,1,118.999996368408,4|0,1:2|0:0,0:0:0:0:
101,132,67753,5,4,2:0:0:0:
204,83,67903,1,4,2:0:0:0:
164,205,68053,2,0,L|249:212,1,85,10|2,3:2|3:2,0:0:0:0:
319,66,68353,2,0,L|234:72,1,85,10|2,1:2|2:0,0:0:0:0:
305,214,68653,5,12,2:0:0:0:
398,115,68803,1,4,2:0:0:0:
408,271,68953,2,0,P|389:198|386:166,1,85,10|2,3:2|3:2,0:0:0:0:
491,260,69253,2,0,P|483:301|470:342,1,85,10|2,1:2|3:2,0:0:0:0:
300,316,69553,6,0,B|247:274|200:263|200:263|206:299|190:324,1,178.499994552612,4|0,1:2|0:0,0:0:0:0:
121,278,69853,2,0,P|142:211|202:184,1,118.999996368408,4|0,1:2|0:0,0:0:0:0:
321,143,70153,5,4,2:0:0:0:
221,78,70303,1,4,2:0:0:0:
362,31,70453,2,0,P|333:77|329:129,1,85,10|2,3:2|3:2,0:0:0:0:
447,249,70753,2,0,P|437:207|412:173,1,85,10|2,1:2|2:0,0:0:0:0:
266,153,71053,5,12,2:0:0:0:
410,96,71203,1,4,2:0:0:0:
367,238,71353,2,0,P|313:232|272:230,1,85,10|2,3:2|1:2,0:0:0:0:
174,114,71653,2,0,P|216:117|258:121,1,85,10|10,1:2|2:3,0:0:0:0:
133,39,71953,5,4,1:2:0:0:
109,56,72028,1,4,2:3:0:0:
92,81,72103,1,4,2:3:0:0:
85,110,72178,1,4,2:3:0:0:
89,139,72253,2,0,L|18:134,2,59.4999981842042,0|4|0,0:0|2:3|0:0,0:0:0:0:
245,232,72553,5,4,3:2:0:0:
385,188,72753,1,4,3:2:0:0:
255,117,72953,1,4,3:2:0:0:
441,127,73153,6,0,B|463:162|477:193|477:193|460:242|434:247,2,147.333326588949,4|4|4,3:2|3:2|3:2,0:0:0:0:
256,200,73753,5,8,2:3:0:0:
199,130,73903,1,0,3:0:0:0:
302,103,74053,1,0,3:0:0:0:
176,120,74203,1,4,2:3:0:0:
301,87,74353,1,0,3:0:0:0:
155,109,74503,1,0,3:0:0:0:
165,242,74653,2,0,L|274:226,1,110.499994941712,0|0,1:0|0:0,0:0:0:0:
406,206,74953,5,6,3:2:0:0:
295,153,75103,1,2,2:0:0:0:
282,310,75253,2,0,L|391:294,1,110.499994941712,2|2,1:2|2:0,0:0:0:0:
420,184,75553,5,2,3:2:0:0:
425,169,75628,1,2,2:0:0:0:
429,154,75703,1,2,3:2:0:0:
284,51,75853,2,0,P|287:101|294:152,1,101.999996887207,2|2,1:2|2:0,0:0:0:0:
406,273,76153,6,0,P|461:260|501:224,1,101.999996887207,2|2,3:2|3:2,0:0:0:0:
299,333,76453,2,0,P|249:322|209:291,1,101.999996887207,6|2,1:2|3:2,0:0:0:0:
176,193,76753,1,6,1:2:0:0:
133,291,76903,1,2,3:2:0:0:
50,213,77053,1,6,1:2:0:0:
21,332,77203,1,2,3:2:0:0:
41,185,77353,6,0,P|108:200|160:200,1,101.999996887207,6|2,3:2|2:0,0:0:0:0:
230,104,77653,2,0,P|163:89|111:89,1,101.999996887207,2|2,1:2|2:0,0:0:0:0:
243,204,77953,1,2,3:2:0:0:
257,200,78028,1,2,2:0:0:0:
271,195,78103,1,2,3:2:0:0:
294,327,78253,2,0,L|162:306,1,101.999996887207,2|2,1:2|2:0,0:0:0:0:
287,191,78553,5,2,3:2:0:0:
323,321,78703,1,2,3:2:0:0:
159,337,78853,2,0,P|137:255|134:212,1,101.999996887207,6|2,1:2|3:2,0:0:0:0:
314,169,79153,1,6,1:2:0:0:
214,120,79303,1,2,3:2:0:0:
234,246,79453,2,0,P|264:243|310:242,2,50.9999984436036,6|2|2,1:2|3:2|3:2,0:0:0:0:
138,164,79753,6,0,P|128:101|119:28,1,101.999996887207,6|2,3:2|2:0,0:0:0:0:
275,28,80053,2,0,P|267:78|258:128,1,101.999996887207,2|2,1:2|2:0,0:0:0:0:
383,231,80353,1,6,3:2:0:0:
367,229,80428,1,2,2:0:0:0:
351,227,80503,1,2,3:2:0:0:
437,294,80653,2,0,P|460:232|449:183,1,101.999996887207,2|2,1:2|2:0,0:0:0:0:
282,179,80953,5,6,3:2:0:0:
379,124,81103,1,2,3:2:0:0:
292,278,81253,2,0,L|174:262,1,101.999996887207,6|2,1:2|3:2,0:0:0:0:
127,165,81553,1,6,1:2:0:0:
272,154,81703,1,2,3:2:0:0:
109,163,81853,1,6,1:2:0:0:
217,75,82003,1,2,3:2:0:0:
87,165,82153,6,0,L|98:289,1,101.999996887207,6|2,3:2|3:2,0:0:0:0:
208,360,82453,2,0,L|217:258,1,101.999996887207,2|2,1:2|3:2,0:0:0:0:
313,158,82753,1,6,1:2:0:0:
327,152,82828,1,2,2:0:0:0:
341,146,82903,1,2,3:2:0:0:
210,131,83053,1,2,1:2:0:0:
247,252,83203,1,2,3:2:0:0:
355,142,83353,6,0,P|360:91|387:48,1,101.999996887207,6|2,1:2|3:2,0:0:0:0:
398,212,83653,2,0,P|438:242|461:287,1,101.999996887207,6|2,1:2|3:2,0:0:0:0:
357,384,83953,1,6,3:2:0:0:
382,291,84103,1,2,1:2:0:0:
248,252,84253,1,10,1:3:0:0:
256,340,84403,1,6,2:3:0:0:
214,224,84553,6,0,P|198:136|193:98,1,101.999996887207,6|10,3:2|2:0,0:0:0:0:
316,60,84853,2,0,P|308:110|298:160,1,101.999996887207,2|10,1:2|2:0,0:0:0:0:
168,95,85153,1,6,3:2:0:0:
168,95,85228,1,2,3:2:0:0:
168,95,85303,1,10,3:2:0:0:
123,204,85453,2,0,P|53:193|16:185,1,101.999996887207,2|10,1:2|2:0,0:0:0:0:
191,87,85753,5,6,3:2:0:0:
70,42,85903,1,10,3:2:0:0:
215,77,86053,2,0,P|265:69|315:59,1,101.999996887207,6|10,1:2|3:2,0:0:0:0:
290,192,86353,1,6,1:2:0:0:
409,124,86503,1,10,3:2:0:0:
261,216,86653,2,0,P|261:280|262:330,1,101.999996887207,6|10,1:2|3:2,0:0:0:0:
376,365,86953,5,6,3:2:0:0:
343,262,87103,1,10,3:2:0:0:
185,277,87253,2,0,P|121:277|71:278,1,101.999996887207,2|10,1:2|3:2,0:0:0:0:
15,181,87553,1,6,1:2:0:0:
15,181,87628,1,2,1:2:0:0:
15,181,87703,1,10,3:2:0:0:
127,196,87853,1,2,1:2:0:0:
73,87,88003,1,10,3:2:0:0:
201,64,88153,5,6,1:2:0:0:
201,64,88228,1,4,2:3:0:0:
201,64,88303,1,14,3:0:0:0:
201,64,88378,1,4,2:3:0:0:
201,64,88453,2,0,L|204:141,3,50.9999984436036,6|4|14|4,1:3|2:3|3:0|2:3,0:0:0:0:
283,128,88753,2,0,L|265:201,3,50.9999984436036,6|4|14|4,1:2|2:3|3:0|2:3,0:0:0:0:
353,201,89053,2,0,P|348:213|328:259,3,50.9999984436036,6|4|14|4,1:3|2:3|2:3|2:3,0:0:0:0:
328,288,89353,6,0,L|447:286,1,101.999996887207,6|2,1:2|1:2,0:0:0:0:
242,367,89653,2,0,P|225:318|220:268,1,101.999996887207,10|10,2:3|2:3,0:0:0:0:
191,140,89953,1,10,2:3:0:0:
144,251,90103,1,6,2:3:0:0:
289,213,90253,2,0,P|359:203|401:199,1,101.999996887207,6|6,2:3|2:3,0:0:0:0:
512,143,90553,5,6,1:2:0:0:
474,257,90703,1,6,1:2:0:0:
395,121,90853,1,6,1:2:0:0:
368,308,91003,1,6,1:2:0:0:
311,122,91303,5,0,3:0:0:0:
311,122,91378,1,0,3:0:0:0:
311,122,91453,2,0,P|362:196|418:203,1,127.5,0|0,1:0|0:0,0:0:0:0:
435,210,91753,1,4,3:2:0:0:
256,192,91828,12,0,94003,0:0:0:0:
250,202,94153,5,4,1:2:0:0:
148,135,94303,1,4,1:2:0:0:
148,135,94753,5,4,1:2:0:0:
273,172,94903,2,0,B|326:156|363:178|363:178|400:163|400:163|434:186|434:186|469:175|508:213,1,254.999992218018,4|0,1:2|2:0,0:0:0:0:
