osu file format v14

[General]
AudioFilename: audio.mp3
AudioLeadIn: 0
PreviewTime: 74953
Countdown: 0
SampleSet: Soft
StackLeniency: 0.7
Mode: 0
LetterboxInBreaks: 0
WidescreenStoryboard: 1

[Editor]
Bookmarks: 5353,17353,26953,38953,48553,56953,58153,72553,74953,88153,89353,91753,95653
DistanceSpacing: 1.3
BeatDivisor: 4
GridSize: 4
TimelineZoom: 3.199999

[Metadata]
Title:Doku Ryuu no Cobra
TitleUnicode:毒竜のコブラ
Artist:Takanashi Yasuharu
ArtistUnicode:高梨康治
Creator:Aerous
Version:Hard
Source:FAIRY TAIL
Tags:フェアリーテイル Aistre alphabet venax Flask dora- doraemonelf fairy tail japanese anime Lucy Heartfilia Natsu Dragneel Erza Scarlet Gray Fullbuster Happy ナツ ルーシィ ハッピー ost original soundtrack vol.3 instrumental dokuryuu kobura rock オリジナルサウンドトラック
BeatmapID:3197088
BeatmapSetID:1561963

[Difficulty]
HPDrainRate:5
CircleSize:3.5
OverallDifficulty:6
ApproachRate:8
SliderMultiplier:1.45
SliderTickRate:1

[Events]
//Background and Video events
0,0,"Webp.net-resizeimage (4).jpg",0,0
//Break Periods
//Storyboard Layer 0 (Background)
//Storyboard Layer 1 (Fail)
//Storyboard Layer 2 (Pass)
//Storyboard Layer 3 (Foreground)
//Storyboard Layer 4 (Overlay)
//Storyboard Sound Samples

[TimingPoints]
553,300,4,2,1,65,1,0
2353,-100,4,2,2,65,0,0
2653,-100,4,2,3,65,0,0
2953,-100,4,2,1,65,0,0
4753,-100,4,2,3,65,0,0
5053,-100,4,2,4,65,0,0
5353,-100,4,2,5,70,0,1
5653,-100,4,2,3,70,0,1
6553,-100,4,2,2,70,0,1
6853,-100,4,2,4,70,0,1
7003,-100,4,2,3,70,0,1
7153,-100,4,2,4,70,0,1
7303,-100,4,2,3,70,0,1
7453,-100,4,2,4,70,0,1
7603,-100,4,2,3,70,0,1
7753,-100,4,2,6,70,0,1
8053,-100,4,2,3,70,0,1
8953,-100,4,2,2,70,0,1
9253,-100,4,2,4,70,0,1
9403,-100,4,2,3,70,0,1
9553,-100,4,2,4,70,0,1
9703,-100,4,2,3,70,0,1
9853,-100,4,2,4,70,0,1
9928,-100,4,2,3,70,0,1
10153,-100,4,2,7,75,0,1
10453,-100,4,2,8,75,0,1
11353,-100,4,2,9,75,0,1
11653,-100,4,2,10,75,0,1
11803,-100,4,2,3,75,0,1
11953,-100,4,2,10,75,0,1
12103,-100,4,2,3,75,0,1
12253,-100,4,2,10,75,0,1
12403,-100,4,2,3,75,0,1
12553,-100,4,2,7,75,0,1
12853,-100,4,2,5,75,0,1
13153,-100,4,2,9,75,0,1
13453,-100,4,2,5,75,0,1
13753,-100,4,2,11,75,0,1
13903,-100,4,2,2,75,0,1
14053,-100,4,2,10,75,0,1
14203,-100,4,2,9,75,0,1
14653,-100,4,2,6,75,0,1
14803,-100,4,2,2,75,0,1
14953,-100,4,2,12,65,0,1
15253,-100,4,2,3,65,0,1
16153,-100,4,2,4,65,0,1
16903,-100,4,2,1,65,0,0
17353,-100,4,2,13,55,0,0
17653,-100,4,2,7,55,0,0
17803,-100,4,2,3,55,0,0
17953,-100,4,2,4,55,0,0
18103,-100,4,2,3,55,0,0
18253,-100,4,2,7,55,0,0
18403,-100,4,2,3,55,0,0
18553,-100,4,2,4,55,0,0
18703,-100,4,2,3,55,0,0
18853,-100,4,2,7,55,0,0
19003,-100,4,2,3,55,0,0
19153,-100,4,2,4,55,0,0
19303,-100,4,2,3,55,0,0
19453,-100,4,2,7,55,0,0
19603,-100,4,2,3,55,0,0
19753,-100,4,2,4,55,0,0
19903,-100,4,2,3,55,0,0
20053,-100,4,2,7,55,0,0
20203,-100,4,2,3,55,0,0
20353,-100,4,2,4,55,0,0
20503,-100,4,2,3,55,0,0
20653,-100,4,2,7,55,0,0
20953,-100,4,2,11,60,0,0
21553,-100,4,2,2,60,0,0
21853,-100,4,2,3,60,0,0
22153,-99.9999999999999,4,2,14,65,0,0
22453,-99.9999999999999,4,2,13,65,0,0
22753,-99.9999999999999,4,2,12,65,0,0
22903,-99.9999999999999,4,2,3,65,0,0
23053,-99.9999999999999,4,2,13,65,0,0
23353,-99.9999999999999,4,2,12,65,0,0
23503,-99.9999999999999,4,2,3,65,0,0
23653,-99.9999999999999,4,2,13,65,0,0
23953,-99.9999999999999,4,2,10,65,0,0
24103,-99.9999999999999,4,2,2,65,0,0
24253,-99.9999999999999,4,2,13,65,0,0
24553,-99.9999999999999,4,2,12,65,0,0
24853,-99.9999999999999,4,2,13,65,0,0
25153,-99.9999999999999,4,2,10,65,0,0
25303,-99.9999999999999,4,2,1,65,0,0
25453,-99.9999999999999,4,2,14,65,0,0
25753,-99.9999999999999,4,2,15,65,0,0
25903,-99.9999999999999,4,2,3,65,0,0
26053,-99.9999999999999,4,2,15,65,0,0
26203,-99.9999999999999,4,2,3,65,0,0
26353,-99.9999999999999,4,2,15,65,0,0
26503,-99.9999999999999,4,2,3,65,0,0
26653,-99.9999999999999,4,2,4,65,0,0
26803,-99.9999999999999,4,2,6,65,0,0
27403,-99.9999999999999,4,2,3,65,0,0
27553,-99.9999999999999,4,2,6,65,0,0
27703,-99.9999999999999,4,2,8,65,0,0
28153,-99.9999999999999,4,2,3,65,0,0
28303,-99.9999999999999,4,2,6,65,0,0
28453,-99.9999999999999,4,2,9,65,0,0
28753,-99.9999999999999,4,2,6,65,0,0
29803,-99.9999999999999,4,2,3,65,0,0
29953,-99.9999999999999,4,2,6,65,0,0
30103,-99.9999999999999,4,2,8,65,0,0
30553,-99.9999999999999,4,2,3,65,0,0
30703,-99.9999999999999,4,2,6,65,0,0
30853,-99.9999999999999,4,2,8,65,0,0
31153,-99.9999999999999,4,2,16,65,0,0
31303,-99.9999999999999,4,2,3,65,0,0
31753,-99.9999999999999,4,2,16,65,0,0
32053,-99.9999999999999,4,2,3,65,0,0
32353,-99.9999999999999,4,2,2,65,0,0
32428,-99.9999999999999,4,2,3,65,0,0
32503,-99.9999999999999,4,2,3,65,0,0
33553,-99.9999999999999,4,2,2,65,0,0
34603,-99.9999999999999,4,2,3,65,0,0
34753,-99.9999999999999,4,2,2,65,0,0
34903,-99.9999999999999,4,2,3,65,0,0
35053,-99.9999999999999,4,2,2,65,0,0
35503,-99.9999999999999,4,2,3,65,0,0
35803,-99.9999999999999,4,2,2,65,0,0
35953,-99.9999999999999,4,2,3,65,0,0
36253,-99.9999999999999,4,2,2,65,0,0
36553,-99.9999999999999,4,2,1,65,0,0
38653,-99.9999999999999,4,2,17,65,0,0
38953,-100,4,2,18,70,0,1
39253,-100,4,2,13,70,0,1
39553,-100,4,2,3,70,0,1
39853,-100,4,2,14,70,0,1
40153,-100,4,2,3,70,0,1
40453,-100,4,2,13,70,0,1
40753,-100,4,2,3,70,0,1
41053,-100,4,2,13,70,0,1
41353,-100,4,2,2,70,0,1
41503,-100,4,2,3,70,0,1
41653,-100,4,2,13,70,0,1
41803,-100,4,2,3,70,0,1
42253,-100,4,2,14,70,0,1
42403,-100,4,2,3,70,0,1
42553,-100,4,2,4,70,0,1
42703,-100,4,2,3,70,0,1
42853,-100,4,2,4,70,0,1
43003,-100,4,2,2,70,0,1
43153,-100,4,2,4,70,0,1
43303,-100,4,2,1,70,0,1
43453,-100,4,2,4,70,0,1
43603,-100,4,2,16,70,0,1
43753,-100,4,2,16,70,0,1
44053,-100,4,2,13,70,0,1
44353,-100,4,2,3,70,0,1
44653,-100,4,2,14,70,0,1
44953,-100,4,2,3,70,0,1
45253,-100,4,2,13,70,0,1
45553,-100,4,2,3,70,0,1
45853,-100,4,2,13,70,0,1
46153,-100,4,2,2,70,0,1
46303,-100,4,2,3,70,0,1
46453,-100,4,2,13,70,0,1
46603,-100,4,2,3,70,0,1
47053,-100,4,2,14,70,0,1
47203,-100,4,2,3,70,0,1
47353,-100,4,2,4,70,0,1
47503,-100,4,2,3,70,0,1
47653,-100,4,2,4,70,0,1
47803,-100,4,2,2,70,0,1
47953,-100,4,2,4,70,0,1
48103,-100,4,2,1,70,0,1
48253,-100,4,2,4,70,0,1
48403,-100,4,2,6,70,0,1
48853,-100,4,2,13,70,0,1
49153,-100,4,2,8,70,0,1
49453,-100,4,2,14,70,0,1
49753,-100,4,2,8,70,0,1
50053,-100,4,2,13,70,0,1
50353,-100,4,2,8,70,0,1
50653,-100,4,2,13,70,0,1
50953,-100,4,2,9,70,0,1
51103,-100,4,2,3,70,0,1
51253,-100,4,2,13,70,0,1
51403,-100,4,2,8,70,0,1
51853,-100,4,2,14,70,0,1
52003,-100,4,2,3,70,0,1
52153,-100,4,2,19,70,0,1
52303,-100,4,2,20,70,0,1
52453,-100,4,2,19,70,0,1
52603,-100,4,2,17,70,0,1
52753,-100,4,2,19,70,0,1
52903,-100,4,2,17,70,0,1
53053,-100,4,2,19,70,0,1
53203,-100,4,2,17,70,0,1
53353,-100,4,2,5,70,0,1
53653,-100,4,2,8,70,0,1
53953,-100,4,2,12,70,0,1
54103,-100,4,2,3,70,0,1
54253,-100,4,2,5,70,0,1
54553,-100,4,2,12,70,0,1
54703,-100,4,2,8,70,0,1
55153,-100,4,2,12,70,0,1
55303,-100,4,2,8,70,0,1
55753,-100,4,2,9,70,0,1
55903,-100,4,2,8,70,0,1
56353,-100,4,2,12,70,0,1
56503,-100,4,2,3,70,0,1
56653,-100,4,2,5,70,0,1
56803,-100,4,2,3,70,0,1
56953,-100,4,2,21,70,0,1
57028,-100,4,2,3,70,0,1
57253,-100,4,2,21,70,0,1
57328,-100,4,2,2,70,0,1
57553,-100,4,2,21,70,0,1
57628,-100,4,2,2,70,0,1
58153,-100,4,2,1,55,0,0
59953,-100,4,2,2,55,0,0
60253,-100,4,2,3,55,0,0
60553,-100,4,2,1,55,0,0
62353,-100,4,2,3,55,0,0
62653,-100,4,2,4,55,0,0
62953,-100,4,2,1,60,0,0
64753,-100,4,2,2,60,0,0
65053,-100,4,2,3,60,0,0
65353,-100,4,2,1,60,0,0
67153,-100,4,2,3,60,0,0
67453,-100,4,2,4,60,0,0
67753,-100,4,2,1,60,0,0
69553,-100,4,2,2,60,0,0
69853,-100,4,2,3,60,0,0
70153,-100,4,2,1,60,0,0
71953,-100,4,2,22,60,0,0
72028,-100,4,2,1,60,0,0
72103,-100,4,2,1,60,0,0
72253,-100,4,2,21,60,0,0
72328,-100,4,2,2,60,0,0
72403,-100,4,2,2,60,0,0
72753,-100,4,2,17,60,0,0
73153,-100,4,2,3,60,0,0
73353,-100,4,2,17,60,0,0
73753,-100,4,2,3,60,0,0
74953,-100,4,2,5,70,0,1
75253,-100,4,2,3,70,0,1
76153,-100,4,2,2,70,0,1
76453,-100,4,2,4,70,0,1
76603,-100,4,2,3,70,0,1
76753,-100,4,2,4,70,0,1
76903,-100,4,2,3,70,0,1
77053,-100,4,2,4,70,0,1
77203,-100,4,2,3,70,0,1
77353,-100,4,2,6,70,0,1
77653,-100,4,2,3,70,0,1
78553,-100,4,2,2,70,0,1
78853,-100,4,2,4,70,0,1
79003,-100,4,2,3,70,0,1
79153,-100,4,2,4,70,0,1
79303,-100,4,2,3,70,0,1
79453,-100,4,2,4,70,0,1
79603,-100,4,2,3,70,0,1
79753,-100,4,2,7,75,0,1
80053,-100,4,2,8,75,0,1
80953,-100,4,2,9,75,0,1
81253,-100,4,2,10,75,0,1
81403,-100,4,2,3,75,0,1
81553,-100,4,2,10,75,0,1
81703,-100,4,2,3,75,0,1
81853,-100,4,2,10,75,0,1
82003,-100,4,2,3,75,0,1
82153,-100,4,2,7,75,0,1
82453,-100,4,2,5,75,0,1
82753,-100,4,2,9,75,0,1
83053,-100,4,2,5,75,0,1
83353,-100,4,2,11,75,0,1
83503,-100,4,2,2,75,0,1
83653,-100,4,2,10,75,0,1
83803,-100,4,2,9,75,0,1
84253,-100,4,2,6,75,0,1
84403,-100,4,2,2,75,0,1
84553,-100,4,2,7,80,0,1
84703,-100,4,2,4,80,0,1
84853,-100,4,2,8,80,0,1
85753,-100,4,2,9,80,0,1
85903,-100,4,2,5,80,0,1
86053,-100,4,2,10,80,0,1
86203,-100,4,2,8,80,0,1
86353,-100,4,2,10,80,0,1
86503,-100,4,2,8,80,0,1
86653,-100,4,2,10,80,0,1
86803,-100,4,2,8,80,0,1
86953,-100,4,2,7,80,0,1
87103,-100,4,2,5,80,0,1
87553,-100,4,2,9,80,0,1
87703,-100,4,2,5,80,0,1
88153,-100,4,2,23,80,0,1
88228,-100,4,2,1,80,0,1
88303,-100,4,2,5,80,0,1
88753,-100,4,2,23,80,0,1
88828,-100,4,2,1,80,0,1
88903,-100,4,2,5,80,0,1
89353,-100,4,2,12,70,0,1
89653,-100,4,2,3,70,0,1
90553,-100,4,2,4,70,0,1
91303,-100,4,2,3,70,0,1
91753,-100,4,2,3,70,0,0
94153,-100,4,2,4,70,0,0
94903,-100,4,2,2,70,0,0
95653,-100,4,2,99,5,0,0

[Colours]
Combo1 : 255,189,157
Combo2 : 39,155,241
Combo3 : 100,100,255
Combo4 : 255,89,89

[HitObjects]
187,259,553,5,4,2:0:0:0:
187,259,703,1,4,2:0:0:0:
259,210,853,2,0,P|278:159|278:125,1,72.5,2|2,2:0|2:0,0:0:0:0:
192,154,1153,2,0,P|176:121|171:85,1,72.5,2|2,2:0|2:0,0:0:0:0:
287,43,1453,5,4,2:0:0:0:
287,43,1603,1,4,2:0:0:0:
356,107,1753,2,0,L|444:99,1,72.5,2|2,2:0|2:0,0:0:0:0:
408,185,2053,2,0,L|480:191,1,72.5,2|2,2:0|2:0,0:0:0:0:
439,268,2353,2,0,P|373:267|324:197,1,145,4|4,1:2|1:2,0:0:0:0:
136,150,2953,5,4,2:0:0:0:
136,150,3103,1,4,2:0:0:0:
172,234,3253,2,0,L|81:230,1,72.5,2|2,2:0|2:0,0:0:0:0:
63,153,3553,2,0,L|154:149,1,72.5,2|2,2:0|2:0,0:0:0:0:
296,69,3853,5,4,2:0:0:0:
296,69,4003,1,4,2:0:0:0:
210,84,4153,2,0,L|225:174,1,72.5,10|10,2:3|2:3,0:0:0:0:
301,185,4453,2,0,L|312:113,1,72.5,6|6,2:3|2:3,0:0:0:0:
382,195,4753,2,0,P|347:255|277:264,1,145,4|4,1:2|1:2,0:0:0:0:
174,328,5353,6,0,P|120:331|86:336,1,72.5,6|2,3:2|2:0,0:0:0:0:
46,242,5653,2,0,P|99:245|134:250,1,72.5,2|2,1:2|2:0,0:0:0:0:
205,211,5953,2,0,L|219:255,2,36.25,2|2|2,3:2|2:0|3:2,0:0:0:0:
184,119,6253,1,2,1:2:0:0:
275,141,6403,1,2,2:0:0:0:
344,77,6553,6,0,L|447:71,1,72.5,2|2,3:2|3:2,0:0:0:0:
455,158,6853,2,0,L|382:156,1,72.5,6|2,1:2|3:2,0:0:0:0:
318,225,7153,1,6,1:2:0:0:
318,225,7303,1,2,3:2:0:0:
253,293,7453,2,0,P|229:249|224:215,1,72.5,6|2,1:2|3:2,0:0:0:0:
162,143,7753,6,0,P|127:153|91:157,1,72.5,6|2,3:2|2:0,0:0:0:0:
188,53,8053,2,0,P|222:63|258:67,1,72.5,2|2,1:2|2:0,0:0:0:0:
349,43,8353,2,0,L|344:-8,2,36.25,2|2|2,3:2|2:0|3:2,0:0:0:0:
440,65,8653,1,2,1:2:0:0:
440,65,8803,1,2,2:0:0:0:
390,145,8953,6,0,L|406:226,1,72.5,2|2,3:2|3:2,0:0:0:0:
475,277,9253,2,0,L|489:205,1,72.5,6|2,1:2|3:2,0:0:0:0:
318,202,9553,2,0,L|332:273,1,72.5,6|2,1:2|3:2,0:0:0:0:
370,359,9853,2,0,L|416:367,2,36.25,6|2|2,1:2|3:2|3:2,0:0:0:0:
278,382,10153,5,6,3:2:0:0:
278,382,10303,1,2,2:0:0:0:
193,335,10453,2,0,L|105:324,1,72.5,2|2,1:2|2:0,0:0:0:0:
71,246,10753,2,0,L|142:237,1,72.5,6|2,3:2|3:2,0:0:0:0:
192,156,11053,2,0,L|120:147,1,72.5,2|2,1:2|2:0,0:0:0:0:
34,107,11353,5,6,3:2:0:0:
34,107,11503,1,2,3:2:0:0:
71,246,11653,2,0,L|152:234,1,72.5,6|2,1:2|3:2,0:0:0:0:
191,155,11953,2,0,P|203:121|211:86,1,72.5,6|2,1:2|3:2,0:0:0:0:
295,31,12253,1,6,1:2:0:0:
295,31,12403,1,2,3:2:0:0:
320,121,12553,6,0,P|298:164|294:213,1,72.5,6|2,3:2|3:2,0:0:0:0:
321,278,12853,2,0,P|279:282|235:269,1,72.5,2|2,1:2|3:2,0:0:0:0:
164,316,13153,2,0,L|159:369,2,36.25,6|0|2,1:2|0:0|3:2,0:0:0:0:
73,287,13453,1,2,1:2:0:0:
73,287,13603,1,2,3:2:0:0:
25,205,13753,6,0,P|20:142|21:103,1,72.5,6|2,1:2|3:2,0:0:0:0:
98,80,14053,2,0,P|105:129|107:166,1,72.5,6|2,1:2|3:2,0:0:0:0:
181,209,14353,2,0,P|224:212|254:197,2,72.5,6|2|10,3:2|1:2|1:3,0:0:0:0:
119,281,14803,1,6,2:3:0:0:
195,354,14953,6,0,P|229:344|265:339,1,72.5,6|2,1:2|1:2,0:0:0:0:
318,260,15253,2,0,P|353:265|388:275,1,72.5,10|10,2:3|2:3,0:0:0:0:
251,193,15553,2,0,P|216:198|181:208,1,72.5,10|6,2:3|2:3,0:0:0:0:
289,111,15853,2,0,P|324:116|359:126,1,72.5,6|6,2:3|2:3,0:0:0:0:
482,96,16153,5,6,1:2:0:0:
448,184,16303,1,6,1:2:0:0:
512,253,16453,1,6,1:2:0:0:
464,334,16603,1,6,1:2:0:0:
334,326,16903,1,0,3:0:0:0:
334,326,16978,1,0,3:0:0:0:
334,326,17053,2,0,P|282:317|221:361,1,108.75,0|0,1:0|0:0,0:0:0:0:
187,347,17353,6,0,P|152:328|88:331,1,72.5,4|2,3:2|2:0,0:0:0:0:
89,234,17653,2,0,L|89:148,1,72.5,0|2,1:0|2:0,0:0:0:0:
113,70,17953,1,0,3:0:0:0:
113,70,18103,1,2,2:0:0:0:
189,124,18253,2,0,L|260:115,1,72.5,0|2,1:0|2:0,0:0:0:0:
352,139,18553,6,0,P|355:101|344:67,2,72.5,0|2|0,3:0|2:0|1:0,0:0:0:0:
325,229,19003,1,2,2:0:0:0:
387,299,19153,2,0,L|480:292,1,72.5,0|2,3:0|2:0,0:0:0:0:
346,370,19453,2,0,L|251:355,1,72.5,0|2,1:0|2:0,0:0:0:0:
180,355,19753,5,0,3:0:0:0:
180,355,19903,1,2,2:0:0:0:
206,264,20053,2,0,L|191:192,1,72.5,0|2,1:0|2:0,0:0:0:0:
114,246,20353,2,0,L|97:316,1,72.5,0|2,3:0|2:0,0:0:0:0:
25,250,20653,2,0,L|41:179,1,72.5,8|0,1:2|0:0,0:0:0:0:
155,115,20953,6,0,B|199:107|199:107|246:127|246:127|316:115,1,145,4|4,2:0|2:0,0:0:0:0:
347,40,21403,1,0,0:0:0:0:
379,128,21553,2,0,P|379:163|397:200,1,72.5,4|0,1:2|3:0,0:0:0:0:
470,140,21853,2,0,P|471:103|462:69,1,72.5,4|0,1:2|0:0,0:0:0:0:
461,238,22153,6,0,P|391:275|327:238,1,145,6|2,3:2|1:2,0:0:0:0:
305,214,22528,1,2,2:0:0:0:
305,214,22603,1,2,2:0:0:0:
255,294,22753,2,0,P|261:360|265:395,1,72.5,2|2,3:2|3:2,0:0:0:0:
166,326,23053,2,0,P|170:289|173:253,1,72.5,2|2,1:2|2:0,0:0:0:0:
229,178,23353,6,0,P|194:163|154:163,2,72.5,2|2|2,3:2|3:2|1:2,0:0:0:0:
306,124,23803,1,2,2:0:0:0:
385,173,23953,2,0,L|393:208,2,36.25,2|2|2,3:2|2:0|3:2,0:0:0:0:
440,96,24253,2,0,L|512:92,1,72.5,2|0,1:2|0:0,0:0:0:0:
376,35,24553,6,0,L|294:31,1,72.5,2|2,3:2|2:0,0:0:0:0:
209,21,24853,1,2,1:2:0:0:
209,21,25003,1,2,2:0:0:0:
192,113,25153,2,0,L|200:200,1,72.5,2|0,3:2|3:0,0:0:0:0:
241,269,25453,2,0,L|287:255,2,36.25,2|2|2,1:2|2:0|2:0,0:0:0:0:
178,340,25753,6,0,P|142:337|108:326,1,72.5,6|2,1:2|3:2,0:0:0:0:
20,290,26053,2,0,P|13:326|26:378,1,72.5,6|2,1:2|3:2,0:0:0:0:
98,235,26353,1,6,1:2:0:0:
98,235,26503,1,2,3:2:0:0:
34,165,26653,2,0,P|23:130|19:94,1,72.5,6|2,1:2|3:2,0:0:0:0:
99,19,26953,6,0,B|143:78|143:78|126:156,1,145,14|2,3:2|3:2,0:0:0:0:
98,235,27403,1,2,2:0:0:0:
177,270,27553,2,0,P|224:278|276:267,1,72.5,10|2,1:2|2:0,0:0:0:0:
305,210,27853,2,0,P|340:208|382:218,1,72.5,6|2,3:2|2:0,0:0:0:0:
460,240,28153,5,10,3:2:0:0:
491,144,28303,2,0,L|487:64,1,72.5,2|6,1:2|3:2,0:0:0:0:
405,42,28603,1,6,3:2:0:0:
346,106,28753,2,0,P|289:102|246:87,1,72.5,10|0,1:2|3:0,0:0:0:0:
191,71,29053,2,0,P|188:109|202:153,1,72.5,2|0,1:2|3:0,0:0:0:0:
198,244,29353,6,0,B|98:278|98:278|38:252,1,145,14|2,3:2|3:2,0:0:0:0:
13,190,29803,1,2,2:0:0:0:
54,113,29953,2,0,P|54:76|43:42,2,72.5,10|2|6,1:2|2:0|3:2,0:0:0:0:
133,148,30403,1,2,2:0:0:0:
200,244,30553,5,10,3:2:0:0:
200,244,30703,2,0,L|289:226,1,72.5,2|6,1:2|3:2,0:0:0:0:
323,150,31003,1,6,3:2:0:0:
386,232,31153,2,0,B|369:274|369:274|369:317,2,72.5,10|8|10,1:3|2:3|2:3,0:0:0:0:
460,290,31603,1,8,2:3:0:0:
491,201,31753,6,0,B|504:98|504:98|447:102,1,145,6|2,3:2|1:2,0:0:0:0:
375,137,32203,1,2,2:0:0:0:
311,67,32353,2,0,P|275:59|239:59,1,72.5,10|2,3:2|3:2,0:0:0:0:
155,103,32653,2,0,P|118:103|83:95,1,72.5,2|2,1:2|2:0,0:0:0:0:
6,150,32953,6,0,L|25:230,1,72.5,10|2,3:2|3:2,0:0:0:0:
27,314,33253,1,6,1:2:0:0:
27,314,33403,1,2,2:0:0:0:
117,286,33553,2,0,P|170:278|220:276,1,72.5,10|0,3:2|3:0,0:0:0:0:
251,348,33853,2,0,P|197:355|148:358,1,72.5,2|0,1:2|3:0,0:0:0:0:
150,197,34153,6,0,B|134:147|134:147|148:63,1,108.75,10|0,3:2|0:0,0:0:0:0:
158,47,34453,2,0,P|207:48|259:39,1,72.5,2|2,1:2|2:0,0:0:0:0:
322,24,34753,1,10,2:3:0:0:
322,24,34903,1,10,2:3:0:0:
381,97,35053,2,0,P|345:115|298:113,1,72.5,6|6,2:3|2:3,0:0:0:0:
241,177,35353,6,0,L|259:263,2,72.5,2|2|2,1:2|3:2|3:2,0:0:0:0:
173,243,35803,2,0,L|191:329,2,72.5,2|2|2,1:2|3:2|3:2,0:0:0:0:
97,300,36253,2,0,L|119:400,1,72.5,6|0,1:2|0:0,0:0:0:0:
14,314,36553,5,2,1:2:0:0:
279,217,37003,1,2,1:2:0:0:
32,78,37453,1,2,1:2:0:0:
220,90,37753,6,0,L|206:4,2,72.5,8|8|8,2:3|2:3|2:3,0:0:0:0:
194,184,38203,2,0,L|182:255,2,72.5,4|4|4,2:3|2:3|2:3,0:0:0:0:
107,147,38653,2,0,P|35:131|18:136,1,72.5,6|6,3:2|3:2,0:0:0:0:
0,256,38953,6,0,P|72:240|89:245,1,72.5,6|0,3:2|0:0,0:0:0:0:
122,317,39253,2,0,L|116:369,2,36.25,2|2|2,1:2|2:0|2:0,0:0:0:0:
208,280,39553,1,2,3:2:0:0:
208,280,39703,1,2,3:2:0:0:
273,348,39853,2,0,P|309:349|345:348,1,72.5,2|0,1:2|0:0,0:0:0:0:
425,299,40153,6,0,P|433:350|436:395,1,72.5,2|2,3:2|3:2,0:0:0:0:
347,251,40453,2,0,P|339:200|336:155,1,72.5,2|2,1:2|2:0,0:0:0:0:
330,85,40753,2,0,P|247:92|175:60,1,145,2|2,3:2|1:2,0:0:0:0:
108,23,41203,1,0,0:0:0:0:
58,136,41353,6,0,L|129:123,1,72.5,2|2,3:2|3:2,0:0:0:0:
37,219,41653,2,0,L|108:206,1,72.5,2|2,1:2|3:2,0:0:0:0:
188,254,41953,2,0,P|201:223|200:206,2,36.25,2|2|2,3:2|2:0|3:2,0:0:0:0:
202,347,42253,1,2,1:2:0:0:
202,347,42403,1,2,3:2:0:0:
294,328,42553,6,0,P|329:306|408:317,1,108.75,6|0,1:2|0:0,0:0:0:0:
440,323,42853,2,0,B|461:258|461:258|431:204,1,108.75,6|0,1:2|0:0,0:0:0:0:
410,187,43153,2,0,P|356:181|305:162,1,108.75,6|0,1:2|0:0,0:0:0:0:
258,162,43453,2,0,B|237:97|237:97|256:62,1,108.75,6|0,1:2|0:0,0:0:0:0:
291,30,43753,6,0,P|326:38|360:50,1,72.5,6|0,3:2|0:0,0:0:0:0:
454,42,44053,1,2,1:2:0:0:
454,42,44203,1,2,2:0:0:0:
504,121,44353,2,0,P|491:156|482:199,1,72.5,2|2,3:2|3:2,0:0:0:0:
434,271,44653,2,0,P|469:277|504:285,1,72.5,2|0,1:2|0:0,0:0:0:0:
363,319,44953,6,0,P|351:286|352:250,2,72.5,2|2|2,3:2|3:2|1:2,0:0:0:0:
278,359,45403,1,2,2:0:0:0:
191,322,45553,2,0,L|156:331,2,36.25,2|2|2,3:2|2:0|3:2,0:0:0:0:
214,230,45853,2,0,P|218:186|221:135,1,72.5,2|0,1:2|0:0,0:0:0:0:
138,109,46153,6,0,P|135:150|145:204,1,72.5,2|2,3:2|3:2,0:0:0:0:
92,262,46453,1,2,1:2:0:0:
92,262,46603,1,2,3:2:0:0:
156,331,46753,2,0,L|191:322,2,36.25,2|2|2,3:2|2:0|3:2,0:0:0:0:
263,355,47053,2,0,P|266:307|257:282,1,72.5,2|2,1:2|3:2,0:0:0:0:
269,168,47353,6,0,P|303:178|339:179,1,72.5,6|2,1:2|3:2,0:0:0:0:
390,86,47653,2,0,P|353:86|319:97,1,72.5,6|2,1:2|3:2,0:0:0:0:
428,15,47953,2,0,P|455:38|469:71,1,72.5,6|0,1:2|3:0,0:0:0:0:
455,164,48253,2,0,P|456:199|468:236,1,72.5,6|2,1:2|3:2,0:0:0:0:
502,322,48553,6,0,B|446:327|446:327|408:301|408:301|334:303,1,145,6|2,3:2|1:2,0:0:0:0:
317,306,48928,1,2,2:0:0:0:
317,306,49003,1,2,2:0:0:0:
239,359,49153,2,0,P|228:324|227:288,1,72.5,6|2,3:2|3:2,0:0:0:0:
209,195,49453,2,0,P|265:201|295:214,1,72.5,2|0,1:2|0:0,0:0:0:0:
373,201,49753,5,6,3:2:0:0:
373,201,49903,1,2,3:2:0:0:
452,251,50053,2,0,P|464:190|466:145,1,72.5,2|2,1:2|2:0,0:0:0:0:
453,86,50353,2,0,P|470:83|488:81,2,36.25,6|2|2,3:2|2:0|3:2,0:0:0:0:
367,45,50653,2,0,P|318:53|268:49,1,72.5,2|0,1:2|0:0,0:0:0:0:
208,16,50953,5,6,3:2:0:0:
208,16,51103,1,2,3:2:0:0:
179,118,51253,2,0,L|94:106,1,72.5,2|2,1:2|3:2,0:0:0:0:
12,107,51553,2,0,L|7:71,2,36.25,6|2|2,3:2|2:0|3:2,0:0:0:0:
48,205,51853,2,0,L|133:193,1,72.5,2|2,1:2|3:2,0:0:0:0:
248,234,52153,6,0,P|255:191|236:134,1,72.5,6|2,3:2|1:2,0:0:0:0:
154,50,52453,2,0,P|161:86|178:117,1,72.5,6|2,3:2|1:2,0:0:0:0:
318,99,52753,2,0,P|287:80|251:73,1,72.5,6|0,3:2|1:0,0:0:0:0:
335,189,53053,2,0,P|370:181|401:163,1,72.5,6|0,3:2|1:0,0:0:0:0:
475,103,53353,6,0,P|447:79|413:67,1,72.5,6|0,3:2|0:0,0:0:0:0:
321,44,53653,2,0,L|306:1,2,36.25,2|2|2,1:2|2:0|3:2,0:0:0:0:
257,114,53953,1,6,1:2:0:0:
257,114,54103,1,2,3:2:0:0:
207,194,54253,2,0,L|216:265,1,72.5,2|0,1:2|3:0,0:0:0:0:
254,351,54553,6,0,P|219:360|183:355,1,72.5,6|2,1:2|3:2,0:0:0:0:
118,287,54853,1,2,1:2:0:0:
118,287,55003,1,2,3:2:0:0:
31,324,55153,2,0,P|41:350|52:388,2,36.25,6|2|2,1:2|2:0|3:2,0:0:0:0:
17,230,55453,2,0,P|7:182|3:135,1,72.5,2|0,1:2|3:0,0:0:0:0:
35,69,55753,5,6,1:2:0:0:
35,69,55903,1,2,3:2:0:0:
111,124,56053,2,0,L|183:129,1,72.5,2|2,1:2|3:2,0:0:0:0:
229,35,56353,2,0,L|157:41,1,72.5,6|2,1:2|3:2,0:0:0:0:
269,130,56653,1,2,1:2:0:0:
269,130,56803,1,2,3:2:0:0:
249,222,56953,6,0,L|288:222,3,36.25,6|4|6|4,1:2|2:3|3:0|2:3,0:0:0:0:
330,209,57253,2,0,L|369:209,3,36.25,6|4|6|4,1:2|2:3|3:0|2:3,0:0:0:0:
410,193,57553,2,0,L|449:193,3,36.25,6|4|4|4,1:2|2:3|3:0|2:3,0:0:0:0:
482,163,57853,2,0,P|503:95|500:73,1,72.5,6|4,1:3|1:3,0:0:0:0:
390,94,58153,5,4,2:0:0:0:
390,94,58303,1,4,2:0:0:0:
318,33,58453,2,0,P|299:84|299:118,1,72.5,2|2,2:0|2:0,0:0:0:0:
356,175,58753,2,0,P|323:191|287:196,1,72.5,2|2,2:0|2:0,0:0:0:0:
219,130,59053,5,4,2:0:0:0:
219,130,59203,1,4,2:0:0:0:
154,62,59353,2,0,L|66:70,1,72.5,2|2,2:0|2:0,0:0:0:0:
36,151,59653,2,0,L|108:157,1,72.5,2|2,2:0|2:0,0:0:0:0:
78,246,59953,2,0,P|139:244|194:194,1,108.75,4|0,1:2|0:0,0:0:0:0:
224,214,60253,2,0,P|274:214|309:221,1,72.5,4|0,1:2|0:0,0:0:0:0:
422,182,60553,5,4,2:0:0:0:
422,182,60703,1,4,2:0:0:0:
386,98,60853,2,0,L|477:102,1,72.5,2|2,2:0|2:0,0:0:0:0:
495,179,61153,2,0,L|404:183,1,72.5,2|2,2:0|2:0,0:0:0:0:
262,263,61453,5,4,2:0:0:0:
262,263,61603,1,4,2:0:0:0:
348,248,61753,2,0,L|333:158,1,72.5,10|10,2:3|2:3,0:0:0:0:
257,147,62053,2,0,L|246:219,1,72.5,6|6,2:3|2:3,0:0:0:0:
217,76,62353,2,0,P|252:66|297:74,1,72.5,4|0,1:2|3:0,0:0:0:0:
178,165,62653,2,0,P|142:168|107:159,1,72.5,4|0,1:2|0:0,0:0:0:0:
31,98,62953,5,4,2:0:0:0:
71,282,63253,2,0,L|165:268,1,72.5,10|2,3:2|3:2,0:0:0:0:
216,329,63553,2,0,L|297:318,1,72.5,10|2,1:2|2:0,0:0:0:0:
382,316,63853,1,12,2:0:0:0:
382,316,64003,1,4,2:0:0:0:
337,233,64153,6,0,P|336:194|339:153,1,72.5,10|2,3:2|3:2,0:0:0:0:
420,117,64453,2,0,P|422:153|421:189,1,72.5,10|2,1:2|2:0,0:0:0:0:
453,324,64753,2,0,L|355:312,1,72.5,4|0,1:2|0:0,0:0:0:0:
287,319,65053,2,0,L|216:329,1,72.5,4|0,1:2|0:0,0:0:0:0:
126,278,65353,5,4,2:0:0:0:
282,117,65653,2,0,P|266:66|264:22,1,72.5,10|2,3:2|3:2,0:0:0:0:
364,103,65953,2,0,P|358:138|345:172,1,72.5,10|2,1:2|2:0,0:0:0:0:
254,201,66253,2,0,L|175:193,1,72.5,12|4,2:0|2:0,0:0:0:0:
233,288,66553,6,0,L|312:280,1,72.5,10|2,3:2|1:2,0:0:0:0:
398,269,66853,1,10,1:2:0:0:
398,269,67003,1,10,2:3:0:0:
460,339,67153,2,0,P|488:294|466:216,1,108.75,4|0,1:2|0:0,0:0:0:0:
454,202,67453,2,0,P|438:150|438:114,1,72.5,4|0,1:2|0:0,0:0:0:0:
320,72,67753,5,4,2:0:0:0:
320,72,67903,1,4,2:0:0:0:
272,153,68053,2,0,L|186:144,1,72.5,10|2,3:2|3:2,0:0:0:0:
148,70,68353,2,0,L|234:61,1,72.5,10|2,1:2|2:0,0:0:0:0:
278,160,68653,2,0,L|192:151,1,72.5,12|4,2:0|2:0,0:0:0:0:
118,188,68953,6,0,P|107:228|103:268,1,72.5,10|2,3:2|3:2,0:0:0:0:
201,316,69253,2,0,P|196:280|186:245,1,72.5,10|2,1:2|3:2,0:0:0:0:
118,188,69553,2,0,L|46:180,1,72.5,4|0,1:2|0:0,0:0:0:0:
37,93,69853,2,0,L|110:85,1,72.5,4|0,1:2|0:0,0:0:0:0:
231,39,70153,5,4,2:0:0:0:
231,39,70303,1,4,2:0:0:0:
291,118,70453,2,0,L|376:106,1,72.5,10|2,3:2|3:2,0:0:0:0:
312,209,70753,2,0,L|240:199,1,72.5,10|2,1:2|2:0,0:0:0:0:
174,267,71053,1,12,2:0:0:0:
174,267,71203,1,4,2:0:0:0:
243,330,71353,6,0,L|320:320,1,72.5,10|2,3:2|1:2,0:0:0:0:
407,338,71653,2,0,L|478:347,1,72.5,10|10,1:2|2:3,0:0:0:0:
463,252,71953,2,0,P|445:217|447:172,1,72.5,4|4,1:2|2:3,0:0:0:0:
458,139,72178,1,4,2:3:0:0:
458,139,72253,2,0,L|355:130,1,72.5,4|4,1:2|2:3,0:0:0:0:
313,71,72553,6,0,B|232:66|232:66|203:39,2,96.6666666666667,4|4|4,3:2|3:2|3:2,0:0:0:0:
271,155,73153,2,0,B|190:150|190:150|162:126,2,96.6666666666667,4|4|4,3:2|3:2|3:2,0:0:0:0:
252,247,73753,6,0,P|262:278|260:324,2,72.5,8|0|0,2:3|3:0|3:0,0:0:0:0:
171,296,74203,2,0,P|120:300|99:315,2,72.5,4|0|0,2:3|3:0|3:0,0:0:0:0:
146,204,74653,2,0,P|126:148|142:79,1,108.75,0|0,1:0|0:0,0:0:0:0:
179,98,74953,6,0,P|234:116|271:120,1,72.5,6|2,3:2|2:0,0:0:0:0:
334,156,75253,1,2,1:2:0:0:
391,80,75403,1,2,2:0:0:0:
437,171,75553,2,0,L|498:186,2,36.25,2|2|2,3:2|2:0|3:2,0:0:0:0:
328,178,75853,2,0,P|316:221|315:259,1,72.5,2|2,1:2|2:0,0:0:0:0:
390,345,76153,5,2,3:2:0:0:
411,254,76303,1,2,3:2:0:0:
305,283,76453,2,0,P|256:275|228:285,1,72.5,6|2,1:2|3:2,0:0:0:0:
131,237,76753,2,0,P|128:199|137:161,1,72.5,6|2,1:2|3:2,0:0:0:0:
51,110,77053,2,0,P|76:84|108:67,1,72.5,6|2,1:2|3:2,0:0:0:0:
245,67,77353,5,6,3:2:0:0:
183,138,77503,1,2,2:0:0:0:
265,183,77653,2,0,L|342:169,1,72.5,2|2,1:2|2:0,0:0:0:0:
399,100,77953,2,0,P|389:62|391:35,2,36.25,2|2|2,3:2|2:0|3:2,0:0:0:0:
423,191,78253,2,0,P|411:234|409:274,1,72.5,2|2,1:2|2:0,0:0:0:0:
350,335,78553,5,2,3:2:0:0:
350,335,78703,1,2,3:2:0:0:
282,269,78853,1,6,1:2:0:0:
282,269,79003,1,2,3:2:0:0:
202,319,79153,2,0,P|191:271|189:244,1,72.5,6|2,1:2|3:2,0:0:0:0:
132,171,79453,2,0,L|73:155,2,36.25,6|2|2,1:2|3:2|3:2,0:0:0:0:
248,150,79753,6,0,P|292:152|337:144,1,72.5,6|2,3:2|2:0,0:0:0:0:
392,87,80053,2,0,P|414:135|413:172,1,72.5,2|2,1:2|2:0,0:0:0:0:
437,245,80353,2,0,L|487:262,2,36.25,6|2|2,3:2|2:0|3:2,0:0:0:0:
342,235,80653,1,2,1:2:0:0:
293,315,80803,1,2,2:0:0:0:
209,270,80953,6,0,L|134:260,1,72.5,6|2,3:2|3:2,0:0:0:0:
88,350,81253,2,0,L|159:340,1,72.5,6|2,1:2|3:2,0:0:0:0:
184,190,81553,2,0,L|109:180,1,72.5,6|2,1:2|3:2,0:0:0:0:
63,99,81853,2,0,L|138:89,1,72.5,6|2,1:2|3:2,0:0:0:0:
206,27,82153,5,6,3:2:0:0:
276,90,82303,1,2,3:2:0:0:
362,52,82453,2,0,P|401:43|438:40,1,72.5,2|2,1:2|3:2,0:0:0:0:
476,124,82753,2,0,P|502:130|530:127,2,36.25,6|0|2,1:2|0:0|3:2,0:0:0:0:
413,194,83053,2,0,P|405:233|404:286,1,72.5,2|2,1:2|3:2,0:0:0:0:
435,354,83353,5,6,1:2:0:0:
435,354,83503,1,2,3:2:0:0:
340,357,83653,2,0,P|296:347|253:346,1,72.5,6|2,1:2|3:2,0:0:0:0:
173,341,83953,1,6,3:2:0:0:
173,341,84103,1,2,1:2:0:0:
217,255,84253,2,0,P|228:210|223:162,1,72.5,10|6,1:3|2:3,0:0:0:0:
243,90,84553,6,0,P|207:93|174:108,1,72.5,6|10,3:2|2:0,0:0:0:0:
95,160,84853,2,0,P|47:149|19:129,1,72.5,2|10,1:2|2:0,0:0:0:0:
95,70,85153,2,0,L|88:18,2,36.25,6|2|10,3:2|3:2|3:2,0:0:0:0:
181,146,85453,1,2,1:2:0:0:
139,230,85603,1,10,2:0:0:0:
235,283,85753,6,0,L|222:367,1,72.5,6|10,3:2|3:2,0:0:0:0:
150,301,86053,2,0,L|138:229,1,72.5,6|10,1:2|3:2,0:0:0:0:
257,202,86353,2,0,P|298:227|314:264,1,72.5,6|10,1:2|3:2,0:0:0:0:
381,309,86653,2,0,P|422:284|438:247,1,72.5,6|10,1:2|3:2,0:0:0:0:
469,176,86953,5,6,3:2:0:0:
469,176,87103,1,10,3:2:0:0:
394,105,87253,2,0,P|344:104|304:104,1,72.5,2|10,1:2|3:2,0:0:0:0:
237,61,87553,2,0,L|231:19,2,36.25,6|2|10,1:2|1:2|3:2,0:0:0:0:
194,145,87853,2,0,P|157:145|121:145,1,72.5,2|10,1:2|3:2,0:0:0:0:
35,183,88153,6,0,L|45:240,3,36.25,6|4|14|4,1:2|2:3|3:0|2:3,0:0:0:0:
75,251,88453,2,0,L|65:308,3,36.25,6|4|14|4,1:3|2:3|3:0|2:3,0:0:0:0:
91,327,88753,2,0,L|81:384,3,36.25,6|4|14|4,1:2|2:3|3:0|2:3,0:0:0:0:
131,372,89053,2,0,P|174:358|243:357,1,108.75,6|4,1:3|2:3,0:0:0:0:
283,349,89353,6,0,P|334:362|384:355,1,72.5,6|2,1:2|1:2,0:0:0:0:
448,353,89653,1,10,2:3:0:0:
411,265,89803,1,10,2:3:0:0:
465,188,89953,2,0,L|492:89,1,72.5,10|6,2:3|2:3,0:0:0:0:
406,55,90253,2,0,L|399:132,1,72.5,6|6,2:3|2:3,0:0:0:0:
290,202,90553,5,6,1:2:0:0:
196,212,90703,1,6,1:2:0:0:
119,157,90853,1,6,1:2:0:0:
67,235,91003,1,6,1:2:0:0:
213,353,91303,5,0,3:0:0:0:
213,353,91378,1,0,3:0:0:0:
213,353,91453,2,0,P|266:326|356:339,1,145,0|4,1:0|3:2,0:0:0:0:
256,192,91903,12,0,93853,0:0:0:0:
306,166,94153,5,4,1:2:0:0:
268,79,94303,1,4,1:2:0:0:
268,79,94753,5,4,1:2:0:0:
181,116,94903,2,0,B|191:143|214:158|214:158|206:192|206:192|224:214|203:254|203:254|265:225|293:264|293:264|348:242|392:304,1,362.5,4|0,1:2|2:0,0:0:0:0:
