osu file format v14

[General]
AudioFilename: audio.mp3
AudioLeadIn: 0
PreviewTime: 74953
Countdown: 0
SampleSet: Soft
StackLeniency: 0.7
Mode: 0
LetterboxInBreaks: 0
WidescreenStoryboard: 0

[Editor]
Bookmarks: 5353,17353,26953,38953,48553,53353,56953,58153,72553,74953,84553,88153,89353,91753,95653
DistanceSpacing: 0.9
BeatDivisor: 4
GridSize: 4
TimelineZoom: 3.199999

[Metadata]
Title:Doku Ryuu no Cobra
TitleUnicode:毒竜のコブラ
Artist:Takanashi Yasuharu
ArtistUnicode:高梨康治
Creator:Aerous
Version:Dragon Force
Source:FAIRY TAIL
Tags:フェアリーテイル Aistre alphabet venax Flask dora- doraemonelf fairy tail japanese anime Lucy Heartfilia Natsu Dragneel Erza Scarlet Gray Fullbuster Happy ナツ ルーシィ ハッピー ost original soundtrack vol.3 instrumental dokuryuu kobura rock オリジナルサウンドトラック
BeatmapID:3189824
BeatmapSetID:1561963

[Difficulty]
HPDrainRate:7
CircleSize:4
OverallDifficulty:8
ApproachRate:9.5
SliderMultiplier:1.9
SliderTickRate:1

[Events]
//Background and Video events
0,0,"Webp.net-resizeimage (4).jpg",0,0
//Break Periods
//Storyboard Layer 0 (Background)
//Storyboard Layer 1 (Fail)
//Storyboard Layer 2 (Pass)
//Storyboard Layer 3 (Foreground)
//Storyboard Layer 4 (Overlay)
//Storyboard Sound Samples

[TimingPoints]
553,300,4,2,1,65,1,0
2353,-200,4,2,2,65,0,0
2653,-200,4,2,3,65,0,0
2953,-200,4,2,1,65,0,0
3253,-100,4,2,1,65,0,0
4753,-100,4,2,3,65,0,0
5053,-100,4,2,4,65,0,0
5353,-100,4,2,5,70,0,1
5653,-100,4,2,3,70,0,1
6553,-100,4,2,2,70,0,1
6853,-100,4,2,4,70,0,1
7003,-100,4,2,3,70,0,1
7153,-100,4,2,4,70,0,1
7303,-100,4,2,3,70,0,1
7453,-100,4,2,4,70,0,1
7603,-100,4,2,3,70,0,1
7753,-100,4,2,6,70,0,1
8053,-100,4,2,3,70,0,1
8953,-100,4,2,2,70,0,1
9253,-100,4,2,4,70,0,1
9403,-100,4,2,3,70,0,1
9553,-100,4,2,4,70,0,1
9703,-100,4,2,3,70,0,1
9853,-100,4,2,4,70,0,1
9928,-100,4,2,3,70,0,1
10153,-100,4,2,7,75,0,1
10453,-100,4,2,8,75,0,1
11353,-100,4,2,9,75,0,1
11653,-100,4,2,10,75,0,1
11803,-100,4,2,3,75,0,1
11953,-83.3333333333333,4,2,10,75,0,1
12102,-83.3333333333333,4,2,3,75,0,1
12253,-83.3333333333333,4,2,10,75,0,1
12402,-83.3333333333333,4,2,3,75,0,1
12553,-83.3333333333333,4,2,7,75,0,1
12853,-100,4,2,5,75,0,1
13153,-100,4,2,9,75,0,1
13453,-100,4,2,5,75,0,1
13753,-100,4,2,11,75,0,1
13903,-100,4,2,2,75,0,1
14053,-100,4,2,10,75,0,1
14203,-100,4,2,9,75,0,1
14653,-100,4,2,6,75,0,1
14803,-100,4,2,2,75,0,1
14953,-100,4,2,12,65,0,1
15253,-100,4,2,3,65,0,1
16153,-100,4,2,4,65,0,1
16903,-100,4,2,1,65,0,0
17053,-200,4,2,1,65,0,0
17353,-111.111111111111,4,2,13,55,0,0
17653,-111.111111111111,4,2,7,55,0,0
17802,-111.111111111111,4,2,3,55,0,0
17953,-111.111111111111,4,2,4,55,0,0
18102,-111.111111111111,4,2,3,55,0,0
18253,-111.111111111111,4,2,7,55,0,0
18403,-111.111111111111,4,2,3,55,0,0
18553,-111.111111111111,4,2,4,55,0,0
18702,-111.111111111111,4,2,3,55,0,0
18853,-111.111111111111,4,2,7,55,0,0
19002,-111.111111111111,4,2,3,55,0,0
19153,-111.111111111111,4,2,4,55,0,0
19302,-111.111111111111,4,2,3,55,0,0
19453,-111.111111111111,4,2,7,55,0,0
19602,-111.111111111111,4,2,3,55,0,0
19753,-111.111111111111,4,2,4,55,0,0
19903,-111.111111111111,4,2,3,55,0,0
20053,-111.111111111111,4,2,7,55,0,0
20203,-111.111111111111,4,2,3,55,0,0
20353,-111.111111111111,4,2,4,55,0,0
20502,-111.111111111111,4,2,3,55,0,0
20653,-111.111111111111,4,2,7,55,0,0
20953,-76.9230769230769,4,2,11,60,0,0
21553,-76.9230769230769,4,2,2,60,0,0
21853,-76.9230769230769,4,2,3,60,0,0
22153,-99.9999999999999,4,2,14,65,0,0
22453,-99.9999999999999,4,2,13,65,0,0
22753,-99.9999999999999,4,2,12,65,0,0
22903,-99.9999999999999,4,2,3,65,0,0
23053,-99.9999999999999,4,2,13,65,0,0
23353,-99.9999999999999,4,2,12,65,0,0
23503,-99.9999999999999,4,2,3,65,0,0
23653,-99.9999999999999,4,2,13,65,0,0
23953,-99.9999999999999,4,2,10,65,0,0
24103,-99.9999999999999,4,2,2,65,0,0
24253,-99.9999999999999,4,2,13,65,0,0
24553,-99.9999999999999,4,2,12,65,0,0
24853,-99.9999999999999,4,2,13,65,0,0
25153,-99.9999999999999,4,2,10,65,0,0
25303,-99.9999999999999,4,2,1,65,0,0
25453,-99.9999999999999,4,2,14,65,0,0
25753,-76.9230769230769,4,2,15,65,0,0
25903,-76.9230769230769,4,2,3,65,0,0
26053,-76.9230769230769,4,2,15,65,0,0
26203,-76.9230769230769,4,2,3,65,0,0
26353,-76.9230769230769,4,2,15,65,0,0
26503,-76.9230769230769,4,2,3,65,0,0
26653,-76.9230769230769,4,2,4,65,0,0
26803,-76.9230769230769,4,2,6,65,0,0
26953,-125,4,2,6,65,0,0
27403,-125,4,2,3,65,0,0
27553,-125,4,2,6,65,0,0
27703,-125,4,2,8,65,0,0
28153,-125,4,2,3,65,0,0
28303,-125,4,2,6,65,0,0
28453,-125,4,2,9,65,0,0
28753,-125,4,2,6,65,0,0
29803,-125,4,2,3,65,0,0
29953,-125,4,2,6,65,0,0
30103,-125,4,2,8,65,0,0
30553,-125,4,2,3,65,0,0
30703,-125,4,2,6,65,0,0
30853,-125,4,2,8,65,0,0
31153,-125,4,2,16,65,0,0
31303,-125,4,2,3,65,0,0
31753,-125,4,2,16,65,0,0
32053,-125,4,2,3,65,0,0
32353,-125,4,2,2,65,0,0
32428,-125,4,2,3,65,0,0
33553,-125,4,2,2,65,0,0
34603,-125,4,2,3,65,0,0
34753,-125,4,2,2,65,0,0
34903,-125,4,2,3,65,0,0
35053,-125,4,2,2,65,0,0
35503,-125,4,2,3,65,0,0
35803,-125,4,2,2,65,0,0
35953,-125,4,2,3,65,0,0
36253,-125,4,2,2,65,0,0
36553,-166.666666666667,4,2,1,65,0,0
38653,-166.666666666667,4,2,17,65,0,0
38953,-90.909090909091,4,2,18,70,0,1
39253,-90.909090909091,4,2,13,70,0,1
39553,-90.909090909091,4,2,3,70,0,1
39853,-90.909090909091,4,2,14,70,0,1
40153,-90.909090909091,4,2,3,70,0,1
40453,-90.909090909091,4,2,13,70,0,1
40753,-90.909090909091,4,2,3,70,0,1
40978,-90.909090909091,4,2,3,50,0,1
41053,-90.909090909091,4,2,13,70,0,1
41353,-90.909090909091,4,2,2,70,0,1
41503,-90.909090909091,4,2,3,70,0,1
41653,-90.909090909091,4,2,13,70,0,1
41803,-90.909090909091,4,2,3,70,0,1
42253,-90.909090909091,4,2,14,70,0,1
42403,-90.909090909091,4,2,3,70,0,1
42553,-71.4285714285714,4,2,4,70,0,1
42702,-71.4285714285714,4,2,3,70,0,1
42853,-71.4285714285714,4,2,4,70,0,1
43002,-71.4285714285714,4,2,2,70,0,1
43153,-71.4285714285714,4,2,4,70,0,1
43302,-71.4285714285714,4,2,1,70,0,1
43453,-71.4285714285714,4,2,4,70,0,1
43602,-71.4285714285714,4,2,16,70,0,1
43753,-90.9090909090909,4,2,16,70,0,1
44053,-90.9090909090909,4,2,13,70,0,1
44353,-90.9090909090909,4,2,3,70,0,1
44653,-90.9090909090909,4,2,14,70,0,1
44953,-90.9090909090909,4,2,3,70,0,1
45253,-90.9090909090909,4,2,13,70,0,1
45553,-90.9090909090909,4,2,3,70,0,1
45853,-90.9090909090909,4,2,13,70,0,1
46153,-90.9090909090909,4,2,2,70,0,1
46303,-90.9090909090909,4,2,3,70,0,1
46453,-90.9090909090909,4,2,13,70,0,1
46603,-90.9090909090909,4,2,3,70,0,1
47053,-90.9090909090909,4,2,14,70,0,1
47203,-90.9090909090909,4,2,3,70,0,1
47353,-71.4285714285714,4,2,4,70,0,1
47503,-71.4285714285714,4,2,3,70,0,1
47653,-71.4285714285714,4,2,4,70,0,1
47803,-71.4285714285714,4,2,2,70,0,1
47953,-71.4285714285714,4,2,4,70,0,1
48103,-71.4285714285714,4,2,1,70,0,1
48253,-71.4285714285714,4,2,4,70,0,1
48403,-71.4285714285714,4,2,6,70,0,1
48553,-90.9090909090909,4,2,6,70,0,1
48853,-90.9090909090909,4,2,13,70,0,1
49153,-90.9090909090909,4,2,8,70,0,1
49453,-90.9090909090909,4,2,14,70,0,1
49753,-90.9090909090909,4,2,8,70,0,1
50053,-90.9090909090909,4,2,13,70,0,1
50353,-90.9090909090909,4,2,8,70,0,1
50653,-90.9090909090909,4,2,13,70,0,1
50953,-90.9090909090909,4,2,9,70,0,1
51103,-90.9090909090909,4,2,3,70,0,1
51253,-90.9090909090909,4,2,13,70,0,1
51403,-90.9090909090909,4,2,8,70,0,1
51853,-90.9090909090909,4,2,14,70,0,1
52003,-90.9090909090909,4,2,3,70,0,1
52153,-71.4285714285714,4,2,19,70,0,1
52303,-71.4285714285714,4,2,20,70,0,1
52453,-71.4285714285714,4,2,19,70,0,1
52603,-71.4285714285714,4,2,17,70,0,1
52753,-71.4285714285714,4,2,19,70,0,1
52903,-71.4285714285714,4,2,17,70,0,1
53053,-71.4285714285714,4,2,19,70,0,1
53203,-71.4285714285714,4,2,17,70,0,1
53353,-90.9090909090909,4,2,5,70,0,1
53653,-90.9090909090909,4,2,8,70,0,1
53953,-90.9090909090909,4,2,12,70,0,1
54103,-90.9090909090909,4,2,3,70,0,1
54253,-90.9090909090909,4,2,5,70,0,1
54553,-90.9090909090909,4,2,12,70,0,1
54703,-90.9090909090909,4,2,8,70,0,1
55153,-90.9090909090909,4,2,12,70,0,1
55303,-90.9090909090909,4,2,8,70,0,1
55753,-90.9090909090909,4,2,9,70,0,1
55903,-90.9090909090909,4,2,8,70,0,1
56353,-90.9090909090909,4,2,12,70,0,1
56503,-90.9090909090909,4,2,3,70,0,1
56653,-90.9090909090909,4,2,5,70,0,1
56803,-90.9090909090909,4,2,3,70,0,1
56953,-90.9090909090909,4,2,21,70,0,1
57028,-90.9090909090909,4,2,3,70,0,1
57253,-90.9090909090909,4,2,21,70,0,1
57328,-90.9090909090909,4,2,2,70,0,1
57553,-71.4285714285714,4,2,21,70,0,1
57627,-71.4285714285714,4,2,2,70,0,1
58153,-71.4285714285714,4,2,1,55,0,0
58453,-100,4,2,1,55,0,0
59953,-71.4285714285714,4,2,2,55,0,0
60253,-71.4285714285714,4,2,3,55,0,0
60553,-71.4285714285714,4,2,1,55,0,0
60853,-100,4,2,1,55,0,0
62353,-71.4285714285714,4,2,3,55,0,0
62653,-71.4285714285714,4,2,4,55,0,0
62953,-100,4,2,1,60,0,0
64753,-71.4285714285714,4,2,2,60,0,0
65053,-71.4285714285714,4,2,3,60,0,0
65353,-71.4285714285714,4,2,1,60,0,0
65653,-100,4,2,1,60,0,0
67153,-71.4285714285714,4,2,3,60,0,0
67453,-71.4285714285714,4,2,4,60,0,0
67753,-71.4285714285714,4,2,1,60,0,0
68053,-90.9090909090909,4,2,1,60,0,0
69553,-71.4285714285714,4,2,2,60,0,0
69853,-71.4285714285714,4,2,3,60,0,0
70153,-71.4285714285714,4,2,1,60,0,0
70453,-90.9090909090909,4,2,1,60,0,0
71953,-90.9090909090909,4,2,22,60,0,0
72028,-90.9090909090909,4,2,1,60,0,0
72103,-83.3333333333333,4,2,1,60,0,0
72253,-83.3333333333333,4,2,21,60,0,0
72328,-83.3333333333333,4,2,2,60,0,0
72553,-62.5,4,2,2,60,0,0
72753,-62.5,4,2,17,60,0,0
73153,-62.5,4,2,3,60,0,0
73353,-62.5,4,2,17,60,0,0
73753,-62.5,4,2,3,60,0,0
74953,-62.5,4,2,5,70,0,1
75253,-83.3333333333333,4,2,3,70,0,1
76153,-83.3333333333333,4,2,2,70,0,1
76453,-83.3333333333333,4,2,4,70,0,1
76602,-83.3333333333333,4,2,3,70,0,1
76753,-83.3333333333333,4,2,4,70,0,1
76903,-83.3333333333333,4,2,3,70,0,1
77053,-83.3333333333333,4,2,4,70,0,1
77203,-83.3333333333333,4,2,3,70,0,1
77353,-83.3333333333333,4,2,6,70,0,1
77653,-83.3333333333333,4,2,3,70,0,1
78553,-83.3333333333333,4,2,2,70,0,1
78853,-83.3333333333333,4,2,4,70,0,1
79003,-83.3333333333333,4,2,3,70,0,1
79153,-83.3333333333333,4,2,4,70,0,1
79303,-83.3333333333333,4,2,3,70,0,1
79453,-83.3333333333333,4,2,4,70,0,1
79603,-83.3333333333333,4,2,3,70,0,1
79753,-83.3333333333333,4,2,7,75,0,1
80053,-83.3333333333333,4,2,8,75,0,1
80953,-83.3333333333333,4,2,9,75,0,1
81253,-83.3333333333333,4,2,10,75,0,1
81402,-83.3333333333333,4,2,3,75,0,1
81553,-83.3333333333333,4,2,10,75,0,1
81703,-83.3333333333333,4,2,3,75,0,1
81853,-83.3333333333333,4,2,10,75,0,1
82003,-83.3333333333333,4,2,3,75,0,1
82153,-83.3333333333333,4,2,7,75,0,1
82453,-83.3333333333333,4,2,5,75,0,1
82753,-83.3333333333333,4,2,9,75,0,1
83053,-83.3333333333333,4,2,5,75,0,1
83353,-83.3333333333333,4,2,11,75,0,1
83503,-83.3333333333333,4,2,2,75,0,1
83653,-83.3333333333333,4,2,10,75,0,1
83803,-83.3333333333333,4,2,9,75,0,1
84253,-83.3333333333333,4,2,6,75,0,1
84403,-83.3333333333333,4,2,2,75,0,1
84553,-83.3333333333333,4,2,7,80,0,1
84703,-83.3333333333333,4,2,4,80,0,1
84853,-83.3333333333333,4,2,8,80,0,1
85753,-83.3333333333333,4,2,9,80,0,1
85902,-83.3333333333333,4,2,5,80,0,1
86053,-83.3333333333333,4,2,10,80,0,1
86202,-83.3333333333333,4,2,8,80,0,1
86353,-83.3333333333333,4,2,10,80,0,1
86503,-83.3333333333333,4,2,8,80,0,1
86653,-83.3333333333333,4,2,10,80,0,1
86803,-83.3333333333333,4,2,8,80,0,1
86953,-83.3333333333333,4,2,7,80,0,1
87103,-83.3333333333333,4,2,5,80,0,1
87553,-83.3333333333333,4,2,9,80,0,1
87703,-83.3333333333333,4,2,5,80,0,1
88153,-83.3333333333333,4,2,23,80,0,1
88228,-83.3333333333333,4,2,1,80,0,1
88303,-83.3333333333333,4,2,5,80,0,1
88753,-83.3333333333333,4,2,23,80,0,1
88827,-83.3333333333333,4,2,1,80,0,1
88903,-83.3333333333333,4,2,5,80,0,1
89353,-83.3333333333333,4,2,12,70,0,1
89653,-83.3333333333333,4,2,3,70,0,1
90553,-83.3333333333333,4,2,4,70,0,1
91303,-83.3333333333333,4,2,3,70,0,1
91453,-100,4,2,3,70,0,1
91753,-100,4,2,3,70,0,0
94153,-100,4,2,4,70,0,0
94903,-166.666666666667,4,2,2,70,0,0
95652,-166.666666666667,4,2,99,5,0,0

[Colours]
Combo1 : 255,189,157
Combo2 : 39,155,241
Combo3 : 100,100,255
Combo4 : 255,89,89

[HitObjects]
125,201,553,5,4,2:0:0:0:
74,92,703,1,4,2:0:0:0:
125,201,853,2,0,P|177:196|234:188,1,95,2|2,2:0|2:0,0:0:0:0:
80,286,1153,2,0,P|127:292|174:296,1,95,2|2,2:0|2:0,0:0:0:0:
394,198,1453,5,4,2:0:0:0:
445,93,1603,1,4,2:0:0:0:
394,198,1753,2,0,P|342:193|285:185,1,95,2|2,2:0|2:0,0:0:0:0:
442,284,2053,2,0,P|394:290|347:294,1,95,2|2,2:0|2:0,0:0:0:0:
210,301,2353,6,0,L|203:241,1,47.5,4|0,1:2|0:0,0:0:0:0:
119,295,2653,2,0,L|114:343,1,47.5,4|0,1:2|0:0,0:0:0:0:
154,95,2953,5,4,2:0:0:0:
204,253,3103,1,4,2:0:0:0:
154,95,3253,2,0,P|213:92|270:86,1,95,2|2,2:0|2:0,0:0:0:0:
62,193,3553,2,0,P|109:188|156:187,1,95,2|2,2:0|2:0,0:0:0:0:
373,136,3853,5,4,2:0:0:0:
292,312,4003,1,4,2:0:0:0:
269,201,4153,5,10,2:3:0:0:
390,162,4303,1,10,2:3:0:0:
246,176,4453,1,6,2:3:0:0:
373,246,4603,1,6,2:3:0:0:
198,326,4753,2,0,L|291:311,1,95,4|0,1:2|3:0,0:0:0:0:
419,349,5053,2,0,L|513:364,1,95,4|0,1:2|0:0,0:0:0:0:
247,235,5353,6,0,P|242:167|241:112,1,95,6|2,3:2|2:0,0:0:0:0:
381,19,5653,1,2,1:2:0:0:
337,158,5803,1,2,2:0:0:0:
215,70,5953,1,2,3:2:0:0:
215,70,6028,1,2,2:0:0:0:
215,70,6103,1,2,3:2:0:0:
275,264,6253,1,2,1:2:0:0:
436,175,6403,1,2,2:0:0:0:
271,384,6553,6,0,P|254:331|242:285,1,95,2|2,3:2|3:2,0:0:0:0:
429,206,6853,2,0,P|416:251|402:297,1,95,6|2,1:2|3:2,0:0:0:0:
209,117,7153,1,6,1:2:0:0:
385,142,7303,1,2,3:2:0:0:
177,229,7453,1,6,1:2:0:0:
391,122,7603,1,2,3:2:0:0:
202,22,7753,6,0,P|206:66|210:146,1,95,6|2,3:2|2:0,0:0:0:0:
152,255,8053,1,2,1:2:0:0:
120,92,8203,1,2,2:0:0:0:
299,172,8353,1,2,3:2:0:0:
299,172,8428,1,2,2:0:0:0:
299,172,8503,1,2,3:2:0:0:
204,318,8653,1,2,1:2:0:0:
152,154,8803,1,2,2:0:0:0:
93,302,8953,6,0,P|31:294|-15:279,1,95,2|2,3:2|3:2,0:0:0:0:
252,225,9253,2,0,P|314:233|360:248,1,95,6|2,1:2|3:2,0:0:0:0:
469,187,9553,1,6,1:2:0:0:
320,132,9703,1,2,3:2:0:0:
439,74,9853,1,6,1:2:0:0:
439,74,9928,1,2,3:2:0:0:
439,74,10003,2,0,P|436:31|437:13,1,47.5,2|2,3:2|3:2,0:0:0:0:
372,215,10153,6,0,P|342:274|330:318,1,95,6|2,3:2|2:0,0:0:0:0:
493,384,10453,2,0,P|477:339|454:297,1,95,2|2,1:2|2:0,0:0:0:0:
255,200,10753,1,6,3:2:0:0:
250,176,10828,1,2,2:0:0:0:
244,155,10903,1,2,3:2:0:0:
194,321,11053,1,2,1:2:0:0:
349,267,11203,1,2,2:0:0:0:
236,123,11353,6,0,P|229:169|224:217,1,95,6|2,3:2|3:2,0:0:0:0:
402,113,11653,2,0,P|397:65|390:18,1,95,6|2,1:2|3:2,0:0:0:0:
141,168,11953,5,6,1:2:0:0:
325,80,12103,1,2,3:2:0:0:
128,69,12253,1,6,1:2:0:0:
323,215,12403,1,2,3:2:0:0:
266,22,12553,5,6,3:2:0:0:
221,180,12703,1,2,3:2:0:0:
373,226,12853,1,2,1:2:0:0:
189,172,13003,1,2,3:2:0:0:
354,98,13153,1,6,1:2:0:0:
354,98,13228,1,0,0:0:0:0:
354,98,13303,1,2,3:2:0:0:
236,279,13453,1,2,1:2:0:0:
422,319,13603,1,2,3:2:0:0:
271,186,13753,5,6,1:2:0:0:
151,326,13903,1,2,3:2:0:0:
316,362,14053,1,6,1:2:0:0:
262,161,14203,1,2,3:2:0:0:
99,233,14353,2,0,P|103:280|113:326,1,95,6|2,3:2|1:2,0:0:0:0:
316,362,14653,2,0,P|326:315|330:268,1,95,10|6,1:3|2:3,0:0:0:0:
289,101,14953,5,6,1:2:0:0:
135,43,15103,1,2,1:2:0:0:
174,198,15253,5,10,2:3:0:0:
373,161,15403,1,10,2:3:0:0:
190,102,15553,5,10,2:3:0:0:
237,285,15703,1,6,2:3:0:0:
474,243,15853,5,6,2:3:0:0:
265,192,16003,1,6,2:3:0:0:
349,384,16153,5,6,1:2:0:0:
157,61,16303,1,6,1:2:0:0:
54,357,16453,1,6,1:2:0:0:
447,143,16603,1,6,1:2:0:0:
253,121,16903,2,0,P|269:123|284:129,2,31.6666666666667,0|0|0,3:0|3:0|3:0,0:0:0:0:
250,195,17053,2,0,P|259:239|256:285,1,71.25,0|0,1:0|0:0,0:0:0:0:
232,307,17353,6,0,P|272:285|373:295,1,128.249996086121,4|0,3:2|0:0,0:0:0:0:
383,307,17653,2,0,P|403:249|400:203,1,85.4999973907472,0|2,1:0|2:0,0:0:0:0:
316,115,17953,2,0,P|319:157|336:196,1,85.4999973907472,0|2,3:0|2:0,0:0:0:0:
405,134,18253,1,0,1:0:0:0:
321,72,18403,1,2,2:0:0:0:
240,167,18553,6,0,P|189:158|144:152,1,85.4999973907472,0|2,3:0|2:0,0:0:0:0:
277,250,18853,2,0,P|234:256|192:263,1,85.4999973907472,0|2,1:0|2:0,0:0:0:0:
131,166,19153,2,0,P|124:123|117:81,1,85.4999973907472,0|2,3:0|2:0,0:0:0:0:
176,261,19453,2,0,P|168:303|162:345,1,85.4999973907472,0|2,1:0|2:0,0:0:0:0:
86,244,19753,5,0,3:0:0:0:
213,181,19903,1,2,2:0:0:0:
90,138,20053,1,0,1:0:0:0:
176,261,20203,1,2,2:0:0:0:
176,261,20353,2,0,P|243:257|286:250,1,85.4999973907472,0|2,3:0|2:0,0:0:0:0:
317,109,20653,2,0,P|274:107|231:102,1,85.4999973907472,8|0,1:2|0:0,0:0:0:0:
349,259,20953,6,0,B|339:215|327:183|327:183|331:152|342:120,1,123.499994346619,4|0,2:0|0:0,0:0:0:0:
332,364,21253,6,0,B|297:335|267:317|267:317|252:290|240:258,1,123.499994346619,4|0,2:0|0:0,0:0:0:0:
246,115,21553,1,4,1:2:0:0:
160,289,21703,1,0,3:0:0:0:
108,92,21853,1,4,1:2:0:0:
121,110,22153,6,0,P|162:86|261:143,1,142.5,6|0,3:2|0:0,0:0:0:0:
183,166,22453,2,0,P|137:185|90:196,1,95,2|2,1:2|2:0,0:0:0:0:
13,59,22753,1,2,3:2:0:0:
121,110,22903,1,2,3:2:0:0:
39,264,23053,2,0,P|9:207|17:157,1,95,2|2,1:2|2:0,0:0:0:0:
207,74,23353,5,2,3:2:0:0:
104,196,23503,1,2,3:2:0:0:
224,258,23653,1,2,1:2:0:0:
151,125,23803,1,2,2:0:0:0:
303,117,23953,1,2,3:2:0:0:
309,94,24028,1,2,2:0:0:0:
313,70,24103,1,2,3:2:0:0:
348,215,24253,2,0,P|409:201|458:180,1,95,2|0,1:2|0:0,0:0:0:0:
317,47,24553,5,2,3:2:0:0:
327,225,24703,1,2,2:0:0:0:
207,162,24853,1,2,1:2:0:0:
228,309,25003,1,2,2:0:0:0:
348,215,25153,1,2,3:2:0:0:
156,227,25303,1,0,3:0:0:0:
369,342,25453,2,0,L|374:294,1,47.5,2|2,1:2|2:0,0:0:0:0:
378,204,25603,1,2,2:0:0:0:
202,125,25753,6,0,P|218:229|228:318,1,185.249991519928,6|0,1:2|0:0,0:0:0:0:
156,267,26053,2,0,P|216:227|312:319,1,185.249991519928,6|0,1:2|0:0,0:0:0:0:
228,308,26353,1,6,1:2:0:0:
325,177,26503,1,2,3:2:0:0:
164,111,26653,1,6,1:2:0:0:
380,38,26803,1,2,3:2:0:0:
161,128,26953,6,0,B|103:115|58:114|58:114|85:95|97:80,1,152,14|2,3:2|3:2,0:0:0:0:
175,43,27403,1,2,2:0:0:0:
163,208,27553,2,0,P|211:191|241:144,1,76,10|2,1:2|2:0,0:0:0:0:
106,270,27853,2,0,P|150:294|205:285,1,76,6|2,3:2|2:0,0:0:0:0:
328,188,28153,5,10,3:2:0:0:
267,352,28303,1,2,1:2:0:0:
342,160,28453,1,6,3:2:0:0:
419,303,28603,1,6,3:2:0:0:
358,129,28753,2,0,P|371:73|373:35,1,76,10|0,1:2|3:0,0:0:0:0:
234,128,29053,2,0,P|238:165|248:202,1,76,2|0,1:2|3:0,0:0:0:0:
395,282,29353,6,0,P|344:253|263:309,1,152,14|2,3:2|3:2,0:0:0:0:
335,328,29803,1,2,2:0:0:0:
471,257,29953,2,0,P|447:222|403:198,1,76,10|2,1:2|2:0,0:0:0:0:
305,180,30253,2,0,P|263:187|224:218,1,76,6|2,3:2|2:0,0:0:0:0:
143,166,30553,5,10,3:2:0:0:
296,257,30703,1,2,1:2:0:0:
167,335,30853,1,6,3:2:0:0:
311,252,31003,1,6,3:2:0:0:
122,176,31153,5,10,1:3:0:0:
170,312,31303,1,8,2:3:0:0:
329,247,31453,1,10,2:3:0:0:
314,384,31603,1,8,2:3:0:0:
245,188,31753,6,0,P|252:125|249:29,1,152,6|2,3:2|1:2,0:0:0:0:
249,36,32203,1,2,2:0:0:0:
429,134,32353,1,10,3:2:0:0:
446,127,32428,1,2,2:0:0:0:
462,117,32503,1,2,3:2:0:0:
347,99,32653,2,0,P|325:44|318:-2,1,76,2|2,1:2|2:0,0:0:0:0:
329,195,32953,6,0,P|319:231|303:266,1,76,10|2,3:2|3:2,0:0:0:0:
124,204,33253,1,6,1:2:0:0:
244,132,33403,1,2,2:0:0:0:
168,314,33553,2,0,P|152:271|146:223,1,76,10|0,3:2|3:0,0:0:0:0:
144,111,33853,2,0,P|179:125|217:133,1,76,2|0,1:2|3:0,0:0:0:0:
355,55,34153,6,0,P|329:92|348:174,1,114,10|0,3:2|0:0,0:0:0:0:
368,188,34453,2,0,P|406:199|456:182,1,76,2|2,1:2|2:0,0:0:0:0:
240,219,34753,1,10,2:3:0:0:
406,117,34903,1,10,2:3:0:0:
203,103,35053,1,6,2:3:0:0:
342,261,35203,1,6,2:3:0:0:
34,131,35353,5,2,1:2:0:0:
304,206,35503,1,2,3:2:0:0:
93,360,35653,1,2,3:2:0:0:
202,116,35803,5,2,1:2:0:0:
445,183,35953,1,2,3:2:0:0:
256,322,36103,1,2,3:2:0:0:
402,96,36253,5,6,1:2:0:0:
230,16,36403,1,0,0:0:0:0:
260,213,36553,6,0,P|235:143|240:85,1,113.999996520996,2|0,1:2|0:0,0:0:0:0:
235,307,37003,2,0,P|193:346|142:369,1,113.999996520996,2|0,1:2|0:0,0:0:0:0:
332,266,37453,2,0,P|371:282|412:274,1,85.4999973907472,2|0,1:2|0:0,0:0:0:0:
377,210,37753,5,8,2:3:0:0:
369,99,37903,1,8,2:3:0:0:
252,176,38053,1,8,2:3:0:0:
366,78,38203,1,4,2:3:0:0:
233,85,38353,1,4,2:3:0:0:
365,55,38503,1,4,2:3:0:0:
139,41,38653,5,6,3:2:0:0:
200,265,38803,1,6,3:2:0:0:
49,153,38953,6,0,B|159:178|159:178|270:163,1,209.000006378174,6|2,3:2|1:2,0:0:0:0:
334,175,39328,1,2,2:0:0:0:
343,187,39403,1,2,2:0:0:0:
149,85,39553,1,2,3:2:0:0:
184,284,39703,1,2,3:2:0:0:
353,202,39853,2,0,P|361:127|363:93,1,104.500003189087,2|0,1:2|0:0,0:0:0:0:
325,303,40153,6,0,P|392:293|439:269,1,104.500003189087,2|2,3:2|3:2,0:0:0:0:
120,344,40453,2,0,P|168:363|220:368,1,104.500003189087,2|2,1:2|2:0,0:0:0:0:
215,116,40753,2,0,P|130:86|76:160,1,156.750004783631,2|0,3:2|0:0,0:0:0:0:
64,158,41053,2,0,P|66:210|89:271,1,104.500003189087,2|0,1:2|0:0,0:0:0:0:
176,39,41353,5,2,3:2:0:0:
155,190,41503,1,2,3:2:0:0:
295,201,41653,1,2,1:2:0:0:
135,173,41803,1,2,3:2:0:0:
220,287,41953,1,2,3:2:0:0:
230,310,42028,1,2,2:0:0:0:
236,336,42103,1,2,3:2:0:0:
323,186,42253,6,0,P|379:166|442:157,1,104.500003189087,2|2,1:2|3:2,0:0:0:0:
414,369,42553,2,0,B|383:370|353:367|353:367|311:341|305:289,1,132.999995941162,6|2,1:2|3:2,0:0:0:0:
264,22,42853,2,0,B|295:20|325:24|325:24|367:50|373:102,1,132.999995941162,6|2,1:2|3:2,0:0:0:0:
43,146,43153,2,0,P|33:57|23:4,1,132.999995941162,6|0,1:2|3:0,0:0:0:0:
245,229,43453,2,0,P|233:294|227:360,1,132.999995941162,6|0,1:2|3:0,0:0:0:0:
209,136,43753,6,0,P|280:136|329:274,1,209.000006378174,6|2,3:2|1:2,0:0:0:0:
324,323,44128,1,2,2:0:0:0:
338,329,44203,1,2,2:0:0:0:
133,196,44353,2,0,P|122:142|120:68,1,104.500003189087,2|2,3:2|3:2,0:0:0:0:
309,32,44653,2,0,P|305:84|295:135,1,104.500003189087,2|0,1:2|0:0,0:0:0:0:
208,253,44953,5,2,3:2:0:0:
33,163,45103,1,2,3:2:0:0:
205,115,45253,1,2,1:2:0:0:
102,252,45403,1,2,2:0:0:0:
269,308,45553,1,2,3:2:0:0:
281,285,45628,1,2,2:0:0:0:
287,259,45703,1,2,3:2:0:0:
83,282,45853,2,0,P|94:334|103:385,1,104.500003189087,2|0,1:2|0:0,0:0:0:0:
229,84,46153,5,2,3:2:0:0:
205,257,46303,1,2,3:2:0:0:
375,186,46453,1,2,1:2:0:0:
199,55,46603,1,2,3:2:0:0:
194,282,46753,5,2,3:2:0:0:
423,184,46903,1,2,3:2:0:0:
252,148,47053,1,2,1:2:0:0:
365,344,47203,1,2,3:2:0:0:
300,68,47353,6,0,P|224:54|168:183,1,199.499993911743,6|0,1:2|0:0,0:0:0:0:
273,221,47653,2,0,P|259:142|147:155,1,199.499993911743,6|0,1:2|0:0,0:0:0:0:
14,67,47953,2,0,P|108:60|156:141,1,199.499993911743,6|0,1:2|0:0,0:0:0:0:
273,221,48253,2,0,P|332:265|444:212,1,199.499993911743,6|0,1:2|0:0,0:0:0:0:
356,171,48553,6,0,L|351:66,1,104.500003189087,6|0,3:2|3:2,0:0:0:0:
200,40,48853,1,2,1:2:0:0:
200,40,48928,1,2,2:0:0:0:
200,40,49003,1,2,2:0:0:0:
233,225,49153,1,6,3:2:0:0:
391,167,49303,1,2,3:2:0:0:
269,336,49453,2,0,P|166:322|142:313,1,104.500003189087,2|0,1:2|0:0,0:0:0:0:
74,207,49753,5,6,3:2:0:0:
249,150,49903,1,2,3:2:0:0:
175,269,50053,1,2,1:2:0:0:
128,110,50203,1,2,2:0:0:0:
286,74,50353,1,6,3:2:0:0:
292,48,50428,1,2,2:0:0:0:
296,22,50503,1,2,3:2:0:0:
399,156,50653,2,0,P|397:197|389:272,1,104.500003189087,2|0,1:2|0:0,0:0:0:0:
156,113,50953,5,6,3:2:0:0:
315,199,51103,1,2,3:2:0:0:
164,295,51253,1,2,1:2:0:0:
334,192,51403,1,2,3:2:0:0:
341,356,51553,1,6,3:2:0:0:
341,356,51628,1,2,2:0:0:0:
341,356,51703,1,2,3:2:0:0:
146,263,51853,1,2,1:2:0:0:
251,114,52003,1,2,3:2:0:0:
77,209,52153,6,0,P|151:174|232:263,1,199.499993911743,6|0,3:2|0:0,0:0:0:0:
326,214,52453,2,0,B|308:145|250:113|250:113|294:104|328:51,1,199.499993911743,6|0,3:2|0:0,0:0:0:0:
481,49,52753,2,0,B|481:104|478:134|478:134|427:106|365:128,1,199.499993911743,6|0,3:2|0:0,0:0:0:0:
308,77,53053,1,6,3:2:0:0:
378,284,53353,6,0,P|305:295|247:180,1,209.000006378174,6|2,3:2|1:2,0:0:0:0:
226,114,53728,1,2,2:0:0:0:
211,119,53803,1,2,3:2:0:0:
368,37,53953,2,0,P|366:89|362:141,1,104.500003189087,6|2,1:2|3:2,0:0:0:0:
272,304,54253,2,0,P|200:289|146:267,1,104.500003189087,2|0,1:2|3:0,0:0:0:0:
66,127,54553,5,6,1:2:0:0:
127,302,54703,1,2,3:2:0:0:
280,174,54853,1,2,1:2:0:0:
238,372,55003,1,2,3:2:0:0:
291,142,55153,1,6,1:2:0:0:
291,142,55228,1,2,2:0:0:0:
291,142,55303,1,2,3:2:0:0:
140,212,55453,1,2,1:2:0:0:
305,102,55603,1,0,3:0:0:0:
319,299,55753,5,6,1:2:0:0:
121,165,55903,1,2,3:2:0:0:
336,107,56053,1,2,1:2:0:0:
179,313,56203,1,2,3:2:0:0:
408,227,56353,5,6,1:2:0:0:
79,152,56503,1,2,3:2:0:0:
369,82,56653,1,2,1:2:0:0:
168,353,56803,1,2,3:2:0:0:
0,105,56953,5,6,1:2:0:0:
25,83,57028,1,4,2:3:0:0:
56,72,57103,1,6,3:0:0:0:
89,73,57178,1,4,2:3:0:0:
120,85,57253,1,6,1:2:0:0:
144,108,57328,1,4,2:3:0:0:
160,137,57403,1,6,3:0:0:0:
163,170,57478,1,4,2:3:0:0:
156,202,57553,6,0,L|145:268,1,66.4999979705811,6|4,1:2|2:3,0:0:0:0:
264,150,57703,2,0,L|274:215,1,66.4999979705811,4|4,3:0|2:3,0:0:0:0:
359,90,57853,1,6,1:3:0:0:
359,90,57928,1,4,2:3:0:0:
359,90,58003,2,0,L|369:155,1,66.4999979705811,4|4,1:3|2:3,0:0:0:0:
78,157,58153,5,4,2:0:0:0:
78,157,58303,1,4,2:0:0:0:
138,357,58453,2,0,P|185:351|232:349,1,95,2|2,2:0|2:0,0:0:0:0:
152,250,58753,2,0,P|104:244|57:241,1,95,2|2,2:0|2:0,0:0:0:0:
384,165,59053,5,4,2:0:0:0:
384,165,59203,1,4,2:0:0:0:
392,260,59353,2,0,P|333:254|289:251,1,95,2|2,2:0|2:0,0:0:0:0:
384,165,59653,2,0,P|431:160|479:158,1,95,2|2,2:0|2:0,0:0:0:0:
168,128,59953,6,0,P|226:166|300:76,1,199.499993911743,4|0,1:2|0:0,0:0:0:0:
114,70,60253,2,0,B|88:112|88:112|114:250,1,132.999995941162,4|0,1:2|0:0,0:0:0:0:
340,39,60553,5,4,2:0:0:0:
340,39,60703,1,4,2:0:0:0:
349,134,60853,2,0,P|343:75|340:31,1,95,2|2,2:0|2:0,0:0:0:0:
229,124,61153,2,0,P|234:171|238:218,1,95,2|2,2:0|2:0,0:0:0:0:
470,351,61453,5,4,2:0:0:0:
470,351,61603,1,4,2:0:0:0:
329,277,61753,5,10,2:3:0:0:
428,231,61903,1,10,2:3:0:0:
283,354,62053,1,6,2:3:0:0:
272,166,62203,1,6,2:3:0:0:
251,338,62353,6,0,B|214:235|214:235|280:157,1,199.499993911743,4|0,1:2|0:0,0:0:0:0:
384,110,62653,2,0,B|442:178|442:178|405:281,1,199.499993911743,4|0,1:2|0:0,0:0:0:0:
251,338,62953,6,0,P|176:268|108:293,1,142.5,4|0,2:0|0:0,0:0:0:0:
120,298,63253,2,0,P|101:233|100:191,1,95,10|2,3:2|3:2,0:0:0:0:
251,338,63553,2,0,P|266:293|272:246,1,95,10|2,1:2|2:0,0:0:0:0:
209,89,63853,5,12,2:0:0:0:
81,167,64003,1,4,2:0:0:0:
255,226,64153,2,0,P|321:224|392:209,1,95,10|2,3:2|3:2,0:0:0:0:
199,108,64453,2,0,P|151:108|104:114,1,95,10|2,1:2|2:0,0:0:0:0:
365,202,64753,6,0,B|405:231|405:231|370:306,1,132.999995941162,4|0,1:2|0:0,0:0:0:0:
289,111,65053,2,0,B|254:36|254:36|300:2,1,132.999995941162,4|0,1:2|0:0,0:0:0:0:
174,201,65353,5,4,2:0:0:0:
379,161,65503,1,4,2:0:0:0:
272,299,65653,2,0,P|263:242|257:189,1,95,10|2,3:2|3:2,0:0:0:0:
194,353,65953,2,0,P|185:296|179:243,1,95,10|2,1:2|2:0,0:0:0:0:
278,52,66253,5,12,2:0:0:0:
62,13,66403,1,4,2:0:0:0:
180,150,66553,2,0,P|188:93|195:40,1,95,10|2,3:2|1:2,0:0:0:0:
258,204,66853,2,0,P|266:147|273:94,1,95,10|10,1:2|2:3,0:0:0:0:
62,13,67153,6,0,B|69:46|98:74|98:74|71:93|81:170,1,132.999995941162,4|4,1:2|2:3,0:0:0:0:
241,318,67453,2,0,B|248:281|221:262|221:262|250:234|257:201,1,132.999995941162,4|0,1:2|0:0,0:0:0:0:
399,45,67753,5,4,2:0:0:0:
193,124,67903,1,4,2:0:0:0:
391,148,68053,2,0,P|399:61|397:33,1,104.500003189087,10|2,3:2|3:2,0:0:0:0:
271,110,68353,2,0,P|272:157|279:217,1,104.500003189087,10|2,1:2|2:0,0:0:0:0:
357,374,68653,5,12,2:0:0:0:
391,148,68803,1,4,2:0:0:0:
460,370,68953,2,0,P|395:366|335:381,1,104.500003189087,10|2,3:2|3:2,0:0:0:0:
263,203,69253,2,0,P|328:207|382:189,1,104.500003189087,10|2,1:2|3:2,0:0:0:0:
217,276,69553,6,0,B|177:216|177:216|195:157,1,132.999995941162,4|0,1:2|0:0,0:0:0:0:
427,158,69853,2,0,B|445:216|445:216|405:276,1,132.999995941162,4|0,1:2|0:0,0:0:0:0:
180,109,70153,5,4,2:0:0:0:
208,309,70303,1,4,2:0:0:0:
105,194,70453,2,0,P|35:181|-2:133,1,104.500003189087,10|2,3:2|3:2,0:0:0:0:
217,276,70753,2,0,P|177:301|121:302,1,104.500003189087,10|2,1:2|2:0,0:0:0:0:
83,119,71053,5,12,2:0:0:0:
217,276,71203,1,4,2:0:0:0:
356,172,71353,2,0,P|408:172|460:166,1,104.500003189087,10|2,3:2|1:2,0:0:0:0:
214,64,71653,2,0,P|214:116|225:167,1,104.500003189087,10|10,1:2|2:3,0:0:0:0:
228,368,71953,5,4,1:2:0:0:
215,364,72028,1,4,2:3:0:0:
201,360,72103,2,0,L|130:339,1,56.9999982604981,4|4,2:3|2:3,0:0:0:0:
226,168,72253,1,4,1:2:0:0:
239,164,72328,1,4,2:3:0:0:
253,160,72403,2,0,L|322:140,1,56.9999982604981,4|4,2:3|2:3,0:0:0:0:
413,300,72553,5,4,3:2:0:0:
429,220,72753,1,4,3:2:0:0:
448,141,72953,1,4,3:2:0:0:
442,349,73153,5,4,3:2:0:0:
467,231,73353,1,4,3:2:0:0:
495,113,73553,1,4,3:2:0:0:
260,115,73753,5,8,2:3:0:0:
423,68,73903,1,0,3:0:0:0:
247,125,74053,1,0,3:0:0:0:
362,250,74203,1,4,2:3:0:0:
226,136,74353,1,0,3:0:0:0:
175,358,74503,5,0,3:0:0:0:
195,41,74653,1,0,1:0:0:0:
271,239,74953,5,6,3:2:0:0:
186,130,75103,1,2,2:0:0:0:
361,65,75253,2,0,P|357:130|351:193,1,113.999996520996,2|2,1:2|2:0,0:0:0:0:
252,331,75553,2,0,L|173:318,1,56.9999982604981,2|2,3:2|2:0,0:0:0:0:
109,306,75703,1,2,3:2:0:0:
305,239,75853,1,2,1:2:0:0:
165,155,76003,1,2,2:0:0:0:
247,311,76153,5,2,3:2:0:0:
325,143,76303,1,2,3:2:0:0:
89,221,76453,2,0,P|77:161|73:92,1,113.999996520996,6|2,1:2|3:2,0:0:0:0:
348,36,76753,1,6,1:2:0:0:
165,155,76903,1,2,3:2:0:0:
386,178,77053,1,6,1:2:0:0:
106,78,77203,1,2,3:2:0:0:
350,199,77353,5,6,3:2:0:0:
149,279,77503,1,2,2:0:0:0:
338,333,77653,2,0,P|394:336|451:341,1,113.999996520996,2|2,1:2|2:0,0:0:0:0:
141,360,77953,1,2,3:2:0:0:
170,358,78028,1,2,2:0:0:0:
196,347,78103,1,2,3:2:0:0:
76,207,78253,1,2,1:2:0:0:
231,326,78403,1,2,2:0:0:0:
31,296,78553,5,2,3:2:0:0:
250,205,78703,1,2,3:2:0:0:
68,126,78853,1,6,1:2:0:0:
257,225,79003,1,2,3:2:0:0:
101,46,79153,1,6,1:2:0:0:
157,286,79303,1,2,3:2:0:0:
344,89,79453,1,6,1:2:0:0:
344,89,79528,1,2,3:2:0:0:
344,89,79603,2,0,L|351:19,1,56.9999982604981,2|2,3:2|3:2,0:0:0:0:
326,212,79753,6,0,P|400:197|467:193,1,113.999996520996,6|2,3:2|2:0,0:0:0:0:
245,127,80053,1,2,1:2:0:0:
440,54,80203,1,2,2:0:0:0:
452,213,80353,1,6,3:2:0:0:
459,241,80428,1,2,2:0:0:0:
466,263,80503,1,2,3:2:0:0:
259,152,80653,1,2,1:2:0:0:
435,81,80803,1,2,2:0:0:0:
320,313,80953,5,6,3:2:0:0:
245,127,81103,1,2,3:2:0:0:
141,263,81253,2,0,P|81:253|28:247,1,113.999996520996,6|2,1:2|3:2,0:0:0:0:
270,88,81553,1,6,1:2:0:0:
210,320,81703,1,2,3:2:0:0:
5,148,81853,1,6,1:2:0:0:
64,371,82003,1,2,3:2:0:0:
282,234,82153,5,6,3:2:0:0:
449,166,82303,1,2,3:2:0:0:
476,360,82453,2,0,P|399:345|359:341,1,113.999996520996,2|2,1:2|3:2,0:0:0:0:
198,203,82753,2,0,L|193:275,1,56.9999982604981,6|0,1:2|0:0,0:0:0:0:
343,134,82903,1,2,3:2:0:0:
111,70,83053,1,2,1:2:0:0:
345,15,83203,1,2,3:2:0:0:
172,291,83353,5,6,1:2:0:0:
80,45,83503,1,2,3:2:0:0:
386,126,83653,1,6,1:2:0:0:
70,199,83803,1,2,3:2:0:0:
382,23,83953,5,6,3:2:0:0:
50,17,84103,1,2,1:2:0:0:
322,242,84253,1,10,1:3:0:0:
44,335,84403,1,6,2:3:0:0:
235,157,84553,5,6,3:2:0:0:
91,218,84703,1,10,2:0:0:0:
254,145,84853,1,2,1:2:0:0:
70,102,85003,1,10,2:0:0:0:
209,265,85153,2,0,L|292:254,1,56.9999982604981,6|2,3:2|3:2,0:0:0:0:
400,239,85303,1,10,3:2:0:0:
279,134,85453,1,2,1:2:0:0:
472,48,85603,1,10,2:0:0:0:
368,272,85753,6,0,P|376:323|393:410,1,113.999996520996,6|10,3:2|3:2,0:0:0:0:
152,117,86053,2,0,P|142:60|133:4,1,113.999996520996,6|10,1:2|3:2,0:0:0:0:
411,100,86353,1,6,1:2:0:0:
121,212,86503,1,10,3:2:0:0:
362,299,86653,1,6,1:2:0:0:
83,384,86803,1,10,3:2:0:0:
52,147,86953,5,6,3:2:0:0:
212,258,87103,1,10,3:2:0:0:
332,120,87253,1,2,1:2:0:0:
142,184,87403,1,10,3:2:0:0:
330,315,87553,2,0,L|334:371,1,56.9999982604981,6|2,1:2|1:2,0:0:0:0:
410,211,87703,1,10,3:2:0:0:
169,108,87853,1,2,1:2:0:0:
457,17,88003,1,10,3:2:0:0:
175,211,88153,5,6,1:2:0:0:
126,199,88228,1,4,2:3:0:0:
90,166,88303,1,14,3:0:0:0:
75,119,88378,1,4,2:3:0:0:
86,71,88453,1,6,1:3:0:0:
119,34,88528,1,4,2:3:0:0:
166,19,88603,1,14,3:0:0:0:
214,29,88678,1,4,2:3:0:0:
250,62,88753,6,0,L|240:149,1,56.9999982604981,6|4,1:2|2:3,0:0:0:0:
141,384,88903,2,0,L|147:327,1,56.9999982604981,14|4,3:0|2:3,0:0:0:0:
334,140,89052,2,0,L|327:196,1,56.9999982604981,6|4,1:3|2:3,0:0:0:0:
57,306,89203,2,0,L|63:249,1,56.9999982604981,14|4,2:3|2:3,0:0:0:0:
405,366,89353,5,6,1:2:0:0:
302,230,89503,1,2,1:2:0:0:
475,197,89653,1,10,2:3:0:0:
292,337,89803,1,10,2:3:0:0:
178,152,89953,5,10,2:3:0:0:
402,141,90103,1,6,2:3:0:0:
212,338,90253,1,6,2:3:0:0:
113,93,90403,1,6,2:3:0:0:
413,362,90553,5,6,1:2:0:0:
53,38,90703,1,6,1:2:0:0:
511,180,90853,1,6,1:2:0:0:
0,292,91003,1,6,1:2:0:0:
271,267,91303,5,0,3:0:0:0:
271,267,91353,2,0,L|198:261,1,37.9999988403321,0|0,3:0|3:0,0:0:0:0:
256,192,91453,2,0,P|287:137|223:59,1,142.5,0|0,1:0|0:0,0:0:0:0:
209,44,91753,1,4,3:2:0:0:
256,192,91828,12,0,94003,0:0:0:0:
180,44,94153,5,4,1:2:0:0:
402,186,94303,1,4,1:2:0:0:
180,44,94753,5,4,1:2:0:0:
402,186,94903,2,0,B|371:170|340:179|340:179|314:164|314:164|274:186|230:189|230:189|226:110|182:84,1,284.999991302491,4|0,1:2|2:0,0:0:0:0:
