osu file format v14

[General]
AudioFilename: audio.mp3
AudioLeadIn: 0
PreviewTime: 160178
Countdown: 0
SampleSet: Soft
StackLeniency: 0.7
Mode: 3
LetterboxInBreaks: 0
SpecialStyle: 0
WidescreenStoryboard: 1

[Editor]
DistanceSpacing: 1
BeatDivisor: 3
GridSize: 32
TimelineZoom: 2.3

[Metadata]
Title:Hoshino Song (Quilt remix)
TitleUnicode:Hoshino Song (Quilt remix)
Artist:Takanashi Hoshino (CV: Hanamori Yumiri)
ArtistUnicode:小鳥遊ホシノ (CV: 花守ゆみり)
Creator:Nicknem_
Version:DenYi's Hard
Source:ブルーアーカイブ -Blue Archive-
Tags:DenYi Quilt heron instrumental video game electronic nexon yostar nat games blue archive ブルアカ blueaka 블아 블루아카 블루아카이브 넥슨 ln
BeatmapID:4199848
BeatmapSetID:2017251

[Difficulty]
HPDrainRate:8
CircleSize:4
OverallDifficulty:8
ApproachRate:5
SliderMultiplier:1.60000000596046
SliderTickRate:1

[Events]
//Background and Video events
0,0,"103305033_p0 (1).jpg",0,0
//Break Periods
//Storyboard Layer 0 (Background)
//Storyboard Layer 1 (Fail)
//Storyboard Layer 2 (Pass)
//Storyboard Layer 3 (Foreground)
//Storyboard Layer 4 (Overlay)
//Storyboard Sound Samples

[TimingPoints]
178,400,4,2,1,50,1,0
57778,-100,4,2,1,50,0,1
83378,-100,4,2,1,50,0,0
134578,-100,4,2,1,50,0,1
160178,-100,4,2,1,50,0,0

[HitObjects]
64,192,178,5,0,0:0:0:0:
64,192,978,1,0,0:0:0:0:
192,192,978,1,0,0:0:0:0:
64,192,2178,1,0,0:0:0:0:
64,192,2578,1,0,0:0:0:0:
320,192,2578,1,0,0:0:0:0:
64,192,3378,1,0,0:0:0:0:
64,192,4178,1,0,0:0:0:0:
448,192,4178,1,0,0:0:0:0:
192,192,4978,1,0,0:0:0:0:
320,192,4978,1,0,0:0:0:0:
192,192,5378,1,0,0:0:0:0:
192,192,5778,128,0,6578:0:0:0:0:
320,192,6178,128,0,6578:0:0:0:0:
448,192,6578,1,0,0:0:0:0:
64,192,6578,128,0,6978:0:0:0:0:
320,192,6978,128,0,7378:0:0:0:0:
192,192,7378,128,0,7778:0:0:0:0:
448,192,8178,1,0,0:0:0:0:
192,192,8444,1,0,0:0:0:0:
320,192,8578,1,0,0:0:0:0:
64,192,8844,1,0,0:0:0:0:
448,192,8978,128,0,9378:0:0:0:0:
64,192,9778,1,0,0:0:0:0:
192,192,9911,1,0,0:0:0:0:
320,192,10044,1,0,0:0:0:0:
448,192,10178,1,0,0:0:0:0:
448,192,10444,128,0,10844:0:0:0:0:
192,192,10844,1,0,0:0:0:0:
320,192,10978,1,0,0:0:0:0:
64,192,11244,1,0,0:0:0:0:
448,192,11378,1,0,0:0:0:0:
448,192,11644,1,0,0:0:0:0:
192,192,11778,1,0,0:0:0:0:
192,192,12044,128,0,12578:0:0:0:0:
448,192,12978,128,0,13378:0:0:0:0:
64,192,13378,128,0,13778:0:0:0:0:
320,192,13778,128,0,14178:0:0:0:0:
192,192,14578,1,0,0:0:0:0:
448,192,14844,1,0,0:0:0:0:
64,192,14978,1,0,0:0:0:0:
320,192,15244,1,0,0:0:0:0:
192,192,15378,128,0,15778:0:0:0:0:
448,192,16178,1,0,0:0:0:0:
320,192,16311,1,0,0:0:0:0:
192,192,16444,1,0,0:0:0:0:
64,192,16578,1,0,0:0:0:0:
64,192,16844,128,0,17244:0:0:0:0:
320,192,17244,1,0,0:0:0:0:
192,192,17378,1,0,0:0:0:0:
448,192,17644,1,0,0:0:0:0:
64,192,17778,1,0,0:0:0:0:
64,192,18044,1,0,0:0:0:0:
320,192,18178,1,0,0:0:0:0:
320,192,18444,128,0,19378:0:0:0:0:
192,192,18978,128,0,19378:0:0:0:0:
64,192,19378,1,0,0:0:0:0:
448,192,19378,1,0,0:0:0:0:
448,192,19778,1,0,0:0:0:0:
448,192,20178,128,0,20578:0:0:0:0:
64,192,20978,1,0,0:0:0:0:
320,192,21244,1,0,0:0:0:0:
192,192,21378,1,0,0:0:0:0:
448,192,21644,1,0,0:0:0:0:
64,192,21778,128,0,22178:0:0:0:0:
448,192,22578,1,0,0:0:0:0:
320,192,22711,1,0,0:0:0:0:
192,192,22844,1,0,0:0:0:0:
64,192,22978,1,0,0:0:0:0:
64,192,23244,128,0,23644:0:0:0:0:
320,192,23644,1,0,0:0:0:0:
192,192,23778,1,0,0:0:0:0:
448,192,24044,1,0,0:0:0:0:
64,192,24178,1,0,0:0:0:0:
64,192,24444,1,0,0:0:0:0:
320,192,24578,1,0,0:0:0:0:
320,192,24844,128,0,25378:0:0:0:0:
192,192,25778,1,0,0:0:0:0:
192,192,26178,1,0,0:0:0:0:
192,192,26578,128,0,26978:0:0:0:0:
448,192,27378,1,0,0:0:0:0:
192,192,27644,1,0,0:0:0:0:
320,192,27778,1,0,0:0:0:0:
64,192,28044,1,0,0:0:0:0:
448,192,28178,128,0,28578:0:0:0:0:
64,192,28978,1,0,0:0:0:0:
192,192,29111,1,0,0:0:0:0:
320,192,29244,1,0,0:0:0:0:
448,192,29378,1,0,0:0:0:0:
448,192,29644,128,0,30044:0:0:0:0:
192,192,30044,1,0,0:0:0:0:
320,192,30178,1,0,0:0:0:0:
64,192,30444,1,0,0:0:0:0:
448,192,30578,1,0,0:0:0:0:
448,192,30844,1,0,0:0:0:0:
192,192,30978,1,0,0:0:0:0:
192,192,31244,128,0,32178:0:0:0:0:
320,192,31778,128,0,32178:0:0:0:0:
64,192,32178,1,0,0:0:0:0:
448,192,32178,128,0,32444:0:0:0:0:
192,192,32444,1,0,0:0:0:0:
320,192,32578,128,0,32844:0:0:0:0:
64,192,32844,1,0,0:0:0:0:
192,192,32978,128,0,33244:0:0:0:0:
448,192,33244,1,0,0:0:0:0:
64,192,33378,1,0,0:0:0:0:
320,192,33644,1,0,0:0:0:0:
192,192,33778,128,0,34044:0:0:0:0:
448,192,33778,1,0,0:0:0:0:
64,192,34044,128,0,34178:0:0:0:0:
320,192,34178,128,0,34444:0:0:0:0:
192,192,34444,128,0,34578:0:0:0:0:
448,192,34578,128,0,34844:0:0:0:0:
320,192,34844,1,0,0:0:0:0:
64,192,34978,1,0,0:0:0:0:
192,192,35244,1,0,0:0:0:0:
320,192,35378,1,0,0:0:0:0:
448,192,35378,128,0,35644:0:0:0:0:
64,192,35511,1,0,0:0:0:0:
192,192,35644,128,0,35778:0:0:0:0:
320,192,35778,128,0,36178:0:0:0:0:
64,192,36044,128,0,36444:0:0:0:0:
448,192,36178,1,0,0:0:0:0:
448,192,36444,128,0,36578:0:0:0:0:
192,192,36578,128,0,36978:0:0:0:0:
320,192,36844,128,0,36978:0:0:0:0:
448,192,36978,1,0,0:0:0:0:
64,192,36978,128,0,37111:0:0:0:0:
64,192,37244,128,0,37644:0:0:0:0:
448,192,37378,128,0,37511:0:0:0:0:
448,192,37644,128,0,38044:0:0:0:0:
192,192,37778,1,0,0:0:0:0:
64,192,38044,1,0,0:0:0:0:
320,192,38178,1,0,0:0:0:0:
192,192,38444,1,0,0:0:0:0:
448,192,38578,1,0,0:0:0:0:
64,192,38578,128,0,38844:0:0:0:0:
320,192,38844,1,0,0:0:0:0:
192,192,38978,128,0,39244:0:0:0:0:
448,192,39244,1,0,0:0:0:0:
320,192,39378,128,0,39644:0:0:0:0:
64,192,39644,1,0,0:0:0:0:
448,192,39778,1,0,0:0:0:0:
192,192,40044,1,0,0:0:0:0:
320,192,40178,128,0,40444:0:0:0:0:
64,192,40178,1,0,0:0:0:0:
448,192,40444,128,0,40578:0:0:0:0:
192,192,40578,128,0,40844:0:0:0:0:
320,192,40844,128,0,40978:0:0:0:0:
64,192,40978,128,0,41244:0:0:0:0:
192,192,41244,1,0,0:0:0:0:
448,192,41378,1,0,0:0:0:0:
320,192,41644,1,0,0:0:0:0:
64,192,41778,128,0,42044:0:0:0:0:
192,192,41778,1,0,0:0:0:0:
448,192,41911,1,0,0:0:0:0:
320,192,42044,128,0,42178:0:0:0:0:
192,192,42178,128,0,42578:0:0:0:0:
448,192,42444,128,0,42778:0:0:0:0:
64,192,42578,1,0,0:0:0:0:
64,192,42778,128,0,42978:0:0:0:0:
320,192,42978,128,0,43378:0:0:0:0:
192,192,43178,128,0,43378:0:0:0:0:
64,192,43378,1,0,0:0:0:0:
448,192,43378,128,0,43511:0:0:0:0:
192,192,43511,1,0,0:0:0:0:
448,192,43644,128,0,44044:0:0:0:0:
64,192,43778,128,0,43911:0:0:0:0:
192,192,43911,1,0,0:0:0:0:
64,192,44044,128,0,44444:0:0:0:0:
320,192,44178,1,0,0:0:0:0:
448,192,44311,1,0,0:0:0:0:
192,192,44444,1,0,0:0:0:0:
320,192,44578,1,0,0:0:0:0:
64,192,44711,1,0,0:0:0:0:
192,192,44844,1,0,0:0:0:0:
320,192,44978,1,0,0:0:0:0:
64,192,44978,1,0,0:0:0:0:
448,192,44978,128,0,45178:0:0:0:0:
192,192,45244,1,0,0:0:0:0:
448,192,45378,128,0,45578:0:0:0:0:
320,192,45378,1,0,0:0:0:0:
64,192,45644,1,0,0:0:0:0:
448,192,45778,128,0,46178:0:0:0:0:
320,192,46044,1,0,0:0:0:0:
64,192,46178,1,0,0:0:0:0:
192,192,46178,1,0,0:0:0:0:
320,192,46444,1,0,0:0:0:0:
192,192,46578,128,0,46844:0:0:0:0:
448,192,46578,1,0,0:0:0:0:
320,192,46844,128,0,46978:0:0:0:0:
64,192,46978,128,0,47244:0:0:0:0:
448,192,46978,1,0,0:0:0:0:
192,192,47244,128,0,47378:0:0:0:0:
448,192,47378,128,0,47778:0:0:0:0:
64,192,47644,1,0,0:0:0:0:
192,192,47778,1,0,0:0:0:0:
320,192,47778,1,0,0:0:0:0:
448,192,48044,1,0,0:0:0:0:
192,192,48178,128,0,48578:0:0:0:0:
64,192,48178,1,0,0:0:0:0:
320,192,48444,128,0,48578:0:0:0:0:
64,192,48578,128,0,48978:0:0:0:0:
448,192,48578,1,0,0:0:0:0:
448,192,48844,128,0,49178:0:0:0:0:
320,192,48978,1,0,0:0:0:0:
192,192,49178,128,0,49378:0:0:0:0:
320,192,49378,128,0,49778:0:0:0:0:
448,192,49378,1,0,0:0:0:0:
192,192,49578,128,0,49778:0:0:0:0:
448,192,49778,128,0,49911:0:0:0:0:
64,192,49778,1,0,0:0:0:0:
448,192,50044,128,0,50444:0:0:0:0:
192,192,50178,128,0,50311:0:0:0:0:
64,192,50178,1,0,0:0:0:0:
192,192,50444,128,0,50844:0:0:0:0:
448,192,50578,1,0,0:0:0:0:
320,192,50844,1,0,0:0:0:0:
448,192,50978,1,0,0:0:0:0:
64,192,50978,1,0,0:0:0:0:
192,192,51244,1,0,0:0:0:0:
320,192,51378,1,0,0:0:0:0:
448,192,51378,128,0,51644:0:0:0:0:
320,192,51644,1,0,0:0:0:0:
192,192,51778,1,0,0:0:0:0:
64,192,51778,128,0,52044:0:0:0:0:
192,192,52044,1,0,0:0:0:0:
320,192,52178,128,0,52444:0:0:0:0:
448,192,52178,1,0,0:0:0:0:
448,192,52444,1,0,0:0:0:0:
64,192,52578,1,0,0:0:0:0:
192,192,52578,1,0,0:0:0:0:
64,192,52844,1,0,0:0:0:0:
320,192,52978,1,0,0:0:0:0:
448,192,52978,128,0,53111:0:0:0:0:
320,192,53244,128,0,53511:0:0:0:0:
64,192,53378,1,0,0:0:0:0:
192,192,53378,128,0,53511:0:0:0:0:
64,192,53644,128,0,53911:0:0:0:0:
320,192,53778,1,0,0:0:0:0:
448,192,53778,128,0,53911:0:0:0:0:
320,192,54044,1,0,0:0:0:0:
64,192,54178,1,0,0:0:0:0:
192,192,54178,1,0,0:0:0:0:
192,192,54444,1,0,0:0:0:0:
64,192,54578,5,0,0:0:0:0:
448,192,54578,1,0,0:0:0:0:
320,192,54711,1,0,0:0:0:0:
192,192,54844,1,0,0:0:0:0:
64,192,54978,1,0,0:0:0:0:
448,192,54978,1,0,0:0:0:0:
320,192,55111,1,0,0:0:0:0:
192,192,55244,1,0,0:0:0:0:
64,192,55378,1,0,0:0:0:0:
448,192,55378,1,0,0:0:0:0:
192,192,55511,1,0,0:0:0:0:
320,192,55644,1,0,0:0:0:0:
448,192,55778,1,0,0:0:0:0:
64,192,55778,1,0,0:0:0:0:
192,192,55911,1,0,0:0:0:0:
320,192,56044,1,0,0:0:0:0:
64,192,56178,1,0,0:0:0:0:
448,192,56178,128,0,56578:0:0:0:0:
320,192,56311,1,0,0:0:0:0:
192,192,56444,128,0,56578:0:0:0:0:
320,192,56578,128,0,56978:0:0:0:0:
192,192,56711,1,0,0:0:0:0:
64,192,56844,128,0,56978:0:0:0:0:
448,192,56978,1,0,0:0:0:0:
320,192,57111,1,0,0:0:0:0:
192,192,57244,128,0,57578:0:0:0:0:
448,192,57378,128,0,57578:0:0:0:0:
320,192,57378,128,0,57578:0:0:0:0:
320,192,57778,5,0,0:0:0:0:
64,192,57778,128,0,58178:0:0:0:0:
448,192,57778,128,0,58044:0:0:0:0:
192,192,58044,1,0,0:0:0:0:
320,192,58178,128,0,58444:0:0:0:0:
448,192,58178,128,0,58578:0:0:0:0:
64,192,58444,1,0,0:0:0:0:
320,192,58578,128,0,58978:0:0:0:0:
192,192,58578,128,0,58844:0:0:0:0:
448,192,58844,1,0,0:0:0:0:
192,192,58978,128,0,59378:0:0:0:0:
64,192,58978,128,0,59244:0:0:0:0:
320,192,59244,1,0,0:0:0:0:
448,192,59378,128,0,59778:0:0:0:0:
64,192,59378,1,0,0:0:0:0:
192,192,59511,1,0,0:0:0:0:
320,192,59644,128,0,59778:0:0:0:0:
192,192,59778,128,0,59911:0:0:0:0:
64,192,59778,128,0,59911:0:0:0:0:
192,192,60044,128,0,60178:0:0:0:0:
64,192,60044,128,0,60444:0:0:0:0:
448,192,60178,1,0,0:0:0:0:
320,192,60311,1,0,0:0:0:0:
192,192,60444,1,0,0:0:0:0:
448,192,60578,128,0,60978:0:0:0:0:
320,192,60578,128,0,60844:0:0:0:0:
192,192,60844,1,0,0:0:0:0:
64,192,60978,128,0,61244:0:0:0:0:
192,192,60978,128,0,61111:0:0:0:0:
320,192,61111,128,0,61244:0:0:0:0:
448,192,61244,128,0,61511:0:0:0:0:
192,192,61378,1,0,0:0:0:0:
64,192,61378,128,0,61644:0:0:0:0:
448,192,61644,128,0,62044:0:0:0:0:
320,192,61644,128,0,62044:0:0:0:0:
64,192,61778,1,0,0:0:0:0:
192,192,62044,1,0,0:0:0:0:
448,192,62178,128,0,62311:0:0:0:0:
64,192,62178,128,0,62311:0:0:0:0:
64,192,62444,128,0,62578:0:0:0:0:
448,192,62444,128,0,62578:0:0:0:0:
320,192,62578,1,0,0:0:0:0:
192,192,62578,128,0,63111:0:0:0:0:
64,192,62844,128,0,63111:0:0:0:0:
320,192,62978,128,0,63511:0:0:0:0:
448,192,62978,1,0,0:0:0:0:
192,192,63244,128,0,63511:0:0:0:0:
64,192,63378,1,0,0:0:0:0:
448,192,63511,1,0,0:0:0:0:
64,192,63644,1,0,0:0:0:0:
192,192,63778,128,0,64044:0:0:0:0:
320,192,63778,128,0,64178:0:0:0:0:
192,192,64178,5,0,0:0:0:0:
448,192,64178,128,0,64578:0:0:0:0:
64,192,64178,128,0,64444:0:0:0:0:
320,192,64444,1,0,0:0:0:0:
192,192,64578,128,0,64844:0:0:0:0:
64,192,64578,128,0,64978:0:0:0:0:
448,192,64844,1,0,0:0:0:0:
192,192,64978,128,0,65378:0:0:0:0:
320,192,64978,128,0,65244:0:0:0:0:
64,192,65244,1,0,0:0:0:0:
448,192,65378,128,0,65644:0:0:0:0:
320,192,65378,128,0,65778:0:0:0:0:
192,192,65644,1,0,0:0:0:0:
64,192,65778,128,0,66178:0:0:0:0:
448,192,65778,1,0,0:0:0:0:
320,192,65911,1,0,0:0:0:0:
192,192,66044,128,0,66178:0:0:0:0:
320,192,66178,128,0,66311:0:0:0:0:
448,192,66178,128,0,66311:0:0:0:0:
320,192,66444,128,0,66578:0:0:0:0:
448,192,66444,128,0,66844:0:0:0:0:
64,192,66578,1,0,0:0:0:0:
192,192,66711,1,0,0:0:0:0:
320,192,66844,1,0,0:0:0:0:
64,192,66978,128,0,67378:0:0:0:0:
192,192,66978,128,0,67244:0:0:0:0:
320,192,67244,1,0,0:0:0:0:
448,192,67378,128,0,67644:0:0:0:0:
320,192,67378,128,0,67511:0:0:0:0:
192,192,67511,128,0,67644:0:0:0:0:
64,192,67644,128,0,67911:0:0:0:0:
320,192,67778,1,0,0:0:0:0:
448,192,67778,128,0,68044:0:0:0:0:
64,192,68044,128,0,68444:0:0:0:0:
192,192,68044,128,0,68444:0:0:0:0:
448,192,68178,1,0,0:0:0:0:
320,192,68444,1,0,0:0:0:0:
64,192,68578,128,0,68711:0:0:0:0:
448,192,68578,128,0,68711:0:0:0:0:
448,192,68844,128,0,68978:0:0:0:0:
64,192,68844,128,0,68978:0:0:0:0:
192,192,68978,1,0,0:0:0:0:
320,192,68978,128,0,69378:0:0:0:0:
448,192,69244,128,0,69378:0:0:0:0:
64,192,69378,1,0,0:0:0:0:
192,192,69378,128,0,69778:0:0:0:0:
64,192,69644,128,0,69778:0:0:0:0:
448,192,69778,128,0,70044:0:0:0:0:
320,192,69778,128,0,70044:0:0:0:0:
64,192,70044,1,0,0:0:0:0:
192,192,70044,1,0,0:0:0:0:
320,192,70178,1,0,0:0:0:0:
448,192,70178,1,0,0:0:0:0:
192,192,70311,1,0,0:0:0:0:
320,192,70444,1,0,0:0:0:0:
448,192,70578,128,0,70978:0:0:0:0:
64,192,70578,128,0,70844:0:0:0:0:
192,192,70578,1,0,0:0:0:0:
320,192,70844,1,0,0:0:0:0:
192,192,70978,128,0,71244:0:0:0:0:
64,192,70978,128,0,71378:0:0:0:0:
448,192,71244,1,0,0:0:0:0:
192,192,71378,128,0,71778:0:0:0:0:
320,192,71378,128,0,71644:0:0:0:0:
64,192,71644,1,0,0:0:0:0:
320,192,71778,128,0,72178:0:0:0:0:
448,192,71778,128,0,72044:0:0:0:0:
192,192,72044,1,0,0:0:0:0:
64,192,72178,128,0,72578:0:0:0:0:
448,192,72178,1,0,0:0:0:0:
320,192,72311,1,0,0:0:0:0:
192,192,72444,128,0,72578:0:0:0:0:
320,192,72578,128,0,72711:0:0:0:0:
448,192,72578,128,0,72711:0:0:0:0:
320,192,72844,128,0,72978:0:0:0:0:
448,192,72844,128,0,73244:0:0:0:0:
64,192,72978,1,0,0:0:0:0:
192,192,73111,1,0,0:0:0:0:
320,192,73244,1,0,0:0:0:0:
64,192,73378,128,0,73778:0:0:0:0:
192,192,73378,128,0,73644:0:0:0:0:
320,192,73644,1,0,0:0:0:0:
448,192,73778,128,0,74044:0:0:0:0:
320,192,73778,128,0,73911:0:0:0:0:
192,192,73911,128,0,74044:0:0:0:0:
64,192,74044,128,0,74311:0:0:0:0:
320,192,74178,1,0,0:0:0:0:
448,192,74178,128,0,74444:0:0:0:0:
64,192,74444,128,0,74844:0:0:0:0:
192,192,74444,128,0,74844:0:0:0:0:
448,192,74578,1,0,0:0:0:0:
320,192,74844,1,0,0:0:0:0:
64,192,74978,128,0,75111:0:0:0:0:
448,192,74978,128,0,75111:0:0:0:0:
448,192,75244,128,0,75378:0:0:0:0:
64,192,75244,128,0,75378:0:0:0:0:
192,192,75378,1,0,0:0:0:0:
320,192,75378,128,0,75911:0:0:0:0:
448,192,75644,128,0,75911:0:0:0:0:
192,192,75778,128,0,76311:0:0:0:0:
64,192,75778,1,0,0:0:0:0:
320,192,76044,128,0,76311:0:0:0:0:
448,192,76178,1,0,0:0:0:0:
64,192,76311,1,0,0:0:0:0:
448,192,76444,1,0,0:0:0:0:
320,192,76578,128,0,76844:0:0:0:0:
192,192,76578,128,0,76978:0:0:0:0:
320,192,76978,5,0,0:0:0:0:
64,192,76978,128,0,77378:0:0:0:0:
448,192,76978,128,0,77244:0:0:0:0:
192,192,77244,1,0,0:0:0:0:
320,192,77378,128,0,77644:0:0:0:0:
448,192,77378,128,0,77778:0:0:0:0:
64,192,77644,1,0,0:0:0:0:
320,192,77778,128,0,78178:0:0:0:0:
192,192,77778,128,0,78044:0:0:0:0:
448,192,78044,1,0,0:0:0:0:
64,192,78178,128,0,78444:0:0:0:0:
192,192,78178,128,0,78578:0:0:0:0:
320,192,78444,1,0,0:0:0:0:
448,192,78578,128,0,78978:0:0:0:0:
64,192,78578,1,0,0:0:0:0:
192,192,78711,1,0,0:0:0:0:
320,192,78844,128,0,78978:0:0:0:0:
192,192,78978,128,0,79111:0:0:0:0:
64,192,78978,128,0,79111:0:0:0:0:
192,192,79244,128,0,79378:0:0:0:0:
64,192,79244,128,0,79644:0:0:0:0:
448,192,79378,1,0,0:0:0:0:
320,192,79511,1,0,0:0:0:0:
192,192,79644,1,0,0:0:0:0:
448,192,79778,128,0,80178:0:0:0:0:
320,192,79778,128,0,80044:0:0:0:0:
192,192,80044,1,0,0:0:0:0:
64,192,80178,128,0,80444:0:0:0:0:
192,192,80178,128,0,80311:0:0:0:0:
320,192,80311,128,0,80444:0:0:0:0:
448,192,80444,128,0,80711:0:0:0:0:
192,192,80578,1,0,0:0:0:0:
64,192,80578,128,0,80844:0:0:0:0:
448,192,80844,128,0,81244:0:0:0:0:
320,192,80844,128,0,81244:0:0:0:0:
64,192,80978,1,0,0:0:0:0:
192,192,80978,1,0,0:0:0:0:
192,192,81244,1,0,0:0:0:0:
448,192,81378,128,0,81511:0:0:0:0:
64,192,81378,128,0,81511:0:0:0:0:
64,192,81644,128,0,81778:0:0:0:0:
448,192,81644,128,0,81778:0:0:0:0:
320,192,81778,1,0,0:0:0:0:
192,192,81778,128,0,82178:0:0:0:0:
448,192,81911,1,0,0:0:0:0:
64,192,82044,128,0,82178:0:0:0:0:
448,192,82178,1,0,0:0:0:0:
320,192,82178,128,0,82578:0:0:0:0:
64,192,82311,1,0,0:0:0:0:
192,192,82444,128,0,82578:0:0:0:0:
64,192,82578,128,0,82844:0:0:0:0:
448,192,82578,128,0,82978:0:0:0:0:
320,192,82844,128,0,82978:0:0:0:0:
192,192,82978,1,0,0:0:0:0:
64,192,82978,1,0,0:0:0:0:
64,192,83378,1,0,0:0:0:0:
448,192,83378,128,0,83778:0:0:0:0:
320,192,83378,128,0,83778:0:0:0:0:
64,192,83778,128,0,84044:0:0:0:0:
192,192,83778,128,0,83911:0:0:0:0:
320,192,83911,1,0,0:0:0:0:
448,192,84044,128,0,84178:0:0:0:0:
64,192,84178,128,0,84444:0:0:0:0:
192,192,84178,128,0,84311:0:0:0:0:
320,192,84311,1,0,0:0:0:0:
192,192,84444,1,0,0:0:0:0:
64,192,84578,1,0,0:0:0:0:
448,192,84578,1,0,0:0:0:0:
320,192,84711,1,0,0:0:0:0:
192,192,84844,1,0,0:0:0:0:
64,192,84978,1,0,0:0:0:0:
448,192,84978,128,0,85378:0:0:0:0:
320,192,85244,128,0,85378:0:0:0:0:
192,192,85378,128,0,85778:0:0:0:0:
64,192,85378,1,0,0:0:0:0:
448,192,85511,1,0,0:0:0:0:
64,192,85644,128,0,85778:0:0:0:0:
320,192,85778,128,0,85911:0:0:0:0:
448,192,85778,128,0,86044:0:0:0:0:
192,192,85911,1,0,0:0:0:0:
320,192,86044,1,0,0:0:0:0:
448,192,86178,1,0,0:0:0:0:
64,192,86178,1,0,0:0:0:0:
320,192,86311,1,0,0:0:0:0:
192,192,86444,1,0,0:0:0:0:
64,192,86578,128,0,86711:0:0:0:0:
448,192,86578,1,0,0:0:0:0:
320,192,86711,128,0,86978:0:0:0:0:
192,192,86844,128,0,87111:0:0:0:0:
448,192,86978,1,0,0:0:0:0:
64,192,86978,128,0,87244:0:0:0:0:
320,192,87111,1,0,0:0:0:0:
448,192,87244,128,0,87378:0:0:0:0:
192,192,87244,1,0,0:0:0:0:
64,192,87378,1,0,0:0:0:0:
192,192,87511,1,0,0:0:0:0:
320,192,87644,128,0,87778:0:0:0:0:
448,192,87778,1,0,0:0:0:0:
64,192,87778,128,0,87911:0:0:0:0:
192,192,87911,1,0,0:0:0:0:
320,192,88044,1,0,0:0:0:0:
64,192,88178,128,0,88444:0:0:0:0:
448,192,88178,1,0,0:0:0:0:
320,192,88311,128,0,88444:0:0:0:0:
192,192,88444,128,0,88578:0:0:0:0:
64,192,88578,128,0,88711:0:0:0:0:
320,192,88578,1,0,0:0:0:0:
448,192,88711,128,0,88978:0:0:0:0:
192,192,88844,128,0,89111:0:0:0:0:
320,192,88978,128,0,89244:0:0:0:0:
448,192,89111,128,0,89244:0:0:0:0:
64,192,89244,128,0,89511:0:0:0:0:
448,192,89378,1,0,0:0:0:0:
192,192,89378,128,0,89511:0:0:0:0:
320,192,89511,1,0,0:0:0:0:
448,192,89644,128,0,89778:0:0:0:0:
64,192,89778,128,0,90178:0:0:0:0:
192,192,89778,128,0,90178:0:0:0:0:
320,192,89778,1,0,0:0:0:0:
320,192,90178,128,0,90311:0:0:0:0:
448,192,90178,128,0,90444:0:0:0:0:
192,192,90311,1,0,0:0:0:0:
64,192,90444,128,0,90578:0:0:0:0:
320,192,90578,128,0,90711:0:0:0:0:
448,192,90578,128,0,90844:0:0:0:0:
192,192,90711,1,0,0:0:0:0:
320,192,90844,1,0,0:0:0:0:
64,192,90978,128,0,91111:0:0:0:0:
192,192,90978,128,0,91378:0:0:0:0:
448,192,91111,1,0,0:0:0:0:
64,192,91244,128,0,91644:0:0:0:0:
448,192,91378,128,0,91778:0:0:0:0:
320,192,91378,1,0,0:0:0:0:
320,192,91644,128,0,91911:0:0:0:0:
192,192,91778,128,0,92044:0:0:0:0:
64,192,91911,1,0,0:0:0:0:
448,192,92044,128,0,92311:0:0:0:0:
320,192,92178,128,0,92311:0:0:0:0:
192,192,92311,1,0,0:0:0:0:
320,192,92444,128,0,92578:0:0:0:0:
448,192,92444,1,0,0:0:0:0:
192,192,92578,128,0,92711:0:0:0:0:
64,192,92578,128,0,92711:0:0:0:0:
192,192,92844,128,0,92978:0:0:0:0:
448,192,92978,1,0,0:0:0:0:
320,192,92978,128,0,93111:0:0:0:0:
64,192,93111,128,0,93244:0:0:0:0:
448,192,93244,128,0,93378:0:0:0:0:
192,192,93378,1,0,0:0:0:0:
64,192,93378,1,0,0:0:0:0:
320,192,93644,128,0,93778:0:0:0:0:
64,192,93778,1,0,0:0:0:0:
448,192,93778,1,0,0:0:0:0:
192,192,94044,128,0,94311:0:0:0:0:
320,192,94178,128,0,94311:0:0:0:0:
64,192,94578,1,0,0:0:0:0:
192,192,94578,128,0,94844:0:0:0:0:
320,192,94711,128,0,94844:0:0:0:0:
64,192,94844,128,0,94978:0:0:0:0:
320,192,94978,128,0,95244:0:0:0:0:
192,192,94978,1,0,0:0:0:0:
448,192,95111,128,0,95244:0:0:0:0:
192,192,95244,128,0,95378:0:0:0:0:
448,192,95378,128,0,95644:0:0:0:0:
320,192,95378,1,0,0:0:0:0:
64,192,95511,128,0,95778:0:0:0:0:
192,192,95644,128,0,95778:0:0:0:0:
448,192,95778,1,0,0:0:0:0:
320,192,95778,128,0,95911:0:0:0:0:
192,192,95911,1,0,0:0:0:0:
64,192,95911,1,0,0:0:0:0:
320,192,96044,128,0,96178:0:0:0:0:
192,192,96178,128,0,96578:0:0:0:0:
64,192,96178,128,0,96578:0:0:0:0:
448,192,96178,1,0,0:0:0:0:
320,192,96578,128,0,96711:0:0:0:0:
448,192,96578,128,0,96844:0:0:0:0:
192,192,96711,1,0,0:0:0:0:
64,192,96844,128,0,96978:0:0:0:0:
320,192,96978,128,0,97111:0:0:0:0:
448,192,96978,128,0,97244:0:0:0:0:
192,192,97111,1,0,0:0:0:0:
320,192,97244,1,0,0:0:0:0:
64,192,97378,1,0,0:0:0:0:
448,192,97378,1,0,0:0:0:0:
192,192,97511,1,0,0:0:0:0:
320,192,97644,1,0,0:0:0:0:
64,192,97778,128,0,98178:0:0:0:0:
448,192,97778,1,0,0:0:0:0:
192,192,98044,128,0,98178:0:0:0:0:
448,192,98178,1,0,0:0:0:0:
320,192,98178,128,0,98578:0:0:0:0:
64,192,98311,1,0,0:0:0:0:
448,192,98444,128,0,98578:0:0:0:0:
64,192,98578,128,0,98844:0:0:0:0:
192,192,98578,128,0,98711:0:0:0:0:
320,192,98711,1,0,0:0:0:0:
192,192,98844,1,0,0:0:0:0:
448,192,98978,1,0,0:0:0:0:
64,192,98978,1,0,0:0:0:0:
192,192,99111,1,0,0:0:0:0:
320,192,99244,1,0,0:0:0:0:
64,192,99378,1,0,0:0:0:0:
448,192,99378,128,0,99511:0:0:0:0:
192,192,99511,128,0,99778:0:0:0:0:
320,192,99644,128,0,99911:0:0:0:0:
448,192,99778,128,0,100044:0:0:0:0:
64,192,99778,1,0,0:0:0:0:
192,192,99911,1,0,0:0:0:0:
320,192,100044,1,0,0:0:0:0:
64,192,100044,128,0,100178:0:0:0:0:
448,192,100178,1,0,0:0:0:0:
320,192,100311,1,0,0:0:0:0:
192,192,100444,128,0,100578:0:0:0:0:
64,192,100578,1,0,0:0:0:0:
448,192,100578,128,0,100711:0:0:0:0:
320,192,100711,1,0,0:0:0:0:
192,192,100844,1,0,0:0:0:0:
64,192,100978,1,0,0:0:0:0:
448,192,100978,128,0,101244:0:0:0:0:
192,192,101111,128,0,101244:0:0:0:0:
320,192,101244,128,0,101378:0:0:0:0:
192,192,101378,1,0,0:0:0:0:
448,192,101378,128,0,101511:0:0:0:0:
64,192,101511,128,0,101778:0:0:0:0:
320,192,101644,128,0,101911:0:0:0:0:
192,192,101778,128,0,102044:0:0:0:0:
64,192,101911,128,0,102044:0:0:0:0:
448,192,102044,128,0,102311:0:0:0:0:
320,192,102178,128,0,102311:0:0:0:0:
64,192,102178,1,0,0:0:0:0:
192,192,102311,1,0,0:0:0:0:
64,192,102444,128,0,102578:0:0:0:0:
192,192,102578,1,0,0:0:0:0:
320,192,102578,128,0,102978:0:0:0:0:
448,192,102578,128,0,102978:0:0:0:0:
64,192,102978,128,0,103244:0:0:0:0:
192,192,102978,128,0,103111:0:0:0:0:
320,192,103111,1,0,0:0:0:0:
448,192,103244,128,0,103378:0:0:0:0:
64,192,103378,128,0,103644:0:0:0:0:
192,192,103378,128,0,103511:0:0:0:0:
320,192,103511,1,0,0:0:0:0:
192,192,103644,1,0,0:0:0:0:
448,192,103778,128,0,103911:0:0:0:0:
320,192,103778,128,0,103911:0:0:0:0:
64,192,103911,1,0,0:0:0:0:
320,192,104044,128,0,104178:0:0:0:0:
448,192,104044,128,0,104444:0:0:0:0:
64,192,104178,128,0,104578:0:0:0:0:
192,192,104444,128,0,104711:0:0:0:0:
320,192,104578,128,0,104844:0:0:0:0:
448,192,104711,1,0,0:0:0:0:
64,192,104844,128,0,105111:0:0:0:0:
192,192,104978,128,0,105111:0:0:0:0:
320,192,105111,1,0,0:0:0:0:
192,192,105244,128,0,105378:0:0:0:0:
64,192,105244,1,0,0:0:0:0:
320,192,105378,128,0,105511:0:0:0:0:
448,192,105378,128,0,105511:0:0:0:0:
320,192,105644,128,0,105778:0:0:0:0:
192,192,105778,128,0,105911:0:0:0:0:
64,192,105778,1,0,0:0:0:0:
448,192,105911,128,0,106044:0:0:0:0:
64,192,106044,128,0,106178:0:0:0:0:
448,192,106178,1,0,0:0:0:0:
320,192,106178,1,0,0:0:0:0:
192,192,106444,128,0,106578:0:0:0:0:
64,192,106578,1,0,0:0:0:0:
448,192,106578,1,0,0:0:0:0:
320,192,106844,128,0,107111:0:0:0:0:
192,192,106978,128,0,107111:0:0:0:0:
320,192,107378,128,0,107644:0:0:0:0:
448,192,107378,1,0,0:0:0:0:
192,192,107511,128,0,107644:0:0:0:0:
448,192,107644,128,0,107778:0:0:0:0:
320,192,107778,1,0,0:0:0:0:
192,192,107778,128,0,108044:0:0:0:0:
64,192,107911,128,0,108044:0:0:0:0:
320,192,108044,128,0,108178:0:0:0:0:
192,192,108178,1,0,0:0:0:0:
64,192,108178,128,0,108444:0:0:0:0:
448,192,108311,128,0,108578:0:0:0:0:
320,192,108444,128,0,108578:0:0:0:0:
64,192,108578,1,0,0:0:0:0:
192,192,108578,1,0,0:0:0:0:
448,192,108978,5,0,0:0:0:0:
64,192,108978,128,0,109244:0:0:0:0:
320,192,109244,1,0,0:0:0:0:
192,192,109378,128,0,109644:0:0:0:0:
448,192,109644,1,0,0:0:0:0:
320,192,109778,128,0,110044:0:0:0:0:
64,192,110044,1,0,0:0:0:0:
448,192,110178,1,0,0:0:0:0:
192,192,110444,1,0,0:0:0:0:
320,192,110578,128,0,110844:0:0:0:0:
64,192,110578,1,0,0:0:0:0:
448,192,110844,128,0,110978:0:0:0:0:
192,192,110978,128,0,111244:0:0:0:0:
320,192,111244,128,0,111378:0:0:0:0:
64,192,111378,128,0,111644:0:0:0:0:
192,192,111644,1,0,0:0:0:0:
448,192,111778,1,0,0:0:0:0:
320,192,112044,1,0,0:0:0:0:
64,192,112178,128,0,112444:0:0:0:0:
192,192,112178,1,0,0:0:0:0:
448,192,112311,1,0,0:0:0:0:
320,192,112444,128,0,112578:0:0:0:0:
192,192,112578,128,0,112978:0:0:0:0:
448,192,112844,128,0,113244:0:0:0:0:
64,192,112978,1,0,0:0:0:0:
64,192,113244,128,0,113378:0:0:0:0:
320,192,113378,128,0,113778:0:0:0:0:
192,192,113644,128,0,113778:0:0:0:0:
448,192,113778,1,0,0:0:0:0:
64,192,113778,1,0,0:0:0:0:
448,192,114044,128,0,114444:0:0:0:0:
64,192,114178,1,0,0:0:0:0:
64,192,114444,128,0,114844:0:0:0:0:
320,192,114578,1,0,0:0:0:0:
448,192,114844,1,0,0:0:0:0:
192,192,114978,1,0,0:0:0:0:
320,192,115244,1,0,0:0:0:0:
64,192,115378,1,0,0:0:0:0:
448,192,115378,1,0,0:0:0:0:
192,192,115644,1,0,0:0:0:0:
320,192,115778,128,0,115911:0:0:0:0:
448,192,116044,1,0,0:0:0:0:
192,192,116178,128,0,116311:0:0:0:0:
320,192,116444,1,0,0:0:0:0:
64,192,116578,128,0,116711:0:0:0:0:
192,192,116844,1,0,0:0:0:0:
448,192,116978,128,0,117111:0:0:0:0:
320,192,116978,1,0,0:0:0:0:
192,192,117244,128,0,117378:0:0:0:0:
320,192,117378,128,0,117511:0:0:0:0:
448,192,117644,1,0,0:0:0:0:
64,192,117778,128,0,117911:0:0:0:0:
192,192,117778,1,0,0:0:0:0:
320,192,118044,1,0,0:0:0:0:
192,192,118178,1,0,0:0:0:0:
320,192,118444,1,0,0:0:0:0:
448,192,118578,1,0,0:0:0:0:
64,192,118578,128,0,118711:0:0:0:0:
192,192,118711,128,0,118844:0:0:0:0:
320,192,118844,128,0,118978:0:0:0:0:
448,192,118978,128,0,119111:0:0:0:0:
64,192,119244,128,0,119378:0:0:0:0:
320,192,119378,1,0,0:0:0:0:
192,192,119644,1,0,0:0:0:0:
448,192,119778,128,0,119911:0:0:0:0:
64,192,120044,1,0,0:0:0:0:
320,192,120178,128,0,120311:0:0:0:0:
448,192,120311,128,0,120444:0:0:0:0:
192,192,120444,128,0,120578:0:0:0:0:
320,192,120578,128,0,120711:0:0:0:0:
64,192,120711,128,0,120844:0:0:0:0:
192,192,120844,128,0,120978:0:0:0:0:
320,192,120978,128,0,121111:0:0:0:0:
448,192,121111,128,0,121244:0:0:0:0:
192,192,121244,128,0,121378:0:0:0:0:
64,192,121378,128,0,121511:0:0:0:0:
448,192,121511,128,0,121644:0:0:0:0:
320,192,121644,128,0,121778:0:0:0:0:
192,192,121778,5,0,0:0:0:0:
448,192,121778,1,0,0:0:0:0:
64,192,121778,128,0,121978:0:0:0:0:
320,192,122044,1,0,0:0:0:0:
64,192,122178,128,0,122378:0:0:0:0:
192,192,122178,1,0,0:0:0:0:
448,192,122444,1,0,0:0:0:0:
64,192,122578,128,0,122978:0:0:0:0:
192,192,122844,1,0,0:0:0:0:
448,192,122978,1,0,0:0:0:0:
320,192,122978,1,0,0:0:0:0:
192,192,123244,1,0,0:0:0:0:
320,192,123378,128,0,123644:0:0:0:0:
64,192,123378,1,0,0:0:0:0:
192,192,123644,128,0,123778:0:0:0:0:
448,192,123778,128,0,124044:0:0:0:0:
64,192,123778,1,0,0:0:0:0:
320,192,124044,128,0,124178:0:0:0:0:
64,192,124178,128,0,124578:0:0:0:0:
448,192,124444,1,0,0:0:0:0:
320,192,124578,1,0,0:0:0:0:
192,192,124578,1,0,0:0:0:0:
64,192,124844,1,0,0:0:0:0:
320,192,124978,128,0,125378:0:0:0:0:
448,192,124978,1,0,0:0:0:0:
192,192,125244,128,0,125378:0:0:0:0:
448,192,125378,128,0,125778:0:0:0:0:
64,192,125378,1,0,0:0:0:0:
64,192,125644,128,0,125978:0:0:0:0:
192,192,125778,1,0,0:0:0:0:
320,192,125978,128,0,126178:0:0:0:0:
192,192,126178,128,0,126578:0:0:0:0:
64,192,126178,1,0,0:0:0:0:
320,192,126378,128,0,126578:0:0:0:0:
64,192,126578,128,0,126711:0:0:0:0:
448,192,126578,1,0,0:0:0:0:
64,192,126844,128,0,126978:0:0:0:0:
320,192,126978,128,0,127111:0:0:0:0:
448,192,126978,1,0,0:0:0:0:
320,192,127244,128,0,127644:0:0:0:0:
64,192,127378,1,0,0:0:0:0:
192,192,127644,1,0,0:0:0:0:
64,192,127778,1,0,0:0:0:0:
448,192,127778,1,0,0:0:0:0:
320,192,128044,1,0,0:0:0:0:
192,192,128178,1,0,0:0:0:0:
64,192,128178,128,0,128444:0:0:0:0:
192,192,128444,1,0,0:0:0:0:
320,192,128578,1,0,0:0:0:0:
448,192,128578,128,0,128844:0:0:0:0:
320,192,128844,1,0,0:0:0:0:
192,192,128978,128,0,129244:0:0:0:0:
64,192,128978,1,0,0:0:0:0:
64,192,129244,1,0,0:0:0:0:
448,192,129378,1,0,0:0:0:0:
320,192,129378,1,0,0:0:0:0:
448,192,129644,1,0,0:0:0:0:
192,192,129778,1,0,0:0:0:0:
64,192,129778,128,0,129911:0:0:0:0:
192,192,130044,128,0,130311:0:0:0:0:
448,192,130178,1,0,0:0:0:0:
320,192,130178,128,0,130311:0:0:0:0:
448,192,130444,128,0,130711:0:0:0:0:
192,192,130578,1,0,0:0:0:0:
64,192,130578,128,0,130711:0:0:0:0:
192,192,130844,1,0,0:0:0:0:
448,192,130978,1,0,0:0:0:0:
320,192,130978,1,0,0:0:0:0:
320,192,131244,1,0,0:0:0:0:
64,192,131378,5,0,0:0:0:0:
448,192,131378,1,0,0:0:0:0:
192,192,131511,1,0,0:0:0:0:
320,192,131644,1,0,0:0:0:0:
64,192,131778,1,0,0:0:0:0:
448,192,131778,1,0,0:0:0:0:
320,192,131911,1,0,0:0:0:0:
192,192,132044,1,0,0:0:0:0:
64,192,132178,1,0,0:0:0:0:
448,192,132178,1,0,0:0:0:0:
320,192,132311,1,0,0:0:0:0:
192,192,132444,1,0,0:0:0:0:
64,192,132578,1,0,0:0:0:0:
448,192,132578,1,0,0:0:0:0:
192,192,132711,1,0,0:0:0:0:
320,192,132844,1,0,0:0:0:0:
448,192,132978,1,0,0:0:0:0:
64,192,132978,128,0,133378:0:0:0:0:
192,192,133111,1,0,0:0:0:0:
320,192,133244,128,0,133378:0:0:0:0:
192,192,133378,128,0,133778:0:0:0:0:
320,192,133511,1,0,0:0:0:0:
448,192,133644,128,0,133778:0:0:0:0:
64,192,133778,1,0,0:0:0:0:
192,192,133911,1,0,0:0:0:0:
320,192,134044,128,0,134378:0:0:0:0:
64,192,134178,128,0,134378:0:0:0:0:
192,192,134178,128,0,134378:0:0:0:0:
64,192,134578,128,0,134978:0:0:0:0:
448,192,134578,1,0,0:0:0:0:
320,192,134578,1,0,0:0:0:0:
192,192,134711,128,0,134978:0:0:0:0:
320,192,134844,1,0,0:0:0:0:
448,192,134978,128,0,135378:0:0:0:0:
320,192,135111,128,0,135378:0:0:0:0:
64,192,135244,1,0,0:0:0:0:
192,192,135378,128,0,135778:0:0:0:0:
64,192,135511,128,0,135778:0:0:0:0:
448,192,135644,1,0,0:0:0:0:
320,192,135778,128,0,136178:0:0:0:0:
448,192,135911,128,0,136178:0:0:0:0:
192,192,136044,1,0,0:0:0:0:
64,192,136178,128,0,136444:0:0:0:0:
192,192,136311,128,0,136578:0:0:0:0:
320,192,136444,128,0,136578:0:0:0:0:
448,192,136578,128,0,136711:0:0:0:0:
64,192,136578,128,0,136711:0:0:0:0:
64,192,136844,128,0,136978:0:0:0:0:
448,192,136844,128,0,137378:0:0:0:0:
192,192,136978,1,0,0:0:0:0:
320,192,137244,1,0,0:0:0:0:
64,192,137378,128,0,137778:0:0:0:0:
192,192,137378,128,0,137644:0:0:0:0:
448,192,137778,128,0,138044:0:0:0:0:
192,192,137778,1,0,0:0:0:0:
320,192,137911,128,0,138311:0:0:0:0:
192,192,138044,128,0,138178:0:0:0:0:
448,192,138178,128,0,138444:0:0:0:0:
64,192,138178,1,0,0:0:0:0:
64,192,138444,128,0,138844:0:0:0:0:
192,192,138444,128,0,138844:0:0:0:0:
448,192,138578,1,0,0:0:0:0:
320,192,138844,128,0,139111:0:0:0:0:
64,192,138978,1,0,0:0:0:0:
448,192,138978,128,0,139511:0:0:0:0:
320,192,139244,128,0,139511:0:0:0:0:
64,192,139378,128,0,139511:0:0:0:0:
64,192,139644,128,0,140311:0:0:0:0:
192,192,139778,128,0,139911:0:0:0:0:
448,192,139778,1,0,0:0:0:0:
192,192,140044,128,0,140311:0:0:0:0:
320,192,140178,1,0,0:0:0:0:
448,192,140444,1,0,0:0:0:0:
192,192,140578,128,0,140978:0:0:0:0:
320,192,140578,128,0,140844:0:0:0:0:
64,192,140978,1,0,0:0:0:0:
448,192,140978,128,0,141378:0:0:0:0:
320,192,141111,128,0,141378:0:0:0:0:
192,192,141244,1,0,0:0:0:0:
64,192,141378,128,0,141778:0:0:0:0:
192,192,141511,128,0,141778:0:0:0:0:
448,192,141644,1,0,0:0:0:0:
320,192,141778,128,0,142178:0:0:0:0:
448,192,141911,128,0,142178:0:0:0:0:
64,192,142044,1,0,0:0:0:0:
192,192,142178,128,0,142578:0:0:0:0:
64,192,142311,128,0,142578:0:0:0:0:
320,192,142444,1,0,0:0:0:0:
448,192,142578,128,0,142844:0:0:0:0:
320,192,142711,128,0,142978:0:0:0:0:
192,192,142844,128,0,142978:0:0:0:0:
448,192,142978,128,0,143111:0:0:0:0:
64,192,142978,128,0,143111:0:0:0:0:
448,192,143244,128,0,143378:0:0:0:0:
64,192,143244,128,0,143778:0:0:0:0:
320,192,143378,1,0,0:0:0:0:
192,192,143644,1,0,0:0:0:0:
320,192,143778,128,0,144044:0:0:0:0:
448,192,143778,128,0,144178:0:0:0:0:
64,192,144178,128,0,144444:0:0:0:0:
320,192,144178,1,0,0:0:0:0:
192,192,144311,128,0,144711:0:0:0:0:
320,192,144444,128,0,144578:0:0:0:0:
64,192,144578,128,0,144844:0:0:0:0:
448,192,144578,1,0,0:0:0:0:
320,192,144844,128,0,145244:0:0:0:0:
448,192,144844,128,0,145244:0:0:0:0:
64,192,144978,1,0,0:0:0:0:
192,192,144978,1,0,0:0:0:0:
64,192,145244,128,0,145511:0:0:0:0:
320,192,145378,128,0,145644:0:0:0:0:
192,192,145511,128,0,145778:0:0:0:0:
64,192,145644,128,0,145778:0:0:0:0:
448,192,145778,128,0,146178:0:0:0:0:
320,192,145778,1,0,0:0:0:0:
320,192,146044,128,0,146178:0:0:0:0:
64,192,146178,128,0,146578:0:0:0:0:
192,192,146178,1,0,0:0:0:0:
192,192,146444,128,0,146578:0:0:0:0:
448,192,146578,128,0,146844:0:0:0:0:
320,192,146578,128,0,146844:0:0:0:0:
64,192,146844,1,0,0:0:0:0:
192,192,146844,1,0,0:0:0:0:
320,192,146978,1,0,0:0:0:0:
64,192,147111,1,0,0:0:0:0:
448,192,147111,1,0,0:0:0:0:
192,192,147244,1,0,0:0:0:0:
448,192,147378,1,0,0:0:0:0:
320,192,147378,128,0,147778:0:0:0:0:
64,192,147378,1,0,0:0:0:0:
192,192,147511,128,0,147778:0:0:0:0:
64,192,147644,1,0,0:0:0:0:
448,192,147778,128,0,148178:0:0:0:0:
320,192,147911,128,0,148178:0:0:0:0:
64,192,148044,1,0,0:0:0:0:
192,192,148178,128,0,148578:0:0:0:0:
320,192,148311,128,0,148578:0:0:0:0:
448,192,148444,1,0,0:0:0:0:
64,192,148578,128,0,148978:0:0:0:0:
192,192,148711,128,0,148978:0:0:0:0:
320,192,148844,1,0,0:0:0:0:
448,192,148978,128,0,149244:0:0:0:0:
320,192,149111,128,0,149378:0:0:0:0:
192,192,149244,128,0,149378:0:0:0:0:
64,192,149378,128,0,149511:0:0:0:0:
448,192,149378,128,0,149511:0:0:0:0:
448,192,149644,128,0,149778:0:0:0:0:
64,192,149644,128,0,150178:0:0:0:0:
320,192,149778,1,0,0:0:0:0:
192,192,150044,1,0,0:0:0:0:
448,192,150178,128,0,150578:0:0:0:0:
320,192,150178,128,0,150444:0:0:0:0:
64,192,150578,128,0,150844:0:0:0:0:
320,192,150578,1,0,0:0:0:0:
192,192,150711,128,0,151111:0:0:0:0:
320,192,150844,128,0,150978:0:0:0:0:
64,192,150978,128,0,151244:0:0:0:0:
448,192,150978,1,0,0:0:0:0:
448,192,151244,128,0,151644:0:0:0:0:
320,192,151244,128,0,151644:0:0:0:0:
64,192,151378,1,0,0:0:0:0:
192,192,151644,128,0,151911:0:0:0:0:
448,192,151778,1,0,0:0:0:0:
64,192,151778,128,0,152311:0:0:0:0:
192,192,152044,128,0,152311:0:0:0:0:
448,192,152178,128,0,152311:0:0:0:0:
448,192,152444,128,0,153111:0:0:0:0:
320,192,152578,128,0,152711:0:0:0:0:
192,192,152578,1,0,0:0:0:0:
320,192,152844,128,0,153111:0:0:0:0:
64,192,152978,1,0,0:0:0:0:
192,192,153244,1,0,0:0:0:0:
448,192,153378,128,0,153778:0:0:0:0:
64,192,153378,128,0,153644:0:0:0:0:
64,192,153778,1,0,0:0:0:0:
192,192,153778,128,0,154178:0:0:0:0:
320,192,153911,128,0,154178:0:0:0:0:
448,192,154044,1,0,0:0:0:0:
64,192,154178,128,0,154578:0:0:0:0:
192,192,154311,128,0,154578:0:0:0:0:
448,192,154444,1,0,0:0:0:0:
320,192,154578,128,0,154978:0:0:0:0:
192,192,154711,128,0,154978:0:0:0:0:
64,192,154844,1,0,0:0:0:0:
448,192,154978,128,0,155378:0:0:0:0:
320,192,155111,128,0,155378:0:0:0:0:
192,192,155244,1,0,0:0:0:0:
64,192,155378,128,0,155644:0:0:0:0:
192,192,155511,128,0,155778:0:0:0:0:
320,192,155644,128,0,155778:0:0:0:0:
448,192,155778,128,0,155911:0:0:0:0:
64,192,155778,128,0,155911:0:0:0:0:
64,192,156044,128,0,156178:0:0:0:0:
448,192,156044,128,0,156578:0:0:0:0:
192,192,156178,1,0,0:0:0:0:
320,192,156444,1,0,0:0:0:0:
64,192,156578,128,0,156978:0:0:0:0:
192,192,156578,128,0,156844:0:0:0:0:
448,192,156978,128,0,157244:0:0:0:0:
192,192,156978,1,0,0:0:0:0:
320,192,157111,128,0,157511:0:0:0:0:
192,192,157244,128,0,157378:0:0:0:0:
448,192,157378,128,0,157644:0:0:0:0:
64,192,157378,1,0,0:0:0:0:
192,192,157644,128,0,158044:0:0:0:0:
64,192,157644,128,0,158044:0:0:0:0:
448,192,157778,1,0,0:0:0:0:
320,192,157778,1,0,0:0:0:0:
448,192,158044,128,0,158311:0:0:0:0:
192,192,158178,128,0,158444:0:0:0:0:
320,192,158311,128,0,158578:0:0:0:0:
448,192,158444,128,0,158578:0:0:0:0:
64,192,158578,128,0,158978:0:0:0:0:
192,192,158578,128,0,158711:0:0:0:0:
192,192,158844,1,0,0:0:0:0:
448,192,158978,128,0,159378:0:0:0:0:
320,192,158978,128,0,159111:0:0:0:0:
320,192,159244,1,0,0:0:0:0:
192,192,159378,128,0,159511:0:0:0:0:
64,192,159378,128,0,160044:0:0:0:0:
192,192,159644,1,0,0:0:0:0:
448,192,159778,128,0,160044:0:0:0:0:
320,192,159778,128,0,160044:0:0:0:0:
448,192,160178,1,0,0:0:0:0:
64,192,160178,128,0,160578:0:0:0:0:
192,192,160178,128,0,160578:0:0:0:0:
448,192,160578,128,0,160844:0:0:0:0:
320,192,160578,128,0,160711:0:0:0:0:
192,192,160711,1,0,0:0:0:0:
64,192,160844,128,0,160978:0:0:0:0:
448,192,160978,128,0,161244:0:0:0:0:
320,192,160978,128,0,161111:0:0:0:0:
192,192,161111,1,0,0:0:0:0:
320,192,161244,1,0,0:0:0:0:
448,192,161378,1,0,0:0:0:0:
64,192,161378,1,0,0:0:0:0:
192,192,161511,1,0,0:0:0:0:
320,192,161644,1,0,0:0:0:0:
64,192,161778,128,0,162178:0:0:0:0:
448,192,161778,1,0,0:0:0:0:
192,192,162044,128,0,162178:0:0:0:0:
320,192,162178,128,0,162578:0:0:0:0:
448,192,162178,1,0,0:0:0:0:
64,192,162311,1,0,0:0:0:0:
448,192,162444,128,0,162578:0:0:0:0:
192,192,162578,128,0,162711:0:0:0:0:
64,192,162578,128,0,162844:0:0:0:0:
320,192,162711,1,0,0:0:0:0:
192,192,162844,1,0,0:0:0:0:
64,192,162978,1,0,0:0:0:0:
448,192,162978,1,0,0:0:0:0:
192,192,163111,1,0,0:0:0:0:
320,192,163244,1,0,0:0:0:0:
448,192,163378,128,0,163511:0:0:0:0:
64,192,163378,1,0,0:0:0:0:
192,192,163511,128,0,163778:0:0:0:0:
320,192,163644,128,0,163911:0:0:0:0:
64,192,163778,1,0,0:0:0:0:
448,192,163778,128,0,164044:0:0:0:0:
192,192,163911,1,0,0:0:0:0:
64,192,164044,128,0,164178:0:0:0:0:
320,192,164044,1,0,0:0:0:0:
448,192,164178,1,0,0:0:0:0:
320,192,164311,1,0,0:0:0:0:
192,192,164444,128,0,164578:0:0:0:0:
64,192,164578,1,0,0:0:0:0:
448,192,164578,128,0,164711:0:0:0:0:
320,192,164711,1,0,0:0:0:0:
192,192,164844,1,0,0:0:0:0:
448,192,164978,128,0,165244:0:0:0:0:
64,192,164978,1,0,0:0:0:0:
192,192,165111,128,0,165244:0:0:0:0:
320,192,165244,128,0,165378:0:0:0:0:
448,192,165378,128,0,165511:0:0:0:0:
192,192,165378,1,0,0:0:0:0:
64,192,165511,128,0,165778:0:0:0:0:
320,192,165644,128,0,165911:0:0:0:0:
192,192,165778,128,0,166044:0:0:0:0:
64,192,165911,128,0,166044:0:0:0:0:
448,192,166044,128,0,166311:0:0:0:0:
64,192,166178,1,0,0:0:0:0:
320,192,166178,128,0,166311:0:0:0:0:
192,192,166311,1,0,0:0:0:0:
64,192,166444,128,0,166578:0:0:0:0:
448,192,166578,128,0,166978:0:0:0:0:
320,192,166578,128,0,166978:0:0:0:0:
192,192,166578,1,0,0:0:0:0:
192,192,166978,128,0,167111:0:0:0:0:
64,192,166978,128,0,167244:0:0:0:0:
320,192,167111,1,0,0:0:0:0:
448,192,167244,128,0,167378:0:0:0:0:
192,192,167378,128,0,167511:0:0:0:0:
64,192,167378,128,0,167644:0:0:0:0:
320,192,167511,1,0,0:0:0:0:
192,192,167644,1,0,0:0:0:0:
320,192,167778,128,0,168178:0:0:0:0:
448,192,167778,128,0,167911:0:0:0:0:
64,192,167911,1,0,0:0:0:0:
448,192,168044,128,0,168444:0:0:0:0:
64,192,168178,128,0,168578:0:0:0:0:
192,192,168178,1,0,0:0:0:0:
192,192,168444,128,0,168711:0:0:0:0:
320,192,168578,128,0,168844:0:0:0:0:
448,192,168711,1,0,0:0:0:0:
64,192,168844,128,0,169111:0:0:0:0:
192,192,168978,128,0,169111:0:0:0:0:
320,192,169111,1,0,0:0:0:0:
192,192,169244,128,0,169378:0:0:0:0:
64,192,169244,1,0,0:0:0:0:
320,192,169378,128,0,169511:0:0:0:0:
448,192,169378,128,0,169511:0:0:0:0:
320,192,169644,128,0,169778:0:0:0:0:
64,192,169778,1,0,0:0:0:0:
192,192,169778,128,0,169911:0:0:0:0:
448,192,169911,128,0,170044:0:0:0:0:
64,192,170044,128,0,170178:0:0:0:0:
320,192,170178,1,0,0:0:0:0:
448,192,170178,1,0,0:0:0:0:
192,192,170444,128,0,170578:0:0:0:0:
448,192,170578,1,0,0:0:0:0:
64,192,170578,1,0,0:0:0:0:
320,192,170844,128,0,171111:0:0:0:0:
192,192,170978,128,0,171111:0:0:0:0:
448,192,171378,1,0,0:0:0:0:
320,192,171378,128,0,171644:0:0:0:0:
192,192,171511,128,0,171644:0:0:0:0:
448,192,171644,128,0,171778:0:0:0:0:
192,192,171778,128,0,172044:0:0:0:0:
320,192,171778,1,0,0:0:0:0:
64,192,171911,128,0,172044:0:0:0:0:
320,192,172044,128,0,172178:0:0:0:0:
64,192,172178,128,0,172444:0:0:0:0:
192,192,172178,1,0,0:0:0:0:
448,192,172311,128,0,172578:0:0:0:0:
320,192,172444,128,0,172578:0:0:0:0:
64,192,172578,1,0,0:0:0:0:
192,192,172578,128,0,172711:0:0:0:0:
448,192,172711,1,0,0:0:0:0:
320,192,172711,1,0,0:0:0:0:
192,192,172844,128,0,172978:0:0:0:0:
320,192,172978,128,0,173378:0:0:0:0:
448,192,172978,128,0,173378:0:0:0:0:
64,192,172978,1,0,0:0:0:0:
192,192,173378,128,0,173511:0:0:0:0:
64,192,173378,128,0,173644:0:0:0:0:
320,192,173511,1,0,0:0:0:0:
448,192,173644,128,0,173778:0:0:0:0:
192,192,173778,128,0,173911:0:0:0:0:
64,192,173778,128,0,174044:0:0:0:0:
320,192,173911,1,0,0:0:0:0:
192,192,174044,1,0,0:0:0:0:
64,192,174178,1,0,0:0:0:0:
448,192,174178,128,0,174311:0:0:0:0:
192,192,174311,128,0,174444:0:0:0:0:
320,192,174444,128,0,174578:0:0:0:0:
192,192,174578,128,0,174711:0:0:0:0:
64,192,174578,128,0,174844:0:0:0:0:
448,192,174711,128,0,174978:0:0:0:0:
320,192,174844,128,0,174978:0:0:0:0:
192,192,174978,128,0,175244:0:0:0:0:
64,192,174978,128,0,175111:0:0:0:0:
320,192,175111,128,0,175378:0:0:0:0:
448,192,175244,128,0,175378:0:0:0:0:
64,192,175378,1,0,0:0:0:0:
192,192,175444,1,0,0:0:0:0:
320,192,175511,1,0,0:0:0:0:
64,192,175644,1,0,0:0:0:0:
448,192,175644,1,0,0:0:0:0:
192,192,175778,128,0,175911:0:0:0:0:
320,192,175778,1,0,0:0:0:0:
448,192,175911,128,0,176044:0:0:0:0:
192,192,176044,128,0,176178:0:0:0:0:
320,192,176178,128,0,176444:0:0:0:0:
448,192,176178,128,0,176444:0:0:0:0:
448,192,176578,1,0,0:0:0:0:
64,192,176578,128,0,176844:0:0:0:0:
320,192,176711,128,0,176978:0:0:0:0:
192,192,176844,128,0,176978:0:0:0:0:
448,192,176978,128,0,177111:0:0:0:0:
64,192,176978,128,0,177111:0:0:0:0:
320,192,177111,1,0,0:0:0:0:
192,192,177244,128,0,177511:0:0:0:0:
320,192,177378,128,0,177511:0:0:0:0:
448,192,177378,128,0,177511:0:0:0:0:
64,192,177511,1,0,0:0:0:0:
320,192,177644,128,0,177778:0:0:0:0:
448,192,177644,128,0,177911:0:0:0:0:
64,192,177778,1,0,0:0:0:0:
192,192,177778,1,0,0:0:0:0:
448,192,178178,1,0,0:0:0:0:
64,192,178178,128,0,178311:0:0:0:0:
320,192,178311,128,0,178444:0:0:0:0:
192,192,178444,128,0,178578:0:0:0:0:
448,192,178578,128,0,178711:0:0:0:0:
320,192,178711,128,0,178844:0:0:0:0:
192,192,178844,1,0,0:0:0:0:
64,192,178844,128,0,178978:0:0:0:0:
320,192,178978,1,0,0:0:0:0:
448,192,178978,128,0,179111:0:0:0:0:
192,192,179111,128,0,179244:0:0:0:0:
320,192,179244,128,0,179378:0:0:0:0:
64,192,179378,128,0,179778:0:0:0:0:
192,192,179378,128,0,179778:0:0:0:0:
448,192,179378,1,0,0:0:0:0:
320,192,179778,128,0,179911:0:0:0:0:
448,192,179778,128,0,180044:0:0:0:0:
192,192,179911,1,0,0:0:0:0:
64,192,180044,128,0,180178:0:0:0:0:
320,192,180178,128,0,180311:0:0:0:0:
448,192,180178,128,0,180444:0:0:0:0:
192,192,180311,1,0,0:0:0:0:
320,192,180444,1,0,0:0:0:0:
64,192,180578,128,0,180711:0:0:0:0:
192,192,180578,128,0,180978:0:0:0:0:
448,192,180711,1,0,0:0:0:0:
64,192,180844,128,0,181244:0:0:0:0:
448,192,180978,128,0,181378:0:0:0:0:
320,192,180978,1,0,0:0:0:0:
320,192,181244,128,0,181511:0:0:0:0:
192,192,181378,128,0,181644:0:0:0:0:
64,192,181511,1,0,0:0:0:0:
448,192,181644,128,0,181911:0:0:0:0:
320,192,181778,128,0,181911:0:0:0:0:
192,192,181778,1,0,0:0:0:0:
192,192,182044,1,0,0:0:0:0:
320,192,182044,128,0,182178:0:0:0:0:
448,192,182178,1,0,0:0:0:0:
64,192,182178,128,0,182311:0:0:0:0:
320,192,182311,1,0,0:0:0:0:
64,192,182444,128,0,182578:0:0:0:0:
448,192,182578,128,0,182844:0:0:0:0:
320,192,182578,128,0,182711:0:0:0:0:
192,192,182978,1,0,0:0:0:0:
320,192,183111,1,0,0:0:0:0:
64,192,183244,128,0,183511:0:0:0:0:
448,192,183244,128,0,183378:0:0:0:0:
192,192,183378,128,0,183511:0:0:0:0:
320,192,183511,1,0,0:0:0:0:
64,192,183644,1,0,0:0:0:0:
192,192,183778,128,0,183911:0:0:0:0:
320,192,183778,128,0,184044:0:0:0:0:
448,192,183911,1,0,0:0:0:0:
192,192,184044,128,0,184178:0:0:0:0:
64,192,184178,1,0,0:0:0:0:
448,192,184178,128,0,184711:0:0:0:0:
320,192,184311,1,0,0:0:0:0:
64,192,184444,128,0,184711:0:0:0:0:
192,192,184578,128,0,184711:0:0:0:0:
320,192,184711,1,0,0:0:0:0:
448,192,184844,1,0,0:0:0:0:
64,192,184978,1,0,0:0:0:0:
192,192,184978,1,0,0:0:0:0:
448,192,185111,1,0,0:0:0:0:
320,192,185111,1,0,0:0:0:0:
64,192,185244,1,0,0:0:0:0:
192,192,185244,1,0,0:0:0:0:
320,192,185378,1,0,0:0:0:0:
448,192,185378,1,0,0:0:0:0:
64,192,185511,1,0,0:0:0:0:
448,192,185644,1,0,0:0:0:0:
320,192,185778,1,0,0:0:0:0:
192,192,185778,128,0,186044:0:0:0:0:
448,192,186044,128,0,186444:0:0:0:0:
64,192,186178,128,0,186444:0:0:0:0:
320,192,186444,128,0,186711:0:0:0:0:
192,192,186844,128,0,187111:0:0:0:0:
448,192,186978,128,0,187111:0:0:0:0:
448,192,187244,128,0,187378:0:0:0:0:
192,192,187378,1,0,0:0:0:0:
64,192,187378,128,0,187511:0:0:0:0:
64,192,187644,128,0,187911:0:0:0:0:
448,192,187778,128,0,187911:0:0:0:0:
448,192,188044,128,0,188444:0:0:0:0:
192,192,188444,1,0,0:0:0:0:
320,192,188578,128,0,188978:0:0:0:0:
