osu file format v14

[General]
AudioFilename: audio.mp3
AudioLeadIn: 0
PreviewTime: 28901
Countdown: 0
SampleSet: Normal
StackLeniency: 0.7
Mode: 1
LetterboxInBreaks: 0
WidescreenStoryboard: 1

[Editor]
Bookmarks: 2692,7967,13241,18516,29065,42252
DistanceSpacing: 2.2
BeatDivisor: 4
GridSize: 8
TimelineZoom: 1.2

[Metadata]
Title:Ne! Ko!
TitleUnicode:ネ!コ!
Artist:Takamori Natsumi, Sendai Eri, Asakawa Yuu, Tanezaki Atsumi
ArtistUnicode:高森奈津美・仙台エリ・浅川悠・種﨑敦美
Creator:Volta
Version:Oni
Source:ノラと皇女と野良猫ハート
Tags:nora to oujo noraneko heart princess and stray cat パトリシア・オブ・エンド patricia of end 黒木未知 kuroki michi 夕莉シャチ yuuri sachi 明日原ユウキ asuhara yuuki
BeatmapID:1411652
BeatmapSetID:666472

[Difficulty]
HPDrainRate:6
CircleSize:5
OverallDifficulty:5.5
ApproachRate:5
SliderMultiplier:1.4
SliderTickRate:1

[Events]
//Background and Video events
0,0,"k7niN.jpg",0,90
//Break Periods
//Storyboard Layer 0 (Background)
//Storyboard Layer 1 (Fail)
//Storyboard Layer 2 (Pass)
//Storyboard Layer 3 (Foreground)
//Storyboard Sound Samples

[TimingPoints]
55,329.67032967033,4,1,0,100,1,0
29065,-100,4,1,0,100,0,1
39615,-100,4,1,0,100,0,0
42252,-100,4,1,0,100,0,1
46703,-100,4,1,0,100,0,0

[HitObjects]
160,144,55,5,8,0:0:0:0:
256,184,219,1,0,0:0:0:0:
256,184,302,1,0,0:0:0:0:
160,144,384,1,8,0:0:0:0:
280,168,549,1,8,0:0:0:0:
176,152,631,1,8,0:0:0:0:
160,144,714,1,0,0:0:0:0:
216,128,879,1,0,0:0:0:0:
216,128,961,1,8,0:0:0:0:
280,168,1044,1,0,0:0:0:0:
176,104,1126,1,8,0:0:0:0:
176,160,1208,1,8,0:0:0:0:
176,160,1291,1,0,0:0:0:0:
176,136,1538,1,12,0:0:0:0:
408,216,1703,1,12,0:0:0:0:
176,136,2033,1,12,0:0:0:0:
152,136,2197,1,12,0:0:0:0:
176,136,2692,1,4,0:0:0:0:
136,216,2857,1,0,0:0:0:0:
152,192,2939,1,0,0:0:0:0:
136,216,3022,1,8,0:0:0:0:
112,120,3186,1,0,0:0:0:0:
336,112,3351,1,8,0:0:0:0:
152,96,3516,1,8,0:0:0:0:
336,112,3681,1,0,0:0:0:0:
64,152,4011,1,8,0:0:0:0:
192,136,4175,1,0,0:0:0:0:
336,112,4340,1,8,0:0:0:0:
336,112,4505,1,8,0:0:0:0:
64,152,4670,1,0,0:0:0:0:
64,152,5000,1,8,0:0:0:0:
8,128,5164,1,8,0:0:0:0:
80,136,5247,1,8,0:0:0:0:
64,152,5329,1,0,0:0:0:0:
192,136,5494,1,0,0:0:0:0:
192,136,5659,1,8,0:0:0:0:
192,136,5824,1,0,0:0:0:0:
64,152,5989,1,8,0:0:0:0:
296,120,6318,1,8,0:0:0:0:
296,120,6483,1,8,0:0:0:0:
64,152,6648,1,0,0:0:0:0:
176,120,6813,1,0,0:0:0:0:
160,136,6895,1,0,0:0:0:0:
64,152,6978,1,8,0:0:0:0:
120,120,7142,1,0,0:0:0:0:
64,152,7307,1,8,0:0:0:0:
16,136,7637,1,8,0:0:0:0:
168,128,7802,1,0,0:0:0:0:
56,152,7967,1,4,0:0:0:0:
144,80,8296,1,12,0:0:0:0:
128,176,8626,1,4,0:0:0:0:
112,80,8956,1,12,0:0:0:0:
112,80,9120,1,12,0:0:0:0:
96,168,9450,1,4,0:0:0:0:
128,176,9615,1,12,0:0:0:0:
96,168,9945,1,4,0:0:0:0:
80,136,10109,1,0,0:0:0:0:
152,96,10192,1,0,0:0:0:0:
240,120,10274,1,8,0:0:0:0:
240,120,10439,1,0,0:0:0:0:
96,168,10604,1,12,0:0:0:0:
96,168,11263,1,12,0:0:0:0:
96,176,11758,1,4,0:0:0:0:
160,104,12087,1,0,0:0:0:0:
160,104,12252,1,0,0:0:0:0:
160,104,12417,1,0,0:0:0:0:
184,24,12582,1,0,0:0:0:0:
328,112,12747,1,0,0:0:0:0:
288,80,12829,5,0,0:0:0:0:
144,64,12912,1,8,0:0:0:0:
328,112,13076,1,0,0:0:0:0:
80,176,13241,1,4,0:0:0:0:
216,48,13571,1,8,0:0:0:0:
80,176,13901,1,8,0:0:0:0:
216,48,14065,1,0,0:0:0:0:
216,48,14230,1,8,0:0:0:0:
72,160,14395,1,8,0:0:0:0:
112,152,14478,1,8,0:0:0:0:
112,128,14560,1,0,0:0:0:0:
160,128,14725,1,0,0:0:0:0:
112,128,14890,1,8,0:0:0:0:
280,112,15055,1,8,0:0:0:0:
280,112,15384,1,0,0:0:0:0:
128,120,15549,1,8,0:0:0:0:
280,112,15714,1,0,0:0:0:0:
112,128,15879,1,0,0:0:0:0:
160,136,16044,1,8,0:0:0:0:
144,128,16126,1,8,0:0:0:0:
192,120,16208,1,0,0:0:0:0:
144,120,16373,1,0,0:0:0:0:
112,128,16538,1,8,0:0:0:0:
120,96,16703,1,0,0:0:0:0:
192,120,16785,1,0,0:0:0:0:
112,168,16868,1,8,0:0:0:0:
144,112,17033,1,8,0:0:0:0:
112,128,17197,1,4,0:0:0:0:
120,104,17362,1,12,0:0:0:0:
256,120,17527,1,12,0:0:0:0:
256,120,17692,1,4,0:0:0:0:
192,128,18022,1,12,0:0:0:0:
128,144,18351,1,0,0:0:0:0:
128,144,18434,1,0,0:0:0:0:
112,128,18516,1,8,0:0:0:0:
192,104,18846,1,8,0:0:0:0:
160,184,19011,1,0,0:0:0:0:
112,136,19175,1,8,0:0:0:0:
160,184,19258,1,8,0:0:0:0:
152,88,19340,1,0,0:0:0:0:
136,120,19505,1,0,0:0:0:0:
32,152,19670,1,8,0:0:0:0:
112,136,19835,1,0,0:0:0:0:
176,112,19917,1,0,0:0:0:0:
128,144,20000,1,8,0:0:0:0:
112,136,20164,1,0,0:0:0:0:
248,144,20329,1,0,0:0:0:0:
248,144,20659,1,8,0:0:0:0:
152,120,20824,1,0,0:0:0:0:
104,168,20906,1,0,0:0:0:0:
248,152,20989,1,0,0:0:0:0:
64,112,21153,1,12,0:0:0:0:
240,152,21483,1,0,0:0:0:0:
224,208,21648,1,12,0:0:0:0:
240,152,21978,1,0,0:0:0:0:
64,128,22142,1,12,0:0:0:0:
40,168,22307,1,0,0:0:0:0:
248,152,22472,1,0,0:0:0:0:
208,160,22637,1,12,0:0:0:0:
248,152,22967,1,0,0:0:0:0:
64,120,23131,1,12,0:0:0:0:
264,152,23296,1,0,0:0:0:0:
64,120,23461,1,12,0:0:0:0:
264,152,23626,1,8,0:0:0:0:
64,120,23791,1,4,0:0:0:0:
104,168,23956,1,0,0:0:0:0:
192,136,24038,1,0,0:0:0:0:
144,112,24120,1,0,0:0:0:0:
144,112,24285,1,0,0:0:0:0:
208,128,24368,1,0,0:0:0:0:
64,120,24450,1,0,0:0:0:0:
192,136,24615,1,8,0:0:0:0:
120,184,24697,1,8,0:0:0:0:
144,120,24780,1,0,0:0:0:0:
64,120,24945,1,8,0:0:0:0:
224,96,25274,1,8,0:0:0:0:
224,96,25439,1,8,0:0:0:0:
240,96,25604,1,0,0:0:0:0:
159,101,25769,1,8,0:0:0:0:
232,88,25851,1,8,0:0:0:0:
232,88,25934,1,0,0:0:0:0:
216,160,26016,1,0,0:0:0:0:
159,101,26098,1,0,0:0:0:0:
248,88,26263,1,0,0:0:0:0:
64,120,26428,1,8,0:0:0:0:
144,160,26593,1,0,0:0:0:0:
144,160,26675,1,0,0:0:0:0:
144,104,26758,1,8,0:0:0:0:
168,120,26923,1,0,0:0:0:0:
200,120,27087,1,8,0:0:0:0:
160,168,27170,1,8,0:0:0:0:
200,120,27252,1,8,0:0:0:0:
160,104,27417,1,8,0:0:0:0:
264,88,27582,1,0,0:0:0:0:
64,120,27747,1,8,0:0:0:0:
264,88,27829,1,8,0:0:0:0:
144,176,27912,1,0,0:0:0:0:
16,144,27994,1,0,0:0:0:0:
64,120,28076,1,8,0:0:0:0:
240,104,28241,1,0,0:0:0:0:
64,120,28406,1,0,0:0:0:0:
248,120,28489,1,0,0:0:0:0:
240,104,28571,1,0,0:0:0:0:
176,176,28736,1,12,0:0:0:0:
64,120,29065,1,4,0:0:0:0:
192,120,29230,1,0,0:0:0:0:
160,144,29313,1,0,0:0:0:0:
192,120,29395,1,8,0:0:0:0:
264,200,29560,1,0,0:0:0:0:
264,200,29642,1,8,0:0:0:0:
144,120,29725,1,0,0:0:0:0:
176,128,29890,1,0,0:0:0:0:
168,104,30055,1,8,0:0:0:0:
168,104,30219,1,0,0:0:0:0:
144,120,30384,1,8,0:0:0:0:
272,104,30467,1,8,0:0:0:0:
272,104,30549,1,0,0:0:0:0:
112,168,30631,1,0,0:0:0:0:
208,96,30714,1,8,0:0:0:0:
208,96,30879,1,0,0:0:0:0:
144,120,31044,1,12,0:0:0:0:
32,128,31373,1,8,0:0:0:0:
32,128,31538,1,0,0:0:0:0:
56,136,31620,1,0,0:0:0:0:
144,120,31703,1,8,0:0:0:0:
104,128,31868,1,8,0:0:0:0:
280,112,32033,1,0,0:0:0:0:
80,160,32115,1,8,0:0:0:0:
280,112,32197,1,0,0:0:0:0:
144,120,32362,1,8,0:0:0:0:
96,120,32527,1,0,0:0:0:0:
192,80,32609,1,8,0:0:0:0:
280,112,32857,1,0,0:0:0:0:
144,120,33022,1,8,0:0:0:0:
40,152,33104,1,8,0:0:0:0:
40,152,33186,1,8,0:0:0:0:
40,152,33351,1,0,0:0:0:0:
288,120,33516,1,0,0:0:0:0:
288,120,33681,1,8,0:0:0:0:
144,184,33763,1,8,0:0:0:0:
168,176,33846,1,0,0:0:0:0:
168,176,33928,1,0,0:0:0:0:
88,136,34011,1,8,0:0:0:0:
128,144,34175,1,0,0:0:0:0:
144,120,34258,1,8,0:0:0:0:
104,120,34340,1,0,0:0:0:0:
88,136,34505,1,0,0:0:0:0:
288,120,34670,1,8,0:0:0:0:
200,120,34752,1,8,0:0:0:0:
32,152,34835,1,0,0:0:0:0:
144,120,35000,1,8,0:0:0:0:
176,128,35329,1,8,0:0:0:0:
160,144,35494,1,0,0:0:0:0:
152,96,35576,1,0,0:0:0:0:
144,120,35659,1,8,0:0:0:0:
88,88,35824,1,8,0:0:0:0:
144,120,35989,1,0,0:0:0:0:
152,112,36071,1,8,0:0:0:0:
80,120,36153,1,0,0:0:0:0:
144,120,36318,1,0,0:0:0:0:
88,88,36648,1,0,0:0:0:0:
88,88,36813,1,8,0:0:0:0:
144,120,36978,1,0,0:0:0:0:
160,144,37142,1,0,0:0:0:0:
160,144,37225,1,0,0:0:0:0:
288,120,37307,1,8,0:0:0:0:
192,128,37472,1,0,0:0:0:0:
144,120,37637,1,8,0:0:0:0:
192,128,37802,1,8,0:0:0:0:
192,128,37884,1,8,0:0:0:0:
144,120,37967,1,0,0:0:0:0:
96,112,38131,1,0,0:0:0:0:
144,120,38296,1,8,0:0:0:0:
216,144,38379,1,0,0:0:0:0:
288,120,38461,1,8,0:0:0:0:
160,152,38544,1,8,0:0:0:0:
248,200,38626,1,0,0:0:0:0:
160,152,38791,1,0,0:0:0:0:
288,120,38956,1,8,0:0:0:0:
216,192,39120,1,8,0:0:0:0:
200,136,39203,1,8,0:0:0:0:
152,88,39285,1,0,0:0:0:0:
216,192,39368,1,0,0:0:0:0:
216,192,39450,1,0,0:0:0:0:
120,136,39615,1,12,0:0:0:0:
232,104,39862,1,12,0:0:0:0:
232,104,40109,1,12,0:0:0:0:
120,136,40274,1,4,0:0:0:0:
232,104,40522,1,4,0:0:0:0:
120,136,40769,1,4,0:0:0:0:
120,136,40934,1,12,0:0:0:0:
48,136,41098,1,12,0:0:0:0:
112,112,41263,1,4,0:0:0:0:
200,152,41428,1,12,0:0:0:0:
120,136,41593,1,4,0:0:0:0:
232,96,41923,1,8,0:0:0:0:
120,136,42252,1,4,0:0:0:0:
248,192,42582,1,0,0:0:0:0:
248,192,42747,1,0,0:0:0:0:
96,160,42829,1,0,0:0:0:0:
152,104,42912,1,8,0:0:0:0:
96,160,43076,1,8,0:0:0:0:
288,152,43159,1,0,0:0:0:0:
39,156,43241,1,8,0:0:0:0:
240,112,43406,1,0,0:0:0:0:
152,104,43571,1,12,0:0:0:0:
152,104,43901,1,12,0:0:0:0:
152,104,44230,1,4,0:0:0:0:
232,104,44560,1,12,0:0:0:0:
120,192,44725,1,12,0:0:0:0:
104,144,45055,1,4,0:0:0:0:
208,160,45219,1,4,0:0:0:0:
88,128,45549,1,12,0:0:0:0:
88,128,45714,1,4,0:0:0:0:
104,144,46044,1,12,0:0:0:0:
104,144,46373,1,4,0:0:0:0:
112,144,46538,1,4,0:0:0:0:
184,96,46703,5,12,0:0:0:0:
