osu file format v14

[General]
AudioFilename: audio.mp3
AudioLeadIn: 0
PreviewTime: 28901
Countdown: 0
SampleSet: Normal
StackLeniency: 0.7
Mode: 1
LetterboxInBreaks: 0
WidescreenStoryboard: 1

[Editor]
Bookmarks: 2692,29065
DistanceSpacing: 2.2
BeatDivisor: 2
GridSize: 8
TimelineZoom: 0.8999999

[Metadata]
Title:Ne! Ko!
TitleUnicode:ネ!コ!
Artist:Takamori Natsumi, Sendai Eri, Asakawa Yuu, Tanezaki Atsumi
ArtistUnicode:高森奈津美・仙台エリ・浅川悠・種﨑敦美
Creator:Volta
Version:Futsuu
Source:ノラと皇女と野良猫ハート
Tags:nora to oujo noraneko heart princess and stray cat パトリシア・オブ・エンド patricia of end 黒木未知 kuroki michi 夕莉シャチ yuuri sachi 明日原ユウキ asuhara yuuki
BeatmapID:1411649
BeatmapSetID:666472

[Difficulty]
HPDrainRate:8
CircleSize:5
OverallDifficulty:4
ApproachRate:5
SliderMultiplier:1.4
SliderTickRate:1

[Events]
//Background and Video events
0,0,"k7niN.jpg",0,90
//Break Periods
//Storyboard Layer 0 (Background)
//Storyboard Layer 1 (Fail)
//Storyboard Layer 2 (Pass)
//Storyboard Layer 3 (Foreground)
//Storyboard Sound Samples

[TimingPoints]
55,329.67032967033,4,1,0,100,1,0
29065,-100,4,1,0,100,0,1
39615,-100,4,1,0,100,0,0
42252,-100,4,1,0,100,0,1
46703,-100,4,1,0,100,0,0

[HitObjects]
160,144,55,5,8,0:0:0:0:
160,144,384,1,0,0:0:0:0:
280,168,549,1,8,0:0:0:0:
160,144,714,1,0,0:0:0:0:
280,168,1044,1,8,0:0:0:0:
280,168,1208,1,8,0:0:0:0:
176,136,1538,1,12,0:0:0:0:
176,136,2033,1,12,0:0:0:0:
176,136,2692,1,4,0:0:0:0:
136,128,3022,1,8,0:0:0:0:
336,112,3351,1,0,0:0:0:0:
336,112,3681,1,8,0:0:0:0:
336,112,3846,1,8,0:0:0:0:
64,152,4011,1,0,0:0:0:0:
336,112,4340,1,8,0:0:0:0:
64,152,4670,1,0,0:0:0:0:
64,152,5329,1,0,0:0:0:0:
224,168,5659,1,0,0:0:0:0:
64,152,5989,1,8,0:0:0:0:
296,120,6318,1,0,0:0:0:0:
296,120,6483,1,0,0:0:0:0:
64,152,6648,1,8,0:0:0:0:
64,152,6978,1,0,0:0:0:0:
64,152,7307,1,8,0:0:0:0:
56,152,7967,1,0,0:0:0:0:
144,80,8296,1,8,0:0:0:0:
128,176,8626,1,0,0:0:0:0:
112,80,8956,1,8,0:0:0:0:
112,80,9120,1,8,0:0:0:0:
96,168,9450,1,0,0:0:0:0:
128,176,9615,1,8,0:0:0:0:
96,168,9945,1,0,0:0:0:0:
96,168,10604,1,12,0:0:0:0:
96,168,11263,1,12,0:0:0:0:
96,176,11758,1,4,0:0:0:0:
184,24,12582,1,0,0:0:0:0:
144,64,12912,1,8,0:0:0:0:
80,136,13076,1,0,0:0:0:0:
80,176,13241,1,4,0:0:0:0:
216,48,13571,1,8,0:0:0:0:
80,176,13901,1,8,0:0:0:0:
216,48,14065,1,8,0:0:0:0:
216,48,14230,1,8,0:0:0:0:
112,128,14560,1,0,0:0:0:0:
112,128,14890,1,8,0:0:0:0:
128,120,15549,1,8,0:0:0:0:
112,128,15879,1,0,0:0:0:0:
192,120,16208,1,8,0:0:0:0:
112,128,16538,1,0,0:0:0:0:
120,96,16703,1,8,0:0:0:0:
192,120,16868,1,8,0:0:0:0:
112,128,17197,1,4,0:0:0:0:
192,128,18022,1,8,0:0:0:0:
112,128,18516,1,4,0:0:0:0:
192,104,18846,1,8,0:0:0:0:
112,136,19175,1,8,0:0:0:0:
136,120,19340,1,8,0:0:0:0:
136,120,19505,1,0,0:0:0:0:
112,136,19835,1,8,0:0:0:0:
112,136,20164,1,8,0:0:0:0:
152,120,20824,1,0,0:0:0:0:
64,112,21153,1,12,0:0:0:0:
224,208,21648,1,12,0:0:0:0:
64,128,22142,1,12,0:0:0:0:
208,160,22637,1,12,0:0:0:0:
64,120,23131,1,12,0:0:0:0:
64,120,23461,1,8,0:0:0:0:
64,120,23791,1,4,0:0:0:0:
144,112,24120,1,0,0:0:0:0:
144,112,24285,1,0,0:0:0:0:
64,120,24450,1,0,0:0:0:0:
144,120,24780,1,0,0:0:0:0:
64,120,25109,1,8,0:0:0:0:
184,176,25439,1,0,0:0:0:0:
159,101,25769,1,8,0:0:0:0:
64,120,26428,1,8,0:0:0:0:
144,104,26758,1,8,0:0:0:0:
168,120,26923,1,8,0:0:0:0:
64,120,27087,1,0,0:0:0:0:
160,104,27417,1,0,0:0:0:0:
64,120,27747,1,8,0:0:0:0:
144,176,27912,1,8,0:0:0:0:
64,120,28076,1,8,0:0:0:0:
64,120,28406,1,0,0:0:0:0:
176,176,28736,1,8,0:0:0:0:
64,120,29065,1,4,0:0:0:0:
144,120,29725,1,0,0:0:0:0:
168,104,30055,1,0,0:0:0:0:
168,104,30219,1,0,0:0:0:0:
144,120,30384,1,8,0:0:0:0:
144,120,30714,1,0,0:0:0:0:
144,120,31044,1,12,0:0:0:0:
144,120,31703,1,8,0:0:0:0:
280,112,32033,1,0,0:0:0:0:
280,112,32197,1,8,0:0:0:0:
144,120,32362,1,0,0:0:0:0:
280,112,32692,1,0,0:0:0:0:
144,120,33022,1,8,0:0:0:0:
288,120,33351,1,8,0:0:0:0:
288,120,33516,1,8,0:0:0:0:
288,120,33681,1,0,0:0:0:0:
144,120,34340,1,8,0:0:0:0:
288,120,34670,1,0,0:0:0:0:
288,120,34835,1,0,0:0:0:0:
144,120,35000,1,8,0:0:0:0:
176,128,35329,1,0,0:0:0:0:
144,120,35659,1,8,0:0:0:0:
144,120,35989,1,8,0:0:0:0:
288,120,36153,1,8,0:0:0:0:
144,120,36318,1,0,0:0:0:0:
144,120,36978,1,0,0:0:0:0:
288,120,37307,1,8,0:0:0:0:
256,112,37472,1,0,0:0:0:0:
144,120,37637,1,8,0:0:0:0:
144,120,37967,1,0,0:0:0:0:
144,120,38296,1,8,0:0:0:0:
288,120,38461,1,8,0:0:0:0:
288,120,38626,1,8,0:0:0:0:
288,120,38956,1,0,0:0:0:0:
152,88,39285,1,0,0:0:0:0:
120,136,39615,1,12,0:0:0:0:
120,136,40274,1,4,0:0:0:0:
120,136,40934,1,12,0:0:0:0:
120,136,41593,1,0,0:0:0:0:
232,96,41923,1,8,0:0:0:0:
120,136,42252,1,4,0:0:0:0:
152,104,42912,1,0,0:0:0:0:
39,156,43241,1,8,0:0:0:0:
240,112,43406,1,0,0:0:0:0:
152,104,43571,1,8,0:0:0:0:
152,104,43901,1,8,0:0:0:0:
152,104,44230,1,0,0:0:0:0:
232,104,44560,1,8,0:0:0:0:
120,192,44725,1,8,0:0:0:0:
256,192,45055,12,0,46373,0:0:0:0:
184,96,46703,5,12,0:0:0:0:
