osu file format v14

[General]
AudioFilename: audio.mp3
AudioLeadIn: 0
PreviewTime: 28901
Countdown: 0
SampleSet: Normal
StackLeniency: 0.7
Mode: 1
LetterboxInBreaks: 0
WidescreenStoryboard: 1

[Editor]
Bookmarks: 2692,29065
DistanceSpacing: 2.2
BeatDivisor: 4
GridSize: 8
TimelineZoom: 1.6

[Metadata]
Title:Ne! Ko!
TitleUnicode:ネ!コ!
Artist:Takamori Natsumi, Sendai Eri, Asakawa Yuu, Tanezaki Atsumi
ArtistUnicode:高森奈津美・仙台エリ・浅川悠・種﨑敦美
Creator:Volta
Version:Inner Oni
Source:ノラと皇女と野良猫ハート
Tags:nora to oujo noraneko heart princess and stray cat パトリシア・オブ・エンド patricia of end 黒木未知 kuroki michi 夕莉シャチ yuuri sachi 明日原ユウキ asuhara yuuki
BeatmapID:1410641
BeatmapSetID:666472

[Difficulty]
HPDrainRate:6
CircleSize:5
OverallDifficulty:6
ApproachRate:5
SliderMultiplier:1.4
SliderTickRate:1

[Events]
//Background and Video events
0,0,"k7niN.jpg",0,90
//Break Periods
//Storyboard Layer 0 (Background)
//Storyboard Layer 1 (Fail)
//Storyboard Layer 2 (Pass)
//Storyboard Layer 3 (Foreground)
//Storyboard Sound Samples

[TimingPoints]
55,329.67032967033,4,1,0,100,1,0
29065,-100,4,1,0,100,0,1
39615,-100,4,1,0,100,0,0
42252,-100,4,1,0,100,0,1
46703,-100,4,1,0,100,0,0

[HitObjects]
176,192,55,5,8,0:0:0:0:
176,192,137,1,8,0:0:0:0:
176,192,219,1,0,0:0:0:0:
176,192,302,1,0,0:0:0:0:
288,280,384,1,8,0:0:0:0:
424,280,467,1,0,0:0:0:0:
392,104,549,1,8,0:0:0:0:
392,104,631,1,8,0:0:0:0:
392,104,714,1,0,0:0:0:0:
392,104,796,1,8,0:0:0:0:
392,104,879,1,0,0:0:0:0:
272,96,961,1,0,0:0:0:0:
272,96,1044,1,8,0:0:0:0:
240,88,1126,1,8,0:0:0:0:
240,88,1208,1,8,0:0:0:0:
200,152,1291,1,0,0:0:0:0:
200,152,1538,1,12,0:0:0:0:
200,152,1703,1,12,0:0:0:0:
200,152,2033,1,12,0:0:0:0:
224,128,2197,1,12,0:0:0:0:
128,136,2362,1,0,0:0:0:0:
128,136,2445,1,0,0:0:0:0:
128,136,2527,1,0,0:0:0:0:
120,184,2692,1,4,0:0:0:0:
56,160,2857,1,0,0:0:0:0:
152,144,2939,1,0,0:0:0:0:
56,160,3022,1,8,0:0:0:0:
56,160,3186,1,0,0:0:0:0:
56,160,3269,1,8,0:0:0:0:
56,160,3351,1,0,0:0:0:0:
88,176,3516,1,0,0:0:0:0:
88,176,3681,1,8,0:0:0:0:
88,176,3846,1,8,0:0:0:0:
88,176,3928,1,8,0:0:0:0:
168,160,4011,1,0,0:0:0:0:
88,160,4175,1,0,0:0:0:0:
176,112,4258,1,0,0:0:0:0:
136,72,4340,1,8,0:0:0:0:
176,112,4423,1,0,0:0:0:0:
136,72,4505,1,8,0:0:0:0:
224,152,4670,1,0,0:0:0:0:
40,192,4835,1,0,0:0:0:0:
56,200,4917,1,0,0:0:0:0:
56,200,5000,1,8,0:0:0:0:
128,192,5082,1,0,0:0:0:0:
128,192,5164,1,8,0:0:0:0:
136,192,5247,1,8,0:0:0:0:
136,192,5329,1,0,0:0:0:0:
8,168,5494,1,0,0:0:0:0:
8,168,5659,1,8,0:0:0:0:
8,168,5824,1,8,0:0:0:0:
8,168,5906,1,0,0:0:0:0:
48,144,5989,1,8,0:0:0:0:
48,144,6153,1,0,0:0:0:0:
48,144,6318,1,8,0:0:0:0:
192,80,6401,1,8,0:0:0:0:
48,144,6483,1,0,0:0:0:0:
144,160,6565,1,0,0:0:0:0:
88,176,6648,1,8,0:0:0:0:
144,160,6813,1,0,0:0:0:0:
144,160,6978,1,8,0:0:0:0:
48,152,7142,1,8,0:0:0:0:
48,152,7225,1,8,0:0:0:0:
48,152,7307,1,8,0:0:0:0:
72,144,7472,1,0,0:0:0:0:
288,152,7555,1,0,0:0:0:0:
72,144,7637,1,8,0:0:0:0:
72,144,7802,1,0,0:0:0:0:
272,160,7967,1,4,0:0:0:0:
272,160,8296,1,12,0:0:0:0:
72,168,8626,1,4,0:0:0:0:
72,168,8956,1,12,0:0:0:0:
72,168,9120,1,12,0:0:0:0:
72,168,9450,1,4,0:0:0:0:
72,168,9615,1,12,0:0:0:0:
72,168,9945,1,4,0:0:0:0:
128,120,10109,1,0,0:0:0:0:
128,120,10192,1,0,0:0:0:0:
232,136,10274,1,8,0:0:0:0:
232,136,10439,1,0,0:0:0:0:
232,136,10604,1,12,0:0:0:0:
200,184,11263,1,12,0:0:0:0:
168,152,11758,1,4,0:0:0:0:
144,136,12087,1,0,0:0:0:0:
144,136,12252,1,0,0:0:0:0:
144,136,12417,1,0,0:0:0:0:
144,136,12582,1,0,0:0:0:0:
144,136,12747,1,0,0:0:0:0:
336,192,12829,1,0,0:0:0:0:
144,136,12912,1,8,0:0:0:0:
312,176,12994,1,8,0:0:0:0:
312,176,13076,1,0,0:0:0:0:
136,160,13241,1,4,0:0:0:0:
192,200,13406,1,0,0:0:0:0:
192,200,13571,1,8,0:0:0:0:
192,144,13901,1,8,0:0:0:0:
192,144,14065,1,8,0:0:0:0:
112,120,14148,5,0,0:0:0:0:
192,144,14230,1,8,0:0:0:0:
192,144,14395,1,0,0:0:0:0:
184,144,14560,1,8,0:0:0:0:
200,48,14642,1,8,0:0:0:0:
184,144,14725,1,0,0:0:0:0:
208,96,14807,1,0,0:0:0:0:
152,136,14890,1,8,0:0:0:0:
152,136,15055,1,8,0:0:0:0:
88,144,15219,1,0,0:0:0:0:
88,144,15384,1,0,0:0:0:0:
168,136,15467,1,0,0:0:0:0:
88,144,15549,1,8,0:0:0:0:
88,144,15714,1,8,0:0:0:0:
80,152,15879,1,0,0:0:0:0:
80,152,16044,1,0,0:0:0:0:
168,136,16126,1,8,0:0:0:0:
80,152,16208,1,0,0:0:0:0:
80,152,16373,1,0,0:0:0:0:
80,152,16538,1,8,0:0:0:0:
80,152,16703,1,0,0:0:0:0:
64,184,16785,1,0,0:0:0:0:
80,152,16868,1,8,0:0:0:0:
240,240,16950,1,0,0:0:0:0:
80,152,17033,1,8,0:0:0:0:
168,168,17197,1,4,0:0:0:0:
168,168,17362,1,12,0:0:0:0:
168,168,17527,1,12,0:0:0:0:
168,168,17692,1,4,0:0:0:0:
96,136,18022,1,12,0:0:0:0:
248,128,18186,1,0,0:0:0:0:
256,152,18351,1,8,0:0:0:0:
256,152,18434,1,8,0:0:0:0:
256,152,18516,1,0,0:0:0:0:
256,160,18681,1,0,0:0:0:0:
256,160,18846,1,8,0:0:0:0:
232,144,19011,1,8,0:0:0:0:
232,144,19093,1,0,0:0:0:0:
256,144,19175,1,8,0:0:0:0:
256,144,19340,1,0,0:0:0:0:
256,144,19505,1,0,0:0:0:0:
256,144,19587,1,0,0:0:0:0:
96,136,19670,1,0,0:0:0:0:
272,104,19752,1,0,0:0:0:0:
104,144,19835,1,8,0:0:0:0:
120,136,20000,1,8,0:0:0:0:
120,136,20082,1,0,0:0:0:0:
120,136,20164,1,0,0:0:0:0:
152,136,20329,1,8,0:0:0:0:
320,208,20659,1,8,0:0:0:0:
320,208,20741,1,8,0:0:0:0:
320,208,20824,1,0,0:0:0:0:
320,208,20906,1,0,0:0:0:0:
320,208,20989,1,0,0:0:0:0:
224,192,21153,1,12,0:0:0:0:
272,144,21318,1,0,0:0:0:0:
272,144,21401,1,0,0:0:0:0:
272,144,21483,1,0,0:0:0:0:
152,120,21648,1,12,0:0:0:0:
272,144,21813,1,0,0:0:0:0:
272,144,21895,1,8,0:0:0:0:
272,144,21978,1,0,0:0:0:0:
152,120,22142,1,12,0:0:0:0:
144,168,22307,1,0,0:0:0:0:
144,168,22390,1,0,0:0:0:0:
144,168,22472,1,8,0:0:0:0:
152,120,22637,1,12,0:0:0:0:
200,160,22802,1,8,0:0:0:0:
200,160,22884,1,8,0:0:0:0:
200,160,22967,1,0,0:0:0:0:
152,120,23131,1,12,0:0:0:0:
200,160,23296,1,0,0:0:0:0:
152,120,23461,1,12,0:0:0:0:
200,160,23626,1,8,0:0:0:0:
152,120,23791,1,4,0:0:0:0:
160,128,23956,1,0,0:0:0:0:
160,128,24038,1,0,0:0:0:0:
160,128,24120,1,0,0:0:0:0:
160,128,24203,1,0,0:0:0:0:
160,128,24285,1,8,0:0:0:0:
160,112,24368,1,8,0:0:0:0:
160,112,24450,1,8,0:0:0:0:
200,112,24533,1,8,0:0:0:0:
200,112,24615,1,0,0:0:0:0:
200,112,24697,1,8,0:0:0:0:
200,112,24780,1,0,0:0:0:0:
192,120,24862,1,0,0:0:0:0:
192,120,24945,1,8,0:0:0:0:
176,104,25274,5,8,0:0:0:0:
176,104,25357,1,8,0:0:0:0:
176,104,25439,1,8,0:0:0:0:
200,96,25522,1,8,0:0:0:0:
208,96,25604,1,0,0:0:0:0:
208,96,25686,1,0,0:0:0:0:
184,160,25769,1,0,0:0:0:0:
184,160,25851,1,0,0:0:0:0:
192,160,25934,1,8,0:0:0:0:
192,160,26016,1,8,0:0:0:0:
200,168,26098,1,0,0:0:0:0:
192,160,26181,1,8,0:0:0:0:
160,128,26263,5,0,0:0:0:0:
160,128,26346,1,0,0:0:0:0:
64,160,26428,5,8,0:0:0:0:
160,168,26511,1,0,0:0:0:0:
160,168,26593,1,0,0:0:0:0:
232,136,26675,1,8,0:0:0:0:
240,128,26758,1,8,0:0:0:0:
16,136,26840,1,0,0:0:0:0:
40,168,26923,1,0,0:0:0:0:
40,168,27005,1,0,0:0:0:0:
40,168,27087,1,8,0:0:0:0:
40,168,27170,1,0,0:0:0:0:
40,168,27252,1,8,0:0:0:0:
40,168,27335,1,8,0:0:0:0:
40,168,27417,1,0,0:0:0:0:
40,168,27500,1,0,0:0:0:0:
40,168,27582,1,8,0:0:0:0:
40,168,27664,1,0,0:0:0:0:
40,168,27747,1,8,0:0:0:0:
40,168,27829,1,8,0:0:0:0:
40,168,27912,1,0,0:0:0:0:
40,168,27994,1,8,0:0:0:0:
40,168,28076,1,8,0:0:0:0:
40,168,28159,1,8,0:0:0:0:
40,168,28241,1,0,0:0:0:0:
40,168,28324,1,8,0:0:0:0:
40,168,28406,1,8,0:0:0:0:
40,168,28489,1,0,0:0:0:0:
40,168,28571,1,0,0:0:0:0:
40,168,28736,1,12,0:0:0:0:
40,168,29065,1,4,0:0:0:0:
208,240,29230,1,0,0:0:0:0:
120,152,29313,1,0,0:0:0:0:
208,240,29395,1,8,0:0:0:0:
88,136,29560,1,0,0:0:0:0:
120,136,29725,1,0,0:0:0:0:
208,240,29807,1,8,0:0:0:0:
120,136,29890,1,0,0:0:0:0:
104,144,29972,1,0,0:0:0:0:
120,136,30055,1,8,0:0:0:0:
120,136,30219,1,0,0:0:0:0:
200,224,30384,1,8,0:0:0:0:
200,224,30467,1,8,0:0:0:0:
200,224,30549,1,0,0:0:0:0:
200,224,30631,1,0,0:0:0:0:
200,224,30714,1,8,0:0:0:0:
200,224,30879,1,0,0:0:0:0:
96,160,31044,1,12,0:0:0:0:
216,128,31208,1,0,0:0:0:0:
208,128,31373,1,8,0:0:0:0:
208,128,31456,1,8,0:0:0:0:
208,128,31538,1,0,0:0:0:0:
208,128,31620,1,8,0:0:0:0:
208,128,31703,1,0,0:0:0:0:
208,128,31868,1,0,0:0:0:0:
224,136,32033,1,8,0:0:0:0:
232,144,32197,1,8,0:0:0:0:
232,144,32280,1,0,0:0:0:0:
232,144,32362,1,8,0:0:0:0:
120,160,32527,1,0,0:0:0:0:
120,160,32609,1,0,0:0:0:0:
224,160,32692,1,8,0:0:0:0:
224,160,32774,1,0,0:0:0:0:
224,160,32857,1,8,0:0:0:0:
120,168,32939,1,8,0:0:0:0:
192,160,33022,1,0,0:0:0:0:
224,168,33186,1,0,0:0:0:0:
224,168,33269,1,8,0:0:0:0:
224,168,33351,1,0,0:0:0:0:
216,136,33516,1,0,0:0:0:0:
264,160,33681,1,8,0:0:0:0:
264,160,33846,1,0,0:0:0:0:
264,160,33928,1,0,0:0:0:0:
264,160,34011,1,8,0:0:0:0:
264,160,34093,1,8,0:0:0:0:
272,144,34175,1,0,0:0:0:0:
272,144,34258,1,0,0:0:0:0:
272,144,34340,1,8,0:0:0:0:
160,128,34505,1,8,0:0:0:0:
160,104,34587,1,0,0:0:0:0:
160,120,34670,1,8,0:0:0:0:
128,160,34835,1,8,0:0:0:0:
128,160,35000,1,0,0:0:0:0:
56,192,35164,1,0,0:0:0:0:
56,192,35247,1,8,0:0:0:0:
72,192,35329,1,8,0:0:0:0:
72,192,35412,1,8,0:0:0:0:
72,192,35494,1,0,0:0:0:0:
192,136,35659,1,0,0:0:0:0:
192,168,35824,1,0,0:0:0:0:
192,168,35906,1,8,0:0:0:0:
192,200,35989,1,0,0:0:0:0:
192,200,36153,1,0,0:0:0:0:
192,200,36318,1,8,0:0:0:0:
144,184,36483,1,8,0:0:0:0:
144,184,36565,1,0,0:0:0:0:
224,144,36648,1,8,0:0:0:0:
224,144,36730,1,8,0:0:0:0:
224,144,36813,1,0,0:0:0:0:
224,144,36895,1,8,0:0:0:0:
112,232,36978,1,0,0:0:0:0:
192,152,37142,1,0,0:0:0:0:
160,120,37225,1,0,0:0:0:0:
184,96,37307,1,8,0:0:0:0:
208,88,37472,1,8,0:0:0:0:
208,88,37555,1,0,0:0:0:0:
208,88,37637,1,8,0:0:0:0:
224,120,37802,1,8,0:0:0:0:
224,120,37884,1,8,0:0:0:0:
224,120,37967,1,0,0:0:0:0:
224,120,38049,1,0,0:0:0:0:
224,120,38131,1,0,0:0:0:0:
224,120,38296,1,8,0:0:0:0:
80,160,38379,1,0,0:0:0:0:
224,120,38461,1,8,0:0:0:0:
256,96,38544,1,8,0:0:0:0:
256,96,38626,1,0,0:0:0:0:
256,96,38708,1,8,0:0:0:0:
256,104,38791,1,0,0:0:0:0:
256,104,38873,1,0,0:0:0:0:
256,104,38956,1,8,0:0:0:0:
256,104,39038,1,8,0:0:0:0:
256,104,39120,1,8,0:0:0:0:
256,104,39203,1,8,0:0:0:0:
256,104,39285,1,0,0:0:0:0:
256,104,39368,1,0,0:0:0:0:
256,104,39450,1,0,0:0:0:0:
224,160,39615,1,12,0:0:0:0:
224,160,39862,1,12,0:0:0:0:
224,160,40109,1,12,0:0:0:0:
328,216,40274,1,4,0:0:0:0:
328,216,40522,1,4,0:0:0:0:
272,160,40769,1,4,0:0:0:0:
272,152,40934,1,12,0:0:0:0:
272,152,41098,1,12,0:0:0:0:
272,152,41263,1,4,0:0:0:0:
272,152,41428,1,12,0:0:0:0:
272,152,41593,1,4,0:0:0:0:
192,128,41758,1,0,0:0:0:0:
192,128,41840,1,8,0:0:0:0:
296,160,41923,1,8,0:0:0:0:
232,136,42005,1,0,0:0:0:0:
280,120,42087,1,0,0:0:0:0:
296,160,42252,1,4,0:0:0:0:
176,144,42417,1,0,0:0:0:0:
176,144,42500,1,0,0:0:0:0:
280,184,42582,1,0,0:0:0:0:
176,144,42747,1,0,0:0:0:0:
200,144,42829,1,0,0:0:0:0:
280,184,42912,1,8,0:0:0:0:
280,184,43076,1,8,0:0:0:0:
280,184,43159,1,0,0:0:0:0:
280,184,43241,1,8,0:0:0:0:
280,184,43406,1,0,0:0:0:0:
280,184,43571,1,12,0:0:0:0:
232,104,43901,1,12,0:0:0:0:
224,112,44230,1,4,0:0:0:0:
224,112,44560,1,12,0:0:0:0:
224,112,44725,1,12,0:0:0:0:
272,176,45055,1,4,0:0:0:0:
272,176,45219,1,4,0:0:0:0:
272,176,45549,1,12,0:0:0:0:
272,176,45714,1,4,0:0:0:0:
272,176,46044,1,12,0:0:0:0:
272,176,46373,1,4,0:0:0:0:
272,176,46538,1,4,0:0:0:0:
272,176,46703,1,12,0:0:0:0:
