osu file format v14

[General]
AudioFilename: audio.mp3
AudioLeadIn: 0
PreviewTime: 28736
Countdown: 0
SampleSet: Normal
StackLeniency: 0.7
Mode: 3
LetterboxInBreaks: 0
SpecialStyle: 0
WidescreenStoryboard: 0

[Editor]
DistanceSpacing: 0.8
BeatDivisor: 4
GridSize: 32
TimelineZoom: 2.2

[Metadata]
Title:Ne! Ko!
TitleUnicode:ネ!コ!
Artist:Takamori Natsumi, Sendai Eri, Asakawa Yuu, Tanezaki Atsumi
ArtistUnicode:高森奈津美・仙台エリ・浅川悠・種﨑敦美
Creator:Tofu1222
Version:Super Neko
Source:ノラと皇女と野良猫ハート
Tags:Nora to Oujo to Noraneko Heart Nora, Princess, and Stray Cat Noratoto ノラとと Opening TV Size はと Hato 森慎太郎 Mori Shintarou ミントフォレスト Mintforest パトリシア・オブ・エンド Patricia of End 黒木未知 Kuroki Michi 夕莉シャチ Yuuri Shachi 明日原ユウキ Ashitabara Yuuki HARUKAZEグッズセットC92 Goods Set
BeatmapID:1401257
BeatmapSetID:661920

[Difficulty]
HPDrainRate:8
CircleSize:4
OverallDifficulty:8
ApproachRate:5
SliderMultiplier:1.4
SliderTickRate:1

[Events]
//Background and Video events
0,0,"bg.jpg",0,0
//Break Periods
//Storyboard Layer 0 (Background)
//Storyboard Layer 1 (Fail)
//Storyboard Layer 2 (Pass)
//Storyboard Layer 3 (Foreground)
//Storyboard Sound Samples

[TimingPoints]
55,329.67032967033,4,1,1,30,1,0
29065,-100,4,1,1,30,0,1
46703,-100,4,1,1,30,0,0

[HitObjects]
64,192,55,5,0,0:0:0:40:Kick.wav
192,192,55,1,0,0:0:0:0:
448,192,55,1,0,0:0:0:0:
320,192,137,1,0,0:0:0:40:Kick.wav
64,192,219,1,0,0:0:0:40:Kick.wav
448,192,219,1,0,0:0:0:0:
192,192,302,1,0,0:0:0:40:Kick.wav
320,192,384,1,0,0:0:0:40:Kick.wav
448,192,384,1,0,0:0:0:0:
64,192,467,1,0,0:0:0:40:Kick.wav
320,192,549,1,0,0:0:0:40:Kick.wav
192,192,549,1,0,0:0:0:0:
448,192,631,1,0,0:0:0:40:Kick.wav
192,192,714,1,0,0:0:0:40:Kick.wav
64,192,714,1,0,0:0:0:0:
320,192,796,1,0,0:0:0:40:Kick.wav
448,192,879,1,0,0:0:0:40:Kick.wav
64,192,879,1,0,0:0:0:0:
192,192,961,1,0,0:0:0:40:Kick.wav
320,192,1044,1,0,0:0:0:40:Kick.wav
448,192,1044,1,0,0:0:0:0:
192,192,1126,1,0,0:0:0:40:Kick.wav
64,192,1208,1,0,0:0:0:40:Kick.wav
448,192,1208,1,0,0:0:0:0:
320,192,1291,1,0,0:0:0:40:Kick.wav
64,192,1538,1,0,0:0:0:40:Bass Kick.wav
192,192,1538,1,0,0:0:0:40:Cymbal.wav
448,192,1538,1,0,0:0:0:0:
64,192,1703,1,0,0:0:0:40:Bass Kick.wav
192,192,1703,1,0,0:0:0:40:Cymbal.wav
448,192,1703,1,0,0:0:0:0:
64,192,2033,1,0,0:0:0:40:Bass Kick.wav
320,192,2033,1,0,0:0:0:40:Cymbal.wav
448,192,2033,1,0,0:0:0:0:
64,192,2197,1,0,0:0:0:40:Bass Kick.wav
320,192,2197,1,0,0:0:0:40:Cymbal.wav
448,192,2197,1,0,0:0:0:0:
64,192,2362,1,0,0:0:0:40:Kick.wav
192,192,2362,1,0,0:0:0:0:
320,192,2445,1,0,0:0:0:40:Kick.wav
448,192,2445,1,0,0:0:0:0:
64,192,2527,1,0,0:0:0:40:Kick.wav
192,192,2527,1,0,0:0:0:0:
320,192,2609,1,0,0:0:0:40:Kick.wav
64,192,2692,1,0,0:0:0:40:Bass Kick.wav
192,192,2692,1,0,0:0:0:0:
448,192,2692,1,0,0:0:0:0:
320,192,2857,1,0,0:0:0:0:
64,192,3022,1,0,0:0:0:40:Snare.wav
192,192,3022,1,0,0:0:0:0:
448,192,3022,1,0,0:0:0:0:
192,192,3186,1,0,0:0:0:0:
64,192,3351,1,0,0:0:0:40:Bass Kick.wav
320,192,3351,1,0,0:0:0:0:
448,192,3516,1,0,0:0:0:0:
64,192,3681,1,0,0:0:0:40:Snare.wav
192,192,3681,1,0,0:0:0:0:
320,192,3681,1,0,0:0:0:0:
64,192,3846,1,0,0:0:0:0:
192,192,4011,1,0,0:0:0:40:Bass Kick.wav
320,192,4011,1,0,0:0:0:0:
448,192,4011,1,0,0:0:0:0:
64,192,4175,1,0,0:0:0:0:
320,192,4340,1,0,0:0:0:40:Snare.wav
192,192,4340,1,0,0:0:0:0:
448,192,4340,1,0,0:0:0:0:
192,192,4505,1,0,0:0:0:0:
64,192,4670,1,0,0:0:0:40:Bass Kick.wav
448,192,4670,1,0,0:0:0:0:
320,192,4835,1,0,0:0:0:0:
64,192,5000,1,0,0:0:0:40:Snare.wav
192,192,5000,1,0,0:0:0:0:
448,192,5000,1,0,0:0:0:0:
448,192,5164,1,0,0:0:0:0:
64,192,5329,1,0,0:0:0:40:Bass Kick.wav
192,192,5329,1,0,0:0:0:0:
320,192,5329,1,0,0:0:0:0:
448,192,5494,1,0,0:0:0:0:
64,192,5659,1,0,0:0:0:40:Snare.wav
320,192,5659,1,0,0:0:0:0:
192,192,5659,1,0,0:0:0:0:
192,192,5824,1,0,0:0:0:0:
64,192,5989,1,0,0:0:0:40:Bass Kick.wav
448,192,5989,1,0,0:0:0:0:
320,192,6153,1,0,0:0:0:0:
64,192,6318,1,0,0:0:0:40:Snare.wav
192,192,6318,1,0,0:0:0:0:
448,192,6318,1,0,0:0:0:0:
64,192,6483,1,0,0:0:0:0:
192,192,6648,1,0,0:0:0:40:Bass Kick.wav
320,192,6648,1,0,0:0:0:0:
448,192,6648,1,0,0:0:0:0:
64,192,6813,1,0,0:0:0:0:
320,192,6978,1,0,0:0:0:40:Snare.wav
192,192,6978,1,0,0:0:0:0:
448,192,6978,1,0,0:0:0:0:
320,192,7142,1,0,0:0:0:0:
64,192,7307,1,0,0:0:0:40:Bass Kick.wav
448,192,7307,1,0,0:0:0:0:
192,192,7472,1,0,0:0:0:0:
64,192,7637,1,0,0:0:0:40:Snare.wav
320,192,7637,1,0,0:0:0:0:
448,192,7637,1,0,0:0:0:0:
448,192,7802,1,0,0:0:0:0:
64,192,7967,1,0,0:0:0:40:Bass Kick.wav
192,192,7967,1,0,0:0:0:40:Cymbal.wav
320,192,7967,128,0,8131:0:0:0:0:
448,192,8131,128,0,8296:0:0:0:0:
64,192,8296,1,0,0:0:0:40:Snare.wav
192,192,8296,1,0,0:0:0:0:
320,192,8296,128,0,8461:0:0:0:0:
64,192,8461,1,0,0:0:0:0:
320,192,8626,1,0,0:0:0:40:Bass Kick.wav
448,192,8626,128,0,8791:0:0:0:0:
192,192,8791,1,0,0:0:0:0:
320,192,8956,1,0,0:0:0:40:Snare.wav
448,192,8956,1,0,0:0:0:0:
64,192,8956,128,0,9120:0:0:0:0:
320,192,9120,128,0,9285:0:0:0:0:
192,192,9285,1,0,0:0:0:40:Bass Kick.wav
64,192,9285,1,0,0:0:0:40:Cymbal.wav
448,192,9285,1,0,0:0:0:0:
320,192,9450,128,0,9615:0:0:0:0:
64,192,9615,1,0,0:0:0:40:Snare.wav
192,192,9615,1,0,0:0:0:0:
448,192,9615,128,0,9780:0:0:0:0:
64,192,9780,1,0,0:0:0:0:
448,192,9945,1,0,0:0:0:40:Bass Kick.wav
320,192,9945,128,0,10109:0:0:0:0:
192,192,10109,1,0,0:0:0:0:
64,192,10274,1,0,0:0:0:40:Kick.wav
320,192,10274,1,0,0:0:0:0:
448,192,10274,1,0,0:0:0:0:
192,192,10357,1,0,0:0:0:40:Kick.wav
320,192,10439,1,0,0:0:0:40:Kick.wav
448,192,10522,1,0,0:0:0:40:Kick.wav
64,192,10604,1,0,0:0:0:40:Snare.wav
192,192,10604,1,0,0:0:0:40:Cymbal.wav
320,192,10604,1,0,0:0:0:0:
192,192,11263,1,0,0:0:0:40:Snare.wav
320,192,11263,1,0,0:0:0:40:Cymbal.wav
448,192,11263,1,0,0:0:0:0:
64,192,11758,1,0,0:0:0:40:Bass Kick.wav
448,192,11758,1,0,0:0:0:40:Cymbal.wav
192,192,11758,128,0,12087:0:0:0:0:
64,192,12087,1,0,0:0:0:40:Kick.wav
448,192,12087,1,0,0:0:0:0:
320,192,12087,1,0,0:0:0:0:
192,192,12252,1,0,0:0:0:40:Kick.wav
320,192,12252,1,0,0:0:0:0:
64,192,12252,1,0,0:0:0:0:
448,192,12417,1,0,0:0:0:40:Kick.wav
192,192,12417,1,0,0:0:0:0:
64,192,12417,1,0,0:0:0:0:
448,192,12582,1,0,0:0:0:40:Kick.wav
192,192,12582,1,0,0:0:0:0:
320,192,12582,1,0,0:0:0:0:
64,192,12747,1,0,0:0:0:40:Kick.wav
192,192,12747,1,0,0:0:0:0:
320,192,12829,1,0,0:0:0:40:Kick.wav
448,192,12829,1,0,0:0:0:0:
64,192,12912,1,0,0:0:0:40:Kick.wav
192,192,12912,1,0,0:0:0:0:
320,192,12994,1,0,0:0:0:40:Kick.wav
448,192,12994,1,0,0:0:0:0:
64,192,13076,1,0,0:0:0:40:Kick.wav
192,192,13076,1,0,0:0:0:0:
320,192,13159,1,0,0:0:0:40:Kick.wav
64,192,13241,1,0,0:0:0:40:Bass Kick.wav
192,192,13241,128,0,13406:0:0:0:0:
448,192,13241,1,0,0:0:0:0:
320,192,13406,1,0,0:0:0:0:
64,192,13571,1,0,0:0:0:40:Snare.wav
192,192,13571,1,0,0:0:0:0:
448,192,13571,1,0,0:0:0:0:
64,192,13736,1,0,0:0:0:0:
320,192,13901,1,0,0:0:0:40:Bass Kick.wav
448,192,13901,1,0,0:0:0:0:
192,192,14065,128,0,14230:0:0:0:0:
64,192,14230,1,0,0:0:0:40:Snare.wav
320,192,14230,1,0,0:0:0:0:
448,192,14230,1,0,0:0:0:0:
448,192,14395,1,0,0:0:0:0:
320,192,14560,128,0,14725:0:0:0:0:
64,192,14560,1,0,0:0:0:40:Bass Kick.wav
192,192,14560,1,0,0:0:0:0:
448,192,14725,1,0,0:0:0:0:
64,192,14890,1,0,0:0:0:40:Snare.wav
192,192,14890,1,0,0:0:0:0:
320,192,14890,1,0,0:0:0:0:
192,192,15055,128,0,15384:0:0:0:0:
448,192,15219,1,0,0:0:0:40:Bass Kick.wav
320,192,15219,1,0,0:0:0:0:
64,192,15384,1,0,0:0:0:0:
448,192,15549,1,0,0:0:0:40:Snare.wav
192,192,15549,1,0,0:0:0:0:
320,192,15549,1,0,0:0:0:0:
320,192,15714,1,0,0:0:0:0:
64,192,15879,1,0,0:0:0:40:Bass Kick.wav
448,192,15879,1,0,0:0:0:0:
192,192,15879,128,0,16044:0:0:0:0:
320,192,16044,1,0,0:0:0:0:
64,192,16208,1,0,0:0:0:40:Snare.wav
192,192,16208,1,0,0:0:0:0:
448,192,16208,1,0,0:0:0:0:
192,192,16373,1,0,0:0:0:0:
64,192,16538,128,0,16703:0:0:0:40:Bass Kick.wav
448,192,16538,1,0,0:0:0:0:
320,192,16703,1,0,0:0:0:0:
64,192,16868,1,0,0:0:0:40:Kick.wav
192,192,16868,1,0,0:0:0:0:
448,192,16868,1,0,0:0:0:0:
320,192,16950,1,0,0:0:0:40:Kick.wav
192,192,17033,1,0,0:0:0:40:Kick.wav
64,192,17115,1,0,0:0:0:40:Kick.wav
192,192,17197,1,0,0:0:0:40:Snare.wav
320,192,17197,1,0,0:0:0:40:Cymbal.wav
448,192,17197,1,0,0:0:0:0:
64,192,17362,1,0,0:0:0:40:Snare.wav
320,192,17362,1,0,0:0:0:40:Cymbal.wav
448,192,17362,1,0,0:0:0:0:
64,192,17527,1,0,0:0:0:40:Snare.wav
192,192,17527,1,0,0:0:0:40:Cymbal.wav
320,192,17527,1,0,0:0:0:0:
64,192,17692,1,0,0:0:0:40:Snare.wav
192,192,17692,1,0,0:0:0:40:Cymbal.wav
448,192,17692,1,0,0:0:0:0:
64,192,18022,128,0,18351:0:0:0:40:Snare.wav
320,192,18022,1,0,0:0:0:40:Cymbal.wav
448,192,18022,1,0,0:0:0:0:
320,192,18351,1,0,0:0:0:40:Kick.wav
448,192,18351,1,0,0:0:0:0:
192,192,18434,1,0,0:0:0:40:Kick.wav
64,192,18516,1,0,0:0:0:40:Bass Kick.wav
320,192,18516,128,0,18681:0:0:0:0:
448,192,18516,1,0,0:0:0:0:
192,192,18681,1,0,0:0:0:0:
64,192,18846,1,0,0:0:0:40:Snare.wav
320,192,18846,1,0,0:0:0:0:
448,192,18846,1,0,0:0:0:0:
448,192,19011,1,0,0:0:0:0:
320,192,19175,1,0,0:0:0:40:Bass Kick.wav
192,192,19175,1,0,0:0:0:0:
64,192,19340,128,0,19505:0:0:0:0:
192,192,19505,1,0,0:0:0:40:Snare.wav
320,192,19505,1,0,0:0:0:0:
448,192,19505,1,0,0:0:0:0:
320,192,19670,1,0,0:0:0:0:
192,192,19835,128,0,20000:0:0:0:40:Bass Kick.wav
64,192,19835,1,0,0:0:0:0:
448,192,19835,1,0,0:0:0:0:
320,192,20000,1,0,0:0:0:0:
64,192,20164,1,0,0:0:0:40:Snare.wav
192,192,20164,1,0,0:0:0:0:
448,192,20164,1,0,0:0:0:0:
64,192,20329,1,0,0:0:0:40:Bass Kick.wav
448,192,20329,1,0,0:0:0:0:
320,192,20329,128,0,20659:0:0:0:0:
64,192,20659,1,0,0:0:0:40:Kick.wav
448,192,20659,1,0,0:0:0:0:
192,192,20741,1,0,0:0:0:40:Kick.wav
320,192,20824,1,0,0:0:0:40:Kick.wav
448,192,20824,1,0,0:0:0:0:
64,192,20906,1,0,0:0:0:40:Kick.wav
192,192,20989,1,0,0:0:0:40:Kick.wav
320,192,20989,1,0,0:0:0:0:
448,192,21071,1,0,0:0:0:40:Kick.wav
64,192,21153,1,0,0:0:0:40:Snare.wav
192,192,21153,1,0,0:0:0:40:Cymbal.wav
320,192,21153,1,0,0:0:0:0:
64,192,21318,1,0,0:0:0:40:Bass Kick.wav
448,192,21318,1,0,0:0:0:0:
192,192,21483,1,0,0:0:0:40:Bass Kick.wav
320,192,21483,1,0,0:0:0:0:
64,192,21648,1,0,0:0:0:40:Snare.wav
192,192,21648,1,0,0:0:0:0:
448,192,21648,1,0,0:0:0:0:
64,192,21813,1,0,0:0:0:40:Bass Kick.wav
320,192,21813,1,0,0:0:0:0:
192,192,21978,1,0,0:0:0:40:Bass Kick.wav
448,192,21978,1,0,0:0:0:0:
64,192,22142,1,0,0:0:0:40:Snare.wav
320,192,22142,1,0,0:0:0:40:Cymbal.wav
448,192,22142,1,0,0:0:0:0:
64,192,22307,1,0,0:0:0:40:Bass Kick.wav
192,192,22307,1,0,0:0:0:0:
320,192,22472,1,0,0:0:0:40:Bass Kick.wav
448,192,22472,1,0,0:0:0:0:
64,192,22637,1,0,0:0:0:40:Snare.wav
192,192,22637,1,0,0:0:0:0:
448,192,22637,1,0,0:0:0:0:
64,192,22802,1,0,0:0:0:40:Bass Kick.wav
320,192,22802,1,0,0:0:0:0:
192,192,22967,1,0,0:0:0:40:Bass Kick.wav
448,192,22967,1,0,0:0:0:0:
64,192,23131,1,0,0:0:0:40:Snare.wav
320,192,23131,1,0,0:0:0:40:Cymbal.wav
448,192,23131,1,0,0:0:0:0:
192,192,23296,1,0,0:0:0:40:Bass Kick.wav
320,192,23296,1,0,0:0:0:0:
64,192,23461,1,0,0:0:0:40:Snare.wav
192,192,23461,1,0,0:0:0:0:
448,192,23461,1,0,0:0:0:0:
320,192,23626,1,0,0:0:0:40:Bass Kick.wav
448,192,23626,1,0,0:0:0:0:
64,192,23791,1,0,0:0:0:40:Snare.wav
192,192,23791,1,0,0:0:0:0:
448,192,23956,1,0,0:0:0:40:Kick.wav
320,192,23956,1,0,0:0:0:0:
192,192,24038,1,0,0:0:0:40:Kick.wav
64,192,24038,1,0,0:0:0:0:
448,192,24120,1,0,0:0:0:40:Kick.wav
320,192,24120,1,0,0:0:0:0:
192,192,24203,1,0,0:0:0:40:Kick.wav
64,192,24203,1,0,0:0:0:0:
448,192,24285,1,0,0:0:0:40:Kick.wav
320,192,24285,1,0,0:0:0:0:
192,192,24368,1,0,0:0:0:40:Kick.wav
64,192,24368,1,0,0:0:0:0:
448,192,24450,1,0,0:0:0:40:Kick.wav
320,192,24450,1,0,0:0:0:0:
192,192,24533,1,0,0:0:0:40:Kick.wav
64,192,24533,1,0,0:0:0:0:
448,192,24615,1,0,0:0:0:40:Kick.wav
320,192,24615,1,0,0:0:0:0:
192,192,24697,1,0,0:0:0:40:Kick.wav
64,192,24697,1,0,0:0:0:0:
448,192,24780,1,0,0:0:0:40:Kick.wav
320,192,24780,1,0,0:0:0:0:
192,192,24862,1,0,0:0:0:40:Kick.wav
320,192,24945,128,0,25274:0:0:0:40:Bass Kick.wav
64,192,24945,1,0,0:0:0:0:
448,192,24945,1,0,0:0:0:0:
64,192,25274,1,0,0:0:0:40:Kick.wav
448,192,25274,1,0,0:0:0:0:
192,192,25357,1,0,0:0:0:0:
320,192,25357,1,0,0:0:0:40:Kick.wav
64,192,25439,1,0,0:0:0:40:Kick.wav
448,192,25439,1,0,0:0:0:0:
192,192,25522,1,0,0:0:0:40:Kick.wav
448,192,25604,1,0,0:0:0:40:Kick.wav
320,192,25604,1,0,0:0:0:0:
64,192,25686,1,0,0:0:0:40:Kick.wav
192,192,25686,1,0,0:0:0:0:
320,192,25769,1,0,0:0:0:40:Kick.wav
448,192,25769,1,0,0:0:0:0:
192,192,25851,1,0,0:0:0:40:Kick.wav
64,192,25934,1,0,0:0:0:40:Kick.wav
320,192,26016,1,0,0:0:0:40:Kick.wav
64,192,26098,1,0,0:0:0:40:Kick.wav
192,192,26098,1,0,0:0:0:0:
320,192,26181,1,0,0:0:0:40:Kick.wav
448,192,26181,1,0,0:0:0:0:
64,192,26263,1,0,0:0:0:40:Kick.wav
192,192,26263,1,0,0:0:0:0:
320,192,26346,1,0,0:0:0:40:Kick.wav
64,192,26428,1,0,0:0:0:40:Bass Kick.wav
192,192,26428,1,0,0:0:0:40:Cymbal.wav
448,192,26428,1,0,0:0:0:0:
320,192,26511,1,0,0:0:0:40:Kick.wav
64,192,26593,1,0,0:0:0:40:Kick.wav
448,192,26593,1,0,0:0:0:0:
192,192,26675,1,0,0:0:0:40:Kick.wav
320,192,26758,1,0,0:0:0:40:Bass Kick.wav
448,192,26758,1,0,0:0:0:0:
192,192,26840,1,0,0:0:0:40:Kick.wav
64,192,26923,1,0,0:0:0:40:Kick.wav
448,192,26923,1,0,0:0:0:0:
320,192,27005,1,0,0:0:0:40:Kick.wav
64,192,27087,1,0,0:0:0:40:Bass Kick.wav
192,192,27087,1,0,0:0:0:0:
320,192,27170,1,0,0:0:0:40:Kick.wav
64,192,27252,1,0,0:0:0:40:Kick.wav
448,192,27252,1,0,0:0:0:0:
192,192,27335,1,0,0:0:0:40:Kick.wav
320,192,27417,1,0,0:0:0:40:Bass Kick.wav
448,192,27417,1,0,0:0:0:0:
64,192,27500,1,0,0:0:0:40:Kick.wav
192,192,27582,1,0,0:0:0:40:Kick.wav
320,192,27582,1,0,0:0:0:0:
448,192,27664,1,0,0:0:0:40:Kick.wav
64,192,27747,1,0,0:0:0:40:Bass Kick.wav
192,192,27747,1,0,0:0:0:40:Cymbal.wav
320,192,27829,1,0,0:0:0:0:
64,192,27912,1,0,0:0:0:40:Bass Kick.wav
448,192,27912,1,0,0:0:0:0:
192,192,27994,1,0,0:0:0:40:Bass Kick.wav
320,192,27994,1,0,0:0:0:0:
64,192,28076,1,0,0:0:0:40:Bass Kick.wav
448,192,28076,1,0,0:0:0:40:Cymbal.wav
192,192,28159,1,0,0:0:0:0:
448,192,28241,1,0,0:0:0:40:Bass Kick.wav
320,192,28241,1,0,0:0:0:0:
64,192,28324,1,0,0:0:0:40:Bass Kick.wav
192,192,28324,1,0,0:0:0:0:
448,192,28406,1,0,0:0:0:40:Bass Kick.wav
320,192,28406,1,0,0:0:0:40:Cymbal.wav
192,192,28489,1,0,0:0:0:0:
64,192,28571,1,0,0:0:0:40:Bass Kick.wav
448,192,28571,1,0,0:0:0:0:
320,192,28653,1,0,0:0:0:40:Bass Kick.wav
64,192,28736,1,0,0:0:0:40:Cymbal.wav
448,192,28736,1,0,0:0:0:0:
192,192,28736,128,0,29065:0:0:0:40:Snare.wav
64,192,29065,1,0,0:0:0:40:Bass Kick.wav
320,192,29065,1,0,0:0:0:0:
448,192,29065,1,0,0:0:0:40:Cymbal.wav
192,192,29230,1,0,0:0:0:0:
64,192,29395,1,0,0:0:0:40:Snare.wav
320,192,29395,1,0,0:0:0:0:
448,192,29395,1,0,0:0:0:0:
448,192,29560,1,0,0:0:0:0:
64,192,29725,1,0,0:0:0:40:Bass Kick.wav
192,192,29725,1,0,0:0:0:0:
320,192,29890,1,0,0:0:0:0:
64,192,30055,1,0,0:0:0:40:Snare.wav
192,192,30055,1,0,0:0:0:0:
448,192,30055,1,0,0:0:0:0:
64,192,30219,1,0,0:0:0:0:
192,192,30384,1,0,0:0:0:40:Bass Kick.wav
448,192,30384,1,0,0:0:0:0:
320,192,30384,1,0,0:0:0:0:
64,192,30549,1,0,0:0:0:0:
448,192,30714,1,0,0:0:0:40:Snare.wav
320,192,30714,1,0,0:0:0:0:
192,192,30714,1,0,0:0:0:0:
192,192,30879,1,0,0:0:0:0:
448,192,31044,1,0,0:0:0:40:Bass Kick.wav
320,192,31044,1,0,0:0:0:0:
192,192,31208,1,0,0:0:0:40:Snare.wav
448,192,31208,1,0,0:0:0:0:
64,192,31208,1,0,0:0:0:0:
64,192,31373,1,0,0:0:0:40:Snare.wav
320,192,31373,1,0,0:0:0:0:
448,192,31373,1,0,0:0:0:0:
320,192,31538,1,0,0:0:0:0:
64,192,31703,1,0,0:0:0:40:Bass Kick.wav
448,192,31703,1,0,0:0:0:0:
192,192,31703,1,0,0:0:0:0:
320,192,31868,1,0,0:0:0:0:
64,192,32033,1,0,0:0:0:40:Snare.wav
192,192,32033,1,0,0:0:0:0:
448,192,32033,1,0,0:0:0:0:
64,192,32197,1,0,0:0:0:0:
192,192,32362,1,0,0:0:0:40:Bass Kick.wav
320,192,32362,1,0,0:0:0:0:
448,192,32527,1,0,0:0:0:0:
320,192,32692,1,0,0:0:0:40:Snare.wav
64,192,32692,1,0,0:0:0:0:
192,192,32692,1,0,0:0:0:0:
192,192,32857,1,0,0:0:0:0:
64,192,33022,128,0,33186:0:0:0:40:Bass Kick.wav
320,192,33022,1,0,0:0:0:0:
448,192,33022,128,0,33351:0:0:0:0:
192,192,33186,128,0,33351:0:0:0:0:
320,192,33351,128,0,33516:0:0:0:0:
64,192,33351,128,0,33681:0:0:0:40:Snare.wav
448,192,33516,128,0,33681:0:0:0:0:
192,192,33681,128,0,33846:0:0:0:40:Bass Kick.wav
320,192,33681,128,0,34011:0:0:0:0:
64,192,33846,128,0,34011:0:0:0:0:
192,192,34011,128,0,34340:0:0:0:0:
448,192,34011,128,0,34175:0:0:0:40:Snare.wav
320,192,34175,128,0,34340:0:0:0:0:
64,192,34340,1,0,0:0:0:40:Bass Kick.wav
448,192,34340,1,0,0:0:0:0:
320,192,34505,1,0,0:0:0:0:
64,192,34670,1,0,0:0:0:40:Snare.wav
192,192,34670,1,0,0:0:0:0:
448,192,34670,1,0,0:0:0:0:
192,192,34835,1,0,0:0:0:0:
320,192,35000,1,0,0:0:0:40:Bass Kick.wav
448,192,35000,1,0,0:0:0:0:
192,192,35164,1,0,0:0:0:40:Snare.wav
64,192,35164,1,0,0:0:0:0:
448,192,35164,1,0,0:0:0:0:
64,192,35329,1,0,0:0:0:40:Snare.wav
320,192,35329,1,0,0:0:0:0:
448,192,35329,1,0,0:0:0:0:
320,192,35494,1,0,0:0:0:0:
64,192,35659,1,0,0:0:0:40:Bass Kick.wav
192,192,35659,1,0,0:0:0:0:
448,192,35659,1,0,0:0:0:0:
192,192,35824,1,0,0:0:0:0:
64,192,35989,1,0,0:0:0:40:Snare.wav
320,192,35989,1,0,0:0:0:0:
448,192,35989,1,0,0:0:0:0:
320,192,36153,1,0,0:0:0:0:
64,192,36318,1,0,0:0:0:40:Bass Kick.wav
192,192,36318,1,0,0:0:0:0:
64,192,36483,1,0,0:0:0:40:Snare.wav
320,192,36483,1,0,0:0:0:0:
448,192,36483,1,0,0:0:0:0:
64,192,36648,1,0,0:0:0:40:Snare.wav
192,192,36648,1,0,0:0:0:0:
448,192,36648,1,0,0:0:0:0:
320,192,36813,1,0,0:0:0:0:
64,192,36978,1,0,0:0:0:40:Bass Kick.wav
192,192,36978,1,0,0:0:0:0:
448,192,36978,1,0,0:0:0:0:
448,192,37142,1,0,0:0:0:40:Bass Kick.wav
320,192,37142,1,0,0:0:0:0:
192,192,37225,1,0,0:0:0:40:Bass Kick.wav
64,192,37225,1,0,0:0:0:0:
448,192,37307,1,0,0:0:0:40:Bass Kick.wav
320,192,37307,1,0,0:0:0:40:Cymbal.wav
64,192,37472,1,0,0:0:0:40:Bass Kick.wav
448,192,37472,1,0,0:0:0:0:
320,192,37555,1,0,0:0:0:40:Bass Kick.wav
192,192,37555,1,0,0:0:0:0:
64,192,37637,1,0,0:0:0:40:Bass Kick.wav
448,192,37637,1,0,0:0:0:40:Cymbal.wav
64,192,37802,1,0,0:0:0:40:Bass Kick.wav
192,192,37802,1,0,0:0:0:0:
320,192,37884,1,0,0:0:0:40:Bass Kick.wav
448,192,37884,1,0,0:0:0:0:
64,192,37967,1,0,0:0:0:40:Bass Kick.wav
192,192,37967,1,0,0:0:0:40:Cymbal.wav
320,192,38131,1,0,0:0:0:40:Bass Kick.wav
448,192,38131,1,0,0:0:0:0:
192,192,38214,1,0,0:0:0:40:Bass Kick.wav
64,192,38296,1,0,0:0:0:40:Bass Kick.wav
320,192,38296,1,0,0:0:0:40:Cymbal.wav
448,192,38296,1,0,0:0:0:0:
64,192,38461,1,0,0:0:0:40:Bass Kick.wav
192,192,38461,1,0,0:0:0:0:
320,192,38544,1,0,0:0:0:40:Bass Kick.wav
64,192,38626,1,0,0:0:0:40:Bass Kick.wav
192,192,38626,1,0,0:0:0:40:Cymbal.wav
448,192,38626,1,0,0:0:0:0:
320,192,38791,1,0,0:0:0:40:Bass Kick.wav
448,192,38791,1,0,0:0:0:0:
192,192,38873,1,0,0:0:0:40:Bass Kick.wav
64,192,38956,1,0,0:0:0:40:Bass Kick.wav
320,192,38956,1,0,0:0:0:40:Cymbal.wav
448,192,38956,1,0,0:0:0:0:
192,192,39120,1,0,0:0:0:40:Kick.wav
320,192,39203,1,0,0:0:0:40:Kick.wav
64,192,39285,1,0,0:0:0:40:Kick.wav
448,192,39285,1,0,0:0:0:0:
320,192,39368,1,0,0:0:0:40:Kick.wav
192,192,39450,1,0,0:0:0:40:Kick.wav
64,192,39533,1,0,0:0:0:40:Kick.wav
192,192,39615,1,0,0:0:0:40:Kick.wav
320,192,39615,1,0,0:0:0:40:Cymbal.wav
448,192,39615,1,0,0:0:0:0:
192,192,39862,1,0,0:0:0:40:Kick.wav
320,192,39862,1,0,0:0:0:40:Cymbal.wav
448,192,39862,1,0,0:0:0:0:
192,192,40109,1,0,0:0:0:40:Kick.wav
320,192,40109,1,0,0:0:0:40:Cymbal.wav
448,192,40109,1,0,0:0:0:0:
64,192,40274,1,0,0:0:0:40:Kick.wav
192,192,40274,1,0,0:0:0:40:Cymbal.wav
320,192,40274,1,0,0:0:0:0:
64,192,40522,1,0,0:0:0:40:Kick.wav
192,192,40522,1,0,0:0:0:40:Cymbal.wav
320,192,40522,1,0,0:0:0:0:
64,192,40769,1,0,0:0:0:40:Kick.wav
192,192,40769,1,0,0:0:0:40:Cymbal.wav
320,192,40769,1,0,0:0:0:0:
64,192,40934,128,0,41428:0:0:0:40:Kick.wav
320,192,40934,1,0,0:0:0:40:Cymbal.wav
448,192,40934,1,0,0:0:0:0:
320,192,41428,1,0,0:0:0:40:Kick.wav
448,192,41428,1,0,0:0:0:0:
64,192,41511,1,0,0:0:0:40:Kick.wav
192,192,41511,1,0,0:0:0:0:
320,192,41593,1,0,0:0:0:40:Kick.wav
448,192,41593,1,0,0:0:0:0:
64,192,41758,1,0,0:0:0:0:
320,192,41923,1,0,0:0:0:40:Kick.wav
192,192,42087,1,0,0:0:0:40:Kick.wav
64,192,42252,1,0,0:0:0:40:Snare.wav
320,192,42252,1,0,0:0:0:40:Cymbal.wav
448,192,42252,1,0,0:0:0:0:
64,192,42417,1,0,0:0:0:40:Bass Kick.wav
192,192,42417,1,0,0:0:0:0:
320,192,42500,1,0,0:0:0:40:Bass Kick.wav
64,192,42582,1,0,0:0:0:40:Snare.wav
192,192,42582,1,0,0:0:0:40:Cymbal.wav
448,192,42582,1,0,0:0:0:0:
320,192,42747,1,0,0:0:0:40:Bass Kick.wav
448,192,42747,1,0,0:0:0:0:
192,192,42829,1,0,0:0:0:40:Bass Kick.wav
64,192,42912,1,0,0:0:0:40:Snare.wav
320,192,42912,1,0,0:0:0:40:Cymbal.wav
448,192,42912,1,0,0:0:0:0:
64,192,43076,1,0,0:0:0:40:Bass Kick.wav
192,192,43076,1,0,0:0:0:0:
320,192,43159,1,0,0:0:0:40:Bass Kick.wav
64,192,43241,1,0,0:0:0:40:Snare.wav
192,192,43241,1,0,0:0:0:40:Cymbal.wav
448,192,43241,1,0,0:0:0:0:
320,192,43406,1,0,0:0:0:40:Bass Kick.wav
448,192,43406,1,0,0:0:0:0:
192,192,43489,1,0,0:0:0:40:Bass Kick.wav
64,192,43571,1,0,0:0:0:40:Bass Kick.wav
320,192,43571,1,0,0:0:0:40:Cymbal.wav
448,192,43571,1,0,0:0:0:0:
320,192,43901,1,0,0:0:0:40:Bass Kick.wav
192,192,43901,1,0,0:0:0:40:Cymbal.wav
448,192,43901,1,0,0:0:0:0:
64,192,44230,1,0,0:0:0:40:Bass Kick.wav
192,192,44230,1,0,0:0:0:40:Cymbal.wav
320,192,44230,1,0,0:0:0:0:
64,192,44560,1,0,0:0:0:40:Snare.wav
192,192,44560,1,0,0:0:0:40:Cymbal.wav
448,192,44560,1,0,0:0:0:0:
64,192,44725,1,0,0:0:0:40:Snare.wav
192,192,44725,1,0,0:0:0:40:Cymbal.wav
448,192,44725,1,0,0:0:0:0:
64,192,45055,1,0,0:0:0:40:Snare.wav
320,192,45055,1,0,0:0:0:40:Cymbal.wav
448,192,45055,1,0,0:0:0:0:
64,192,45219,1,0,0:0:0:40:Snare.wav
320,192,45219,1,0,0:0:0:40:Cymbal.wav
448,192,45219,1,0,0:0:0:0:
64,192,45384,1,0,0:0:0:40:Bass Kick.wav
192,192,45384,1,0,0:0:0:0:
320,192,45467,1,0,0:0:0:40:Bass Kick.wav
64,192,45549,1,0,0:0:0:40:Snare.wav
192,192,45549,1,0,0:0:0:40:Cymbal.wav
448,192,45549,1,0,0:0:0:0:
64,192,45714,1,0,0:0:0:40:Snare.wav
192,192,45714,1,0,0:0:0:40:Cymbal.wav
448,192,45714,1,0,0:0:0:0:
192,192,46044,1,0,0:0:0:40:Snare.wav
320,192,46044,1,0,0:0:0:40:Cymbal.wav
448,192,46044,1,0,0:0:0:0:
64,192,46373,1,0,0:0:0:40:Bass Kick.wav
192,192,46373,1,0,0:0:0:40:Cymbal.wav
448,192,46373,1,0,0:0:0:0:
192,192,46538,1,0,0:0:0:40:Bass Kick.wav
320,192,46538,1,0,0:0:0:40:Cymbal.wav
448,192,46538,1,0,0:0:0:0:
64,192,46703,1,0,0:0:0:40:Bass Kick.wav
320,192,46703,1,0,0:0:0:40:Cymbal.wav
448,192,46703,1,0,0:0:0:0:
