osu file format v14

[General]
AudioFilename: audio.mp3
AudioLeadIn: 0
PreviewTime: 28736
Countdown: 0
SampleSet: Normal
StackLeniency: 0.7
Mode: 3
LetterboxInBreaks: 0
SpecialStyle: 0
WidescreenStoryboard: 0

[Editor]
DistanceSpacing: 0.8
BeatDivisor: 4
GridSize: 32
TimelineZoom: 1.8

[Metadata]
Title:Ne! Ko!
TitleUnicode:ネ!コ!
Artist:Takamori Natsumi, Sendai Eri, Asakawa Yuu, Tanezaki Atsumi
ArtistUnicode:高森奈津美・仙台エリ・浅川悠・種﨑敦美
Creator:Tofu1222
Version:Beginner Neko
Source:ノラと皇女と野良猫ハート
Tags:Nora to Oujo to Noraneko Heart Nora, Princess, and Stray Cat Noratoto ノラとと Opening TV Size はと Hato 森慎太郎 Mori Shintarou ミントフォレスト Mintforest パトリシア・オブ・エンド Patricia of End 黒木未知 Kuroki Michi 夕莉シャチ Yuuri Shachi 明日原ユウキ Ashitabara Yuuki HARUKAZEグッズセットC92 Goods Set
BeatmapID:1401258
BeatmapSetID:661920

[Difficulty]
HPDrainRate:7
CircleSize:4
OverallDifficulty:7
ApproachRate:5
SliderMultiplier:1.4
SliderTickRate:1

[Events]
//Background and Video events
0,0,"bg.jpg",0,0
//Break Periods
//Storyboard Layer 0 (Background)
//Storyboard Layer 1 (Fail)
//Storyboard Layer 2 (Pass)
//Storyboard Layer 3 (Foreground)
//Storyboard Sound Samples
Sample,2445,0,"Kick.wav",40
Sample,2609,0,"Kick.wav",40
Sample,39862,0,"Cymbal.wav",40
Sample,40109,0,"Cymbal.wav",40
Sample,40522,0,"Cymbal.wav",40
Sample,40769,0,"Cymbal.wav",40
Sample,42582,0,"Cymbal.wav",40
Sample,42912,0,"Cymbal.wav",40
Sample,43241,0,"Cymbal.wav",40

[TimingPoints]
55,329.67032967033,4,1,1,30,1,0
29065,-100,4,1,1,30,0,1
46703,-100,4,1,1,30,0,0

[HitObjects]
64,192,55,5,0,0:0:0:40:Kick.wav
448,192,55,1,0,0:0:0:0:
192,192,219,1,0,0:0:0:40:Kick.wav
320,192,384,1,0,0:0:0:40:Kick.wav
448,192,549,1,0,0:0:0:40:Kick.wav
64,192,714,1,0,0:0:0:40:Kick.wav
320,192,879,1,0,0:0:0:40:Kick.wav
192,192,1044,1,0,0:0:0:40:Kick.wav
448,192,1208,1,0,0:0:0:40:Kick.wav
64,192,1538,1,0,0:0:0:40:Bass Kick.wav
192,192,1538,1,0,0:0:0:40:Cymbal.wav
320,192,1703,1,0,0:0:0:40:Bass Kick.wav
448,192,1703,1,0,0:0:0:40:Cymbal.wav
64,192,2033,1,0,0:0:0:40:Bass Kick.wav
192,192,2033,1,0,0:0:0:40:Cymbal.wav
320,192,2197,1,0,0:0:0:40:Bass Kick.wav
448,192,2197,1,0,0:0:0:40:Cymbal.wav
64,192,2362,1,0,0:0:0:40:Kick.wav
192,192,2527,1,0,0:0:0:40:Kick.wav
320,192,2692,1,0,0:0:0:40:Bass Kick.wav
64,192,3022,1,0,0:0:0:40:Snare.wav
448,192,3022,1,0,0:0:0:0:
192,192,3351,1,0,0:0:0:40:Bass Kick.wav
320,192,3681,1,0,0:0:0:40:Snare.wav
448,192,3681,1,0,0:0:0:0:
64,192,4011,1,0,0:0:0:40:Bass Kick.wav
448,192,4340,1,0,0:0:0:40:Snare.wav
192,192,4340,1,0,0:0:0:0:
320,192,4670,1,0,0:0:0:40:Bass Kick.wav
64,192,5000,1,0,0:0:0:40:Snare.wav
192,192,5000,1,0,0:0:0:0:
448,192,5329,1,0,0:0:0:40:Bass Kick.wav
320,192,5659,1,0,0:0:0:40:Snare.wav
64,192,5659,1,0,0:0:0:0:
192,192,5989,1,0,0:0:0:40:Bass Kick.wav
448,192,6318,1,0,0:0:0:40:Snare.wav
320,192,6318,1,0,0:0:0:0:
64,192,6648,1,0,0:0:0:40:Bass Kick.wav
320,192,6978,1,0,0:0:0:40:Snare.wav
192,192,6978,1,0,0:0:0:0:
448,192,7307,1,0,0:0:0:40:Bass Kick.wav
64,192,7637,1,0,0:0:0:40:Snare.wav
192,192,7637,1,0,0:0:0:0:
448,192,7967,1,0,0:0:0:40:Bass Kick.wav
320,192,7967,1,0,0:0:0:40:Cymbal.wav
192,192,8296,1,0,0:0:0:40:Snare.wav
64,192,8296,1,0,0:0:0:0:
320,192,8626,1,0,0:0:0:40:Bass Kick.wav
64,192,8956,1,0,0:0:0:40:Snare.wav
448,192,8956,1,0,0:0:0:0:
192,192,9285,1,0,0:0:0:40:Bass Kick.wav
320,192,9285,1,0,0:0:0:40:Cymbal.wav
448,192,9615,1,0,0:0:0:40:Snare.wav
64,192,9615,1,0,0:0:0:0:
192,192,9945,1,0,0:0:0:40:Bass Kick.wav
320,192,10274,1,0,0:0:0:40:Kick.wav
192,192,10439,1,0,0:0:0:40:Kick.wav
64,192,10604,1,0,0:0:0:40:Snare.wav
448,192,10604,1,0,0:0:0:40:Cymbal.wav
320,192,11263,1,0,0:0:0:40:Snare.wav
192,192,11263,1,0,0:0:0:40:Cymbal.wav
64,192,11758,1,0,0:0:0:40:Bass Kick.wav
448,192,11758,1,0,0:0:0:40:Cymbal.wav
192,192,12087,1,0,0:0:0:40:Kick.wav
320,192,12252,1,0,0:0:0:40:Kick.wav
64,192,12417,1,0,0:0:0:40:Kick.wav
448,192,12582,1,0,0:0:0:40:Kick.wav
64,192,12747,1,0,0:0:0:40:Kick.wav
192,192,12912,1,0,0:0:0:40:Kick.wav
320,192,13076,1,0,0:0:0:40:Kick.wav
448,192,13241,1,0,0:0:0:40:Bass Kick.wav
320,192,13571,1,0,0:0:0:40:Snare.wav
64,192,13571,1,0,0:0:0:0:
192,192,13901,1,0,0:0:0:40:Bass Kick.wav
448,192,14230,1,0,0:0:0:40:Snare.wav
320,192,14230,1,0,0:0:0:0:
64,192,14560,1,0,0:0:0:40:Bass Kick.wav
192,192,14890,1,0,0:0:0:40:Snare.wav
448,192,14890,1,0,0:0:0:0:
320,192,15219,1,0,0:0:0:40:Bass Kick.wav
64,192,15549,1,0,0:0:0:40:Snare.wav
192,192,15549,1,0,0:0:0:0:
448,192,15879,1,0,0:0:0:40:Bass Kick.wav
320,192,16208,1,0,0:0:0:40:Snare.wav
192,192,16208,1,0,0:0:0:0:
64,192,16538,1,0,0:0:0:40:Bass Kick.wav
448,192,16868,1,0,0:0:0:40:Kick.wav
320,192,17033,1,0,0:0:0:40:Kick.wav
64,192,17197,1,0,0:0:0:40:Snare.wav
192,192,17197,1,0,0:0:0:40:Cymbal.wav
448,192,17362,1,0,0:0:0:40:Snare.wav
320,192,17362,1,0,0:0:0:40:Cymbal.wav
192,192,17527,1,0,0:0:0:40:Snare.wav
64,192,17527,1,0,0:0:0:40:Cymbal.wav
320,192,17692,1,0,0:0:0:40:Snare.wav
448,192,17692,1,0,0:0:0:40:Cymbal.wav
320,192,18022,128,0,18516:0:0:0:40:Snare.wav
192,192,18022,1,0,0:0:0:40:Cymbal.wav
64,192,18516,1,0,0:0:0:40:Bass Kick.wav
320,192,18846,1,0,0:0:0:40:Snare.wav
192,192,18846,1,0,0:0:0:0:
448,192,19175,1,0,0:0:0:40:Bass Kick.wav
64,192,19505,1,0,0:0:0:40:Snare.wav
192,192,19505,1,0,0:0:0:0:
320,192,19835,1,0,0:0:0:40:Bass Kick.wav
64,192,20164,1,0,0:0:0:40:Snare.wav
192,192,20164,1,0,0:0:0:0:
320,192,20329,1,0,0:0:0:40:Bass Kick.wav
448,192,20329,1,0,0:0:0:0:
192,192,20659,128,0,21153:0:0:0:40:Kick.wav
64,192,21153,1,0,0:0:0:40:Snare.wav
448,192,21153,1,0,0:0:0:40:Cymbal.wav
320,192,21318,1,0,0:0:0:40:Bass Kick.wav
192,192,21483,1,0,0:0:0:40:Bass Kick.wav
64,192,21648,1,0,0:0:0:40:Snare.wav
448,192,21648,1,0,0:0:0:0:
320,192,21813,1,0,0:0:0:40:Bass Kick.wav
192,192,21978,1,0,0:0:0:40:Bass Kick.wav
64,192,22142,1,0,0:0:0:40:Snare.wav
448,192,22142,1,0,0:0:0:40:Cymbal.wav
192,192,22307,1,0,0:0:0:40:Bass Kick.wav
320,192,22472,1,0,0:0:0:40:Bass Kick.wav
64,192,22637,1,0,0:0:0:40:Snare.wav
448,192,22637,1,0,0:0:0:0:
192,192,22802,1,0,0:0:0:40:Bass Kick.wav
320,192,22967,1,0,0:0:0:40:Bass Kick.wav
64,192,23131,1,0,0:0:0:40:Snare.wav
192,192,23131,1,0,0:0:0:40:Cymbal.wav
448,192,23461,1,0,0:0:0:40:Snare.wav
320,192,23461,1,0,0:0:0:0:
64,192,23791,1,0,0:0:0:40:Snare.wav
192,192,23791,1,0,0:0:0:0:
448,192,23956,1,0,0:0:0:40:Kick.wav
64,192,24120,1,0,0:0:0:40:Kick.wav
320,192,24285,1,0,0:0:0:40:Kick.wav
192,192,24450,1,0,0:0:0:40:Kick.wav
448,192,24615,1,0,0:0:0:40:Kick.wav
64,192,24780,1,0,0:0:0:40:Bass Kick.wav
192,192,24945,1,0,0:0:0:40:Bass Kick.wav
320,192,24945,1,0,0:0:0:0:
448,192,25274,1,0,0:0:0:40:Kick.wav
192,192,25439,1,0,0:0:0:40:Kick.wav
320,192,25604,1,0,0:0:0:40:Kick.wav
64,192,25769,1,0,0:0:0:40:Kick.wav
448,192,25934,1,0,0:0:0:40:Kick.wav
192,192,26098,1,0,0:0:0:40:Kick.wav
320,192,26263,1,0,0:0:0:40:Kick.wav
64,192,26428,1,0,0:0:0:40:Bass Kick.wav
448,192,26428,1,0,0:0:0:40:Cymbal.wav
192,192,26593,1,0,0:0:0:40:Kick.wav
320,192,26758,1,0,0:0:0:40:Bass Kick.wav
64,192,26923,1,0,0:0:0:40:Kick.wav
448,192,27087,1,0,0:0:0:40:Bass Kick.wav
320,192,27252,1,0,0:0:0:40:Kick.wav
192,192,27417,1,0,0:0:0:40:Bass Kick.wav
320,192,27582,1,0,0:0:0:40:Kick.wav
64,192,27747,1,0,0:0:0:40:Bass Kick.wav
448,192,27747,1,0,0:0:0:40:Cymbal.wav
192,192,27912,1,0,0:0:0:40:Bass Kick.wav
448,192,28076,1,0,0:0:0:40:Bass Kick.wav
320,192,28076,1,0,0:0:0:40:Cymbal.wav
64,192,28241,1,0,0:0:0:40:Bass Kick.wav
320,192,28406,1,0,0:0:0:40:Bass Kick.wav
192,192,28406,1,0,0:0:0:40:Cymbal.wav
448,192,28571,1,0,0:0:0:40:Bass Kick.wav
192,192,28736,1,0,0:0:0:40:Snare.wav
64,192,28736,128,0,29065:0:0:0:40:Cymbal.wav
320,192,29065,1,0,0:0:0:40:Bass Kick.wav
448,192,29065,1,0,0:0:0:40:Cymbal.wav
192,192,29395,1,0,0:0:0:40:Snare.wav
64,192,29725,1,0,0:0:0:40:Bass Kick.wav
448,192,29725,1,0,0:0:0:0:
192,192,30055,1,0,0:0:0:40:Snare.wav
448,192,30384,1,0,0:0:0:40:Bass Kick.wav
320,192,30384,1,0,0:0:0:0:
192,192,30714,1,0,0:0:0:40:Snare.wav
64,192,31044,1,0,0:0:0:40:Bass Kick.wav
448,192,31044,1,0,0:0:0:0:
320,192,31208,1,0,0:0:0:40:Snare.wav
192,192,31373,1,0,0:0:0:40:Snare.wav
64,192,31703,1,0,0:0:0:40:Bass Kick.wav
448,192,31703,1,0,0:0:0:0:
320,192,32033,1,0,0:0:0:40:Snare.wav
192,192,32362,1,0,0:0:0:40:Bass Kick.wav
64,192,32362,1,0,0:0:0:0:
320,192,32692,1,0,0:0:0:40:Snare.wav
64,192,33022,128,0,33351:0:0:0:40:Bass Kick.wav
448,192,33022,1,0,0:0:0:0:
192,192,33351,128,0,33681:0:0:0:40:Snare.wav
64,192,33681,1,0,0:0:0:40:Bass Kick.wav
320,192,33681,128,0,34011:0:0:0:0:
448,192,34011,128,0,34340:0:0:0:40:Snare.wav
64,192,34340,1,0,0:0:0:40:Bass Kick.wav
192,192,34340,1,0,0:0:0:0:
320,192,34670,1,0,0:0:0:40:Snare.wav
64,192,35000,1,0,0:0:0:40:Bass Kick.wav
448,192,35000,1,0,0:0:0:0:
320,192,35164,1,0,0:0:0:40:Snare.wav
192,192,35329,1,0,0:0:0:40:Snare.wav
320,192,35659,1,0,0:0:0:40:Bass Kick.wav
448,192,35659,1,0,0:0:0:0:
192,192,35989,1,0,0:0:0:40:Snare.wav
64,192,36318,1,0,0:0:0:40:Bass Kick.wav
448,192,36318,1,0,0:0:0:0:
192,192,36483,1,0,0:0:0:40:Snare.wav
320,192,36648,1,0,0:0:0:40:Snare.wav
64,192,36978,1,0,0:0:0:40:Bass Kick.wav
192,192,36978,1,0,0:0:0:0:
448,192,37307,1,0,0:0:0:40:Bass Kick.wav
320,192,37307,1,0,0:0:0:40:Cymbal.wav
64,192,37637,1,0,0:0:0:40:Bass Kick.wav
192,192,37637,1,0,0:0:0:40:Cymbal.wav
448,192,37967,1,0,0:0:0:40:Bass Kick.wav
320,192,37967,1,0,0:0:0:40:Cymbal.wav
64,192,38296,1,0,0:0:0:40:Cymbal.wav
448,192,38296,1,0,0:0:0:40:Bass Kick.wav
320,192,38626,1,0,0:0:0:40:Bass Kick.wav
192,192,38626,1,0,0:0:0:40:Cymbal.wav
64,192,38956,1,0,0:0:0:40:Cymbal.wav
448,192,38956,1,0,0:0:0:40:Bass Kick.wav
320,192,39120,1,0,0:0:0:40:Kick.wav
192,192,39285,1,0,0:0:0:40:Kick.wav
448,192,39450,1,0,0:0:0:40:Kick.wav
64,192,39615,1,0,0:0:0:40:Kick.wav
320,192,39615,1,0,0:0:0:40:Cymbal.wav
192,192,39862,1,0,0:0:0:40:Kick.wav
320,192,40109,1,0,0:0:0:40:Kick.wav
64,192,40274,1,0,0:0:0:40:Kick.wav
448,192,40274,1,0,0:0:0:40:Cymbal.wav
320,192,40522,1,0,0:0:0:40:Kick.wav
192,192,40769,1,0,0:0:0:40:Kick.wav
64,192,40934,128,0,41428:0:0:0:40:Kick.wav
448,192,40934,1,0,0:0:0:40:Cymbal.wav
320,192,41428,1,0,0:0:0:40:Kick.wav
192,192,41593,1,0,0:0:0:40:Kick.wav
448,192,41758,1,0,0:0:0:0:
192,192,41923,1,0,0:0:0:40:Kick.wav
320,192,42087,1,0,0:0:0:40:Kick.wav
64,192,42252,1,0,0:0:0:40:Snare.wav
448,192,42252,1,0,0:0:0:40:Cymbal.wav
320,192,42417,1,0,0:0:0:40:Bass Kick.wav
64,192,42582,1,0,0:0:0:40:Snare.wav
192,192,42747,1,0,0:0:0:40:Bass Kick.wav
448,192,42912,1,0,0:0:0:40:Snare.wav
320,192,43076,1,0,0:0:0:40:Bass Kick.wav
64,192,43241,1,0,0:0:0:40:Snare.wav
192,192,43406,1,0,0:0:0:40:Bass Kick.wav
320,192,43571,1,0,0:0:0:40:Bass Kick.wav
448,192,43571,1,0,0:0:0:40:Cymbal.wav
64,192,43901,1,0,0:0:0:40:Bass Kick.wav
192,192,43901,1,0,0:0:0:40:Cymbal.wav
320,192,44230,1,0,0:0:0:40:Bass Kick.wav
448,192,44230,1,0,0:0:0:40:Cymbal.wav
64,192,44560,1,0,0:0:0:40:Snare.wav
192,192,44560,1,0,0:0:0:40:Cymbal.wav
320,192,44725,1,0,0:0:0:40:Snare.wav
448,192,44725,1,0,0:0:0:40:Cymbal.wav
192,192,45055,1,0,0:0:0:40:Snare.wav
320,192,45055,1,0,0:0:0:40:Cymbal.wav
64,192,45219,1,0,0:0:0:40:Snare.wav
448,192,45219,1,0,0:0:0:40:Cymbal.wav
192,192,45384,1,0,0:0:0:40:Bass Kick.wav
320,192,45549,1,0,0:0:0:40:Snare.wav
448,192,45549,1,0,0:0:0:40:Cymbal.wav
64,192,45714,1,0,0:0:0:40:Snare.wav
192,192,45714,1,0,0:0:0:40:Cymbal.wav
192,192,46044,1,0,0:0:0:40:Snare.wav
320,192,46044,1,0,0:0:0:40:Cymbal.wav
64,192,46373,1,0,0:0:0:40:Bass Kick.wav
448,192,46373,1,0,0:0:0:40:Cymbal.wav
320,192,46538,1,0,0:0:0:40:Bass Kick.wav
192,192,46538,1,0,0:0:0:40:Cymbal.wav
64,192,46703,1,0,0:0:0:40:Bass Kick.wav
448,192,46703,1,0,0:0:0:40:Cymbal.wav
