osu file format v14

[General]
AudioFilename: audio.mp3
AudioLeadIn: 0
PreviewTime: 48897
Countdown: 0
SampleSet: Soft
StackLeniency: 0.7
Mode: 0
LetterboxInBreaks: 0
WidescreenStoryboard: 1

[Editor]
Bookmarks: 16270,27179,38088,48997,59906,73545,84454,95363,106272,117181,128090,141721,152630,163539,174448,185357,196266,207175,218084,231724,243996
DistanceSpacing: 1.4
BeatDivisor: 2
GridSize: 8
TimelineZoom: 1.700001

[Metadata]
Title:Fansa
TitleUnicode:ファンサ
Artist:Takamiya Rion
ArtistUnicode:鷹宮リオン
Creator:Hinsvar
Version:Normal
Source:
Tags:Fanservice Virtual YouTuber VTuber にじさんじ Nijisanji 2434 HoneyWorks cover Japanese Pop J-Pop JPop 告白実行委員会 ~アイドルシリーズ~ Confession Executive Committee ~Idol Series~
BeatmapID:2503949
BeatmapSetID:1200696

[Difficulty]
HPDrainRate:4
CircleSize:3.3
OverallDifficulty:4
ApproachRate:5.3
SliderMultiplier:1.12
SliderTickRate:1

[Events]
//Background and Video events
0,0,"rion.jpg",0,0
Video,0,"fansa.mp4"
//Break Periods
2,73742,83300
2,141921,151476
2,185557,195112
//Storyboard Layer 0 (Background)
//Storyboard Layer 1 (Fail)
//Storyboard Layer 2 (Pass)
//Storyboard Layer 3 (Foreground)
//Storyboard Layer 4 (Overlay)
//Storyboard Sound Samples

[TimingPoints]
16270,340.909090909091,4,2,1,30,1,0
26497,-100,4,2,1,40,0,0
27179,-100,4,2,1,50,0,0
38088,-100,4,2,1,40,0,0
48656,-100,4,2,1,50,0,0
48997,-90.9090909090909,4,2,1,60,0,1
59565,-90.9090909090909,4,2,1,60,0,0
59906,-90.9090909090909,4,2,1,60,0,1
70815,-100,4,2,1,40,0,0
73545,340.909090909091,4,2,1,50,1,1
73630,-100,4,2,1,50,0,0
84454,-100,4,2,1,30,0,0
95022,-100,4,2,1,40,0,0
95363,-100,4,2,1,50,0,0
106272,-100,4,2,1,40,0,0
116840,-100,4,2,1,50,0,0
117181,-90.9090909090909,4,2,1,60,0,1
127749,-90.9090909090909,4,2,1,60,0,0
128090,-90.9090909090909,4,2,1,60,0,1
138999,-100,4,2,1,40,0,0
141721,340.909090909091,4,2,1,30,1,0
152630,-111.111111111111,4,2,1,30,0,0
162857,-100,4,2,1,40,0,0
163539,-100,4,2,1,50,0,0
173766,-100,4,2,1,30,0,0
174448,-100,4,2,1,40,0,0
179561,-100,4,2,1,30,0,0
179902,-100,4,2,1,40,0,0
182630,-100,4,2,1,30,0,0
204448,-100,4,2,1,35,0,0
205811,-100,4,2,1,40,0,0
206152,-100,4,2,1,45,0,0
206493,-100,4,2,1,50,0,0
206834,-100,4,2,1,55,0,0
207175,-90.9090909090909,4,2,1,60,0,1
217743,-90.9090909090909,4,2,1,60,0,0
218084,-88.4955752212389,4,2,1,60,0,1
228993,-100,4,2,1,40,0,0
231724,340.909090909091,4,2,1,50,1,1
231809,-100,4,2,1,50,0,0
242633,-100,4,2,1,40,0,0

[Colours]
Combo1 : 237,29,221
Combo2 : 242,130,249
Combo3 : 234,119,142
Combo4 : 250,218,65

[HitObjects]
446,357,16270,6,0,P|477:317|475:251,1,112,6|0,3:2|3:0,0:0:0:0:
421,160,16951,1,2,3:2:0:0:
348,245,17292,2,0,P|325:258|288:267,1,56,0|0,3:0|0:0,0:0:0:0:
249,235,17633,2,0,P|205:209|139:205,1,112,2|0,3:2|3:0,0:0:0:0:
73,117,18315,1,2,3:2:0:0:
134,23,18656,1,0,3:0:0:0:
217,97,18997,6,0,P|266:90|320:41,1,112,2|0,3:2|0:0,0:0:0:0:
365,31,19508,1,0,0:0:0:0:
365,31,19679,2,0,P|401:67|394:136,1,112,2|0,3:2|0:0,0:0:0:0:
470,212,20360,2,0,P|429:255|403:306,1,112,2|0,3:2|3:0,0:0:0:0:
311,363,21042,1,2,3:2:0:0:
245,272,21383,1,2,3:2:0:0:
329,198,21724,6,0,P|344:146|342:80,1,112,2|0,3:2|0:0,0:0:0:0:
310,50,22235,1,0,0:0:0:0:
310,50,22406,1,2,3:2:0:0:
210,101,22747,1,0,0:0:0:0:
114,42,23088,2,0,P|70:68|36:135,1,112,2|0,3:2|3:0,0:0:0:0:
74,225,23770,2,0,B|136:212|136:212|175:258,1,112,2|0,3:2|3:0,0:0:0:0:
264,305,24451,6,0,P|322:303|375:277,2,112,2|0|2,3:2|0:0|3:2,0:0:0:0:
225,271,25304,1,0,0:0:0:0:
225,271,25474,1,0,3:0:0:0:
116,297,25815,2,0,P|99:318|84:359,2,56,2|0|2,3:2|3:0|3:2,0:0:0:0:
86,188,26497,2,0,B|75:161|58:147|58:147|62:116|83:84,1,112,14|8,0:0|0:0,0:0:0:0:
127,56,27008,1,8,0:0:0:0:
127,56,27179,5,6,0:0:0:0:
229,9,27520,2,0,B|261:10|261:10|294:19,1,56,10|0,0:0|0:0,0:0:0:0:
317,60,27860,2,0,P|298:113|302:173,1,112,0|10,3:0|0:0,0:0:0:0:
378,248,28542,2,0,P|387:277|388:315,2,56,0|0|10,3:0|0:0|0:0,0:0:0:0:
473,189,29224,2,0,B|482:151|482:151|468:128,1,56,2|0,3:2|3:0,0:0:0:0:
437,93,29565,1,8,0:0:0:0:
337,140,29906,5,0,3:0:0:0:
337,140,30076,2,0,P|277:121|228:82,1,112
159,12,30758,1,0,3:0:0:0:
73,80,31099,1,0,0:0:0:0:
73,80,31270,2,0,B|45:93|45:93|12:88,2,56,0|2|10,3:0|0:0|0:0,0:0:0:0:
150,161,31951,1,2,3:2:0:0:
69,238,32292,1,10,0:0:0:0:
146,319,32633,6,0,P|153:348|154:387,2,56,4|0|10,0:0|0:0|0:0,0:0:0:0:
177,272,33145,2,0,P|227:254|293:257,1,112,0|0,0:0|3:0,0:0:0:0:
329,289,33656,1,10,0:0:0:0:
437,316,33997,2,0,B|470:313|470:313|493:297,2,56,0|0|10,3:0|0:0|0:0,0:0:0:0:
390,213,34679,2,0,B|382:184|382:184|390:147,1,56,2|0,3:2|3:0,0:0:0:0:
413,110,35020,1,10,0:0:0:0:
342,23,35360,6,0,P|291:13|231:24,1,112,0|10,3:0|0:0,0:0:0:0:
188,126,36042,2,0,B|197:152|197:152|188:191,2,56,0|0|10,3:0|0:0|0:0,0:0:0:0:
112,45,36724,2,0,P|64:44|16:22,2,84,6|2|2,3:2|3:2|3:2,0:0:0:0:
156,10,37406,2,0,B|186:4|186:4|218:18,1,56,6|8,0:0|0:0,0:0:0:0:
255,46,37747,1,8,0:0:0:0:
365,28,38088,6,0,P|397:69|410:134,1,112,6|0,3:2|0:0,0:0:0:0:
405,238,38770,1,10,0:0:0:0:
335,325,39110,1,2,0:0:0:0:
253,256,39451,1,2,3:2:0:0:
253,256,39622,2,0,B|183:264|183:264|159:286|159:286|83:303,1,168,8|10,0:0|0:0,0:0:0:0:
29,210,40474,1,2,0:0:0:0:
126,155,40815,6,0,P|146:105|149:40,1,112,4|0,3:2|0:0,0:0:0:0:
255,10,41497,1,10,0:0:0:0:
342,79,41838,1,2,3:2:0:0:
286,176,42179,1,2,3:2:0:0:
286,176,42349,1,8,0:0:0:0:
404,317,42860,2,0,B|426:304|426:304|459:303,2,56,10|0|2,0:0|3:0|3:2,0:0:0:0:
301,363,43542,6,0,P|237:357|197:320,1,112,4|0,3:2|0:0,0:0:0:0:
129,241,44224,1,10,0:0:0:0:
194,150,44565,1,2,3:2:0:0:
131,56,44906,1,2,3:2:0:0:
131,56,45076,2,0,B|202:34|202:34|215:40|215:40|310:50,1,168,8|10,0:0|0:0,0:0:0:0:
363,136,45929,1,2,0:0:0:0:
457,75,46270,6,0,B|457:44|457:44|470:21,2,56,4|8|2,3:2|0:0|3:2,0:0:0:0:
487,128,46781,1,8,0:0:0:0:
487,128,46951,2,0,P|508:171|507:249,1,112,10|0,0:0|3:0,0:0:0:0:
452,330,47633,5,4,3:2:0:0:
452,330,48315,2,0,L|391:355,1,56,2|0,3:2|3:0,0:0:0:0:
350,324,48656,2,0,B|326:309|326:309|289:316,1,56,10|10,0:0|0:0,0:0:0:0:
247,346,48997,6,0,B|210:297|210:297|237:240,1,123.200003759766,4|8,3:2|0:0,0:0:0:0:
292,211,49508,1,0,0:0:0:0:
292,211,49679,2,0,P|292:150|240:122,1,123.200003759766,2|8,3:2|0:0,0:0:0:0:
148,201,50360,2,0,B|86:215|86:215|34:181,1,123.200003759766,2|8,3:2|0:0,0:0:0:0:
9,65,51042,2,0,P|40:66|71:57,1,61.6000018798829,2|0,3:2|0:0,0:0:0:0:
111,13,51383,1,10,0:0:0:0:
219,75,51724,5,2,3:2:0:0:
219,75,51895,2,0,P|230:100|237:142,2,61.6000018798829,0|8|0,0:0|0:0|0:0,0:0:0:0:
255,24,52406,2,0,P|315:56|388:52,1,123.200003759766,2|8,3:2|0:0,0:0:0:0:
453,146,53088,2,0,B|425:192|425:192|448:270,1,123.200003759766,2|10,3:2|0:0,0:0:0:0:
433,319,53599,1,0,0:0:0:0:
433,319,53770,1,2,3:2:0:0:
333,247,54110,2,0,B|310:231|310:231|273:240,1,61.6000018798829,8|8,0:0|0:0,0:0:0:0:
225,272,54451,5,6,3:2:0:0:
118,209,54792,2,0,P|95:150|90:86,2,123.200003759766,8|2|8,0:0|3:2|0:0,0:0:0:0:
87,264,55645,1,0,0:0:0:0:
87,264,55815,2,0,B|58:320|58:320|106:374,1,123.200003759766,2|8,3:2|0:0,0:0:0:0:
207,307,56497,2,0,P|217:277|218:244,2,61.6000018798829,2|0|8,3:2|0:0|0:0,0:0:0:0:
317,362,57179,6,0,B|373:340|373:340|380:346|380:346|434:324,1,123.200003759766,6|8,3:2|0:0,0:0:0:0:
454,272,57690,1,0,3:0:0:0:
454,272,57860,2,0,B|419:216|419:216|449:165,1,123.200003759766,6|8,3:2|0:0,0:0:0:0:
501,58,58542,2,0,P|474:47|438:43,1,61.6000018798829,6|0,3:2|3:0,0:0:0:0:
385,18,58883,2,0,B|358:39|358:39|334:40|334:40|307:58|307:58|273:45,1,123.200003759766,10|2,0:0|3:2,0:0:0:0:
170,19,59565,2,0,B|140:41|140:41|125:76,1,61.6000018798829,10|8,0:0|0:0,0:0:0:0:
144,123,59906,5,4,3:2:0:0:
235,205,60247,2,0,P|247:232|254:270,1,61.6000018798829,8|0,0:0|0:0,0:0:0:0:
292,311,60588,2,0,P|321:253|366:208,1,123.200003759766,2|8,3:2|0:0,0:0:0:0:
465,142,61270,2,0,B|498:169|507:193|507:193|487:216|479:249,1,123.200003759766,2|8,3:2|0:0,0:0:0:0:
403,338,61951,1,2,3:2:0:0:
292,283,62292,2,0,P|265:283|224:297,1,61.6000018798829,10|0,0:0|0:0,0:0:0:0:
179,321,62633,5,2,3:2:0:0:
179,321,62804,2,0,P|159:347|147:374,2,61.6000018798829,0|8|0,0:0|0:0|0:0,0:0:0:0:
147,268,63315,2,0,P|87:266|40:214,1,123.200003759766,2|8,3:2|0:0,0:0:0:0:
92,110,63997,2,0,P|89:75|75:41,2,61.6000018798829,2|0|8,3:2|0:0|0:0,0:0:0:0:
151,141,64508,1,0,0:0:0:0:
151,141,64679,1,10,0:0:0:0:
213,34,65020,2,0,P|241:25|278:29,1,61.6000018798829,8|8,0:0|0:0,0:0:0:0:
314,72,65360,5,6,3:2:0:0:
383,175,65701,2,0,B|442:189|442:189|486:144,2,123.200003759766,8|2|8,0:0|3:2|0:0,0:0:0:0:
351,228,66554,1,0,0:0:0:0:
351,228,66724,2,0,P|308:175|234:178,1,123.200003759766,2|8,3:2|0:0,0:0:0:0:
171,258,67406,1,2,3:2:0:0:
246,355,67747,1,8,0:0:0:0:
365,323,68088,6,0,P|392:321|438:341,2,61.6000018798829,6|0|8,3:2|0:0|0:0,0:0:0:0:
349,263,68599,1,0,3:0:0:0:
349,263,68770,2,0,B|309:258|283:268|283:268|260:250|252:221,1,123.200003759766,6|8,3:2|0:0,0:0:0:0:
158,141,69451,2,0,B|125:141|125:141|95:165,1,61.6000018798829,6|0,3:2|0:0,0:0:0:0:
105,220,69792,2,0,B|91:249|91:249|100:287,1,61.6000018798829,10|8,0:0|0:0,0:0:0:0:
69,332,70133,2,0,P|125:328|202:356,1,123.200003759766,2|10,3:2|0:0,0:0:0:0:
279,281,70815,5,6,3:2:0:0:
356,331,72179,5,2,0:0:0:0:
471,245,73031,5,0,3:0:0:0:
471,245,73201,2,0,B|450:266|450:266|417:262,1,56,8|0,0:0|0:0,0:0:0:0:
378,229,73542,5,6,0:0:0:0:
106,22,84454,6,0,P|143:58|140:128,1,112,4|0,3:2|3:0,0:0:0:0:
105,220,85135,2,0,P|69:238|18:250,2,84,2|2|0,3:2|0:0|0:0,0:0:0:0:
126,272,85817,2,0,P|104:320|106:371,2,84,2|2|0,3:2|0:0|0:0,0:0:0:0:
182,273,86499,1,2,3:2:0:0:
278,330,86840,2,0,P|313:321|338:306,1,56,2|0,3:2|0:0,0:0:0:0:
382,333,87181,5,2,3:2:0:0:
450,244,87522,2,0,P|446:215|434:189,1,56,0|0,3:0|0:0,0:0:0:0:
420,136,87863,2,0,P|434:101|479:58,2,84,2|2|0,3:2|0:0|0:0,0:0:0:0:
364,128,88545,1,2,3:2:0:0:
266,182,88885,2,0,B|212:189|212:189|173:146,1,112,2|2,3:2|3:2,0:0:0:0:
146,37,89567,1,2,3:2:0:0:
48,89,89908,5,2,3:2:0:0:
48,89,90079,2,0,P|67:136|52:198,1,112
92,242,90590,1,0,3:0:0:0:
92,242,90760,2,0,P|112:221|144:205,1,56,2|0,0:0|3:0,0:0:0:0:
243,240,91272,2,0,P|262:206|267:178,2,56,2|2|0,3:2|0:0|0:0,0:0:0:0:
177,331,91954,2,0,B|102:345|102:345|66:311,1,112,2|0,3:2|3:0,0:0:0:0:
55,273,92465,1,2,0:0:0:0:
55,273,92635,6,0,P|98:225|97:181,1,112,2|0,3:2|3:0,0:0:0:0:
46,80,93317,1,2,3:2:0:0:
137,15,93658,1,0,3:0:0:0:
236,66,93999,2,0,P|288:92|352:96,1,112,2|0,3:2|0:0,0:0:0:0:
396,78,94510,1,2,3:2:0:0:
396,78,94681,2,0,B|401:47|401:47|419:18,2,56,2|0|10,3:2|0:0|0:0,0:0:0:0:
473,157,95363,6,0,P|490:202|485:278,1,112,4|10,0:0|0:0,0:0:0:0:
454,310,95874,1,0,0:0:0:0:
454,310,96045,1,0,3:0:0:0:
370,235,96385,2,0,P|345:222|309:219,2,56,10|0|0,0:0|0:0|3:0,0:0:0:0:
323,338,97067,2,0,B|275:364|275:364|214:344,1,112,10|2,0:0|3:2,0:0:0:0:
151,257,97749,2,0,P|129:246|86:243,1,56,10|0,0:0|0:0,0:0:0:0:
43,257,98090,6,0,B|68:212|68:212|53:143,1,112,0|10,3:0|0:0,0:0:0:0:
54,100,98601,1,0,0:0:0:0:
54,100,98772,2,0,B|61:78|88:64|88:64|110:76|154:86,1,112,0|10,3:0|0:0,0:0:0:0:
248,34,99454,2,0,P|289:63|295:132,1,112,0|10,3:0|0:0,0:0:0:0:
276,174,99965,1,0,0:0:0:0:
276,174,100135,1,2,3:2:0:0:
378,218,100476,1,10,0:0:0:0:
441,125,100817,6,0,P|459:111|502:100,2,56,4|0|10,0:0|0:0|0:0,0:0:0:0:
370,37,101499,2,0,P|316:21|274:64,1,112,0|10,3:0|0:0,0:0:0:0:
303,109,102010,1,0,0:0:0:0:
303,109,102181,2,0,B|294:134|265:151|265:151|232:147|203:164,1,112,0|10,3:0|0:0,0:0:0:0:
147,68,102863,2,0,B|120:45|98:42|98:42|75:53|57:90,1,112,2|10,3:2|0:0,0:0:0:0:
74,141,103374,1,0,0:0:0:0:
74,141,103545,6,0,P|46:157|17:163,2,56,4|0|10,0:0|0:0|0:0,0:0:0:0:
85,252,104226,2,0,P|106:301|172:321,1,112,6|10,0:0|0:0,0:0:0:0:
268,302,104908,2,0,P|272:271|280:241,2,56,2|0|2,3:2|0:0|3:2,0:0:0:0:
309,348,105420,1,0,3:0:0:0:
309,348,105590,1,4,0:0:0:0:
412,301,105931,1,8,0:0:0:0:
451,196,106272,6,0,P|456:139|425:69,1,112,4|0,3:2|0:0,0:0:0:0:
341,30,106954,1,12,0:0:0:0:
248,93,107295,1,2,3:2:0:0:
148,55,107635,1,2,3:2:0:0:
148,55,107806,2,0,B|111:54|87:76|87:76|81:115|118:182,1,168,8|10,0:0|0:0,0:0:0:0:
29,247,108658,1,2,0:0:0:0:
101,336,108999,6,0,P|152:304|221:300,1,112,4|0,3:2|0:0,0:0:0:0:
266,205,109681,2,0,B|244:150|244:150|290:118,1,112,10|2,0:0|3:2,0:0:0:0:
355,30,110363,1,2,3:2:0:0:
355,30,110533,2,0,P|394:58|472:65,1,112,0|0,3:0|3:0,0:0:0:0:
487,114,111045,1,14,0:0:0:0:
408,193,111385,1,2,3:2:0:0:
470,286,111726,6,0,P|441:343|394:336,1,112,4|0,3:2|0:0,0:0:0:0:
307,276,112408,2,0,B|298:246|298:246|300:219,1,56,14|0,0:0|0:0,0:0:0:0:
332,175,112749,1,6,3:2:0:0:
238,113,113090,1,2,3:2:0:0:
238,113,113260,1,8,0:0:0:0:
76,202,113772,2,0,B|55:256|55:256|93:305,1,112,14|2,0:0|3:2,0:0:0:0:
177,367,114454,6,0,P|203:332|217:254,1,112,6|0,3:2|0:0,0:0:0:0:
291,181,115135,2,0,B|319:188|319:188|350:170,2,56,14|8|8,0:0|0:0|0:0,0:0:0:0:
255,79,115817,5,4,3:2:0:0:
255,79,116499,2,0,B|227:82|227:82|190:66,1,56,2|0,3:2|3:0,0:0:0:0:
152,44,116840,2,0,B|124:41|124:41|87:57,1,56,10|10,0:0|0:0,0:0:0:0:
64,103,117181,6,0,P|89:157|101:237,1,123.200003759766,6|8,3:2|0:0,0:0:0:0:
62,267,117692,1,0,0:0:0:0:
62,267,117863,1,2,3:2:0:0:
148,355,118204,2,0,P|177:352|210:325,1,61.6000018798829,8|0,0:0|0:0,0:0:0:0:
218,273,118545,2,0,P|274:257|352:291,1,123.200003759766,2|8,3:2|0:0,0:0:0:0:
440,338,119226,2,0,P|453:319|471:276,1,61.6000018798829,2|0,3:2|0:0,0:0:0:0:
482,223,119567,1,10,0:0:0:0:
430,117,119908,5,2,3:2:0:0:
430,117,120079,2,0,P|418:87|415:54,2,61.6000018798829,0|8|0,0:0|0:0|0:0,0:0:0:0:
382,156,120590,2,0,P|341:117|260:109,1,123.200003759766,2|8,3:2|0:0,0:0:0:0:
185,188,121272,2,0,B|173:214|173:214|174:256,2,61.6000018798829,2|0|8,3:2|0:0|0:0,0:0:0:0:
105,92,121954,1,2,3:2:0:0:
202,16,122295,2,0,B|234:12|234:12|273:30,1,61.6000018798829,8|8,0:0|0:0,0:0:0:0:
289,78,122635,5,6,3:2:0:0:
403,33,122976,2,0,P|443:66|460:155,1,123.200003759766,8|2,0:0|3:2,0:0:0:0:
363,204,123658,2,0,B|351:234|351:234|351:266,1,61.6000018798829,8|0,0:0|0:0,0:0:0:0:
385,314,123999,2,0,P|349:359|276:339,1,123.200003759766,2|8,3:2|0:0,0:0:0:0:
177,297,124681,2,0,B|149:285|149:285|113:301,2,61.6000018798829,2|0|8,3:2|0:0|0:0,0:0:0:0:
238,189,125363,6,0,P|203:136|202:70,1,123.200003759766,6|8,3:2|0:0,0:0:0:0:
157,33,125874,1,0,3:0:0:0:
157,33,126045,2,0,B|97:24|97:24|32:83,1,123.200003759766,6|0,0:0|0:0,0:0:0:0:
24,186,126726,2,0,P|41:205|54:244,1,61.6000018798829,10|0,0:0|0:0,0:0:0:0:
54,300,127067,1,10,0:0:0:0:
170,341,127408,1,6,3:2:0:0:
233,235,127749,2,0,B|264:229|264:229|304:246,1,61.6000018798829,8|8,0:0|0:0,0:0:0:0:
339,279,128090,5,6,3:2:0:0:
339,279,128260,2,0,P|364:254|392:241,2,61.6000018798829,0|8|0,0:0|0:0|0:0,0:0:0:0:
323,339,128772,1,2,3:2:0:0:
201,360,129113,1,8,0:0:0:0:
86,313,129454,6,0,P|55:257|61:185,1,123.200003759766,2|8,3:2|0:0,0:0:0:0:
127,98,130135,1,2,3:2:0:0:
221,178,130476,2,0,B|247:184|247:184|287:173,1,61.6000018798829,10|0,0:0|0:0,0:0:0:0:
332,139,130817,5,2,3:2:0:0:
332,139,130988,2,0,P|362:148|418:154,2,61.6000018798829,0|8|0,0:0|0:0|0:0,0:0:0:0:
312,80,131499,2,0,B|260:49|260:49|192:61,1,123.200003759766,2|8,3:2|0:0,0:0:0:0:
101,136,132181,2,0,P|86:107|81:77,2,61.6000018798829,2|0|8,3:2|0:0|0:0,0:0:0:0:
147,184,132692,1,0,0:0:0:0:
147,184,132863,1,2,3:2:0:0:
116,303,133204,1,8,0:0:0:0:
10,231,133545,5,6,3:2:0:0:
47,112,133885,2,0,B|74:80|94:70|94:70|116:84|168:82,1,123.200003759766,8|2,0:0|3:2,0:0:0:0:
250,8,134567,2,0,P|281:28|313:32,1,61.6000018798829,8|0,0:0|0:0,0:0:0:0:
320,92,134908,2,0,B|303:127|266:146|266:146|270:168|288:192,1,123.200003759766,2|8,3:2|0:0,0:0:0:0:
377,269,135590,2,0,P|389:297|380:341,1,61.6000018798829,2|0,3:2|0:0,0:0:0:0:
334,361,135931,1,8,0:0:0:0:
211,351,136272,6,0,P|183:336|163:302,2,61.6000018798829,4|0|8,3:2|0:0|0:0,0:0:0:0:
251,305,136783,1,0,3:0:0:0:
251,305,136954,2,0,B|266:264|257:239|257:239|279:234|307:201,1,123.200003759766,6|8,3:2|0:0,0:0:0:0:
399,132,137635,2,0,P|384:102|359:85,1,61.6000018798829,6|0,3:2|0:0,0:0:0:0:
328,35,137976,2,0,P|297:40|274:59,1,61.6000018798829,10|8,0:0|0:0,0:0:0:0:
237,109,138317,2,0,B|202:116|174:94|183:90|151:69|119:86,1,123.200003759766,2|2,3:2|3:2,0:0:0:0:
32,144,138999,5,6,0:0:0:0:
76,230,140363,5,2,0:0:0:0:
138,360,141215,5,0,3:0:0:0:
138,360,141385,2,0,B|163:338|163:338|178:306,1,56,2|0,0:0|0:0,0:0:0:0:
170,262,141721,5,4,0:0:0:0:
358,272,152630,6,0,P|374:228|381:158,1,100.799996923828,2|0,0:0|0:0,0:0:0:0:
298,116,153311,2,0,P|282:160|275:230,1,100.799996923828,2|0,0:0|0:0,0:0:0:0:
193,272,153993,1,0,0:0:0:0:
123,198,154334,2,0,P|72:182|20:178,2,100.799996923828,2|2|2,0:0|0:0|0:0,0:0:0:0:
87,292,155357,5,2,0:0:0:0:
159,362,155698,1,2,0:0:0:0:
258,349,156039,2,0,P|281:308|285:243,1,100.799996923828,2|0,0:0|0:0,0:0:0:0:
234,168,156721,1,2,0:0:0:0:
213,69,157061,1,0,0:0:0:0:
302,22,157402,1,2,0:0:0:0:
421,184,158084,6,0,B|371:226|319:205|326:190|273:161|223:200,1,201.599993847656,2|2,0:0|0:0,0:0:0:0:
183,283,159107,1,0,0:0:0:0:
100,225,159448,2,0,P|77:176|80:116,2,100.799996923828,2|0|2,0:0|0:0|0:0,0:0:0:0:
261,345,160811,6,0,P|287:307|302:235,1,100.799996923828,2|0,0:0|0:0,0:0:0:0:
235,178,161493,2,0,P|214:138|237:84,1,100.799996923828,2|0,0:0|0:0,0:0:0:0:
322,37,162175,1,2,0:0:0:0:
322,37,162857,6,0,B|339:75|339:75|421:61,1,112,2|8,0:0|0:0,0:0:0:0:
490,139,163539,6,0,P|473:182|466:249,1,112,6|10,3:2|0:0,0:0:0:0:
420,277,164050,1,0,0:0:0:0:
420,277,164221,2,0,P|398:257|370:249,2,56,2|0|10,3:2|0:0|0:0,0:0:0:0:
364,374,164902,1,2,3:2:0:0:
266,318,165243,1,10,0:0:0:0:
158,351,165584,2,0,B|137:300|137:300|147:234,1,112,2|10,3:2|0:0,0:0:0:0:
63,165,166266,6,0,P|113:136|100:78,1,112,2|8,3:2|0:0,0:0:0:0:
84,37,166777,2,0,B|131:25|166:57|160:61|193:92|262:79,1,168,2|10,0:0|0:0,0:0:0:0:
336,22,167630,1,2,3:2:0:0:
426,87,167971,2,0,P|456:83|494:70,2,56,6|8|10,0:0|0:0|0:0,0:0:0:0:
407,142,168482,1,10,0:0:0:0:
407,142,168652,1,10,0:0:0:0:
372,248,168993,6,0,P|328:276|260:269,1,112,6|10,0:0|0:0,0:0:0:0:
211,177,169675,2,0,B|169:142|169:142|114:162,1,112,2|10,3:2|0:0,0:0:0:0:
83,209,170186,1,0,0:0:0:0:
83,209,170357,1,2,3:2:0:0:
9,124,170698,2,0,B|-10:73|-10:73|20:24,1,112,8|2,0:0|3:2,0:0:0:0:
120,73,171380,1,10,0:0:0:0:
226,38,171721,6,0,P|249:88|227:162,1,112,6|10,3:2|0:0,0:0:0:0:
204,186,172232,2,0,B|163:196|163:196|127:237,2,84,4|2|14,3:2|3:2|0:0,0:0:0:0:
279,278,173084,2,0,B|311:284|311:284|337:266,1,56,10|8,0:0|0:0,0:0:0:0:
362,224,173425,1,10,0:0:0:0:
304,125,173766,2,0,B|291:66|291:66|334:21,1,112,2|0,3:2|0:0,0:0:0:0:
438,28,174448,6,0,P|477:67|469:128,1,112,6|0,3:2|0:0,0:0:0:0:
417,217,175130,1,10,0:0:0:0:
483,307,175471,1,2,3:2:0:0:
393,369,175811,1,2,0:0:0:0:
393,369,175982,2,0,B|350:349|350:349|329:321|329:321|301:337|301:337|235:326,1,168,8|10,0:0|0:0,0:0:0:0:
205,224,176834,1,2,0:0:0:0:
111,160,177175,5,4,3:2:0:0:
111,160,177346,2,0,B|70:191|52:234|52:234|85:261|107:314,1,168,8|10,0:0|0:0,0:0:0:0:
187,356,178198,1,2,3:2:0:0:
288,304,178539,1,2,3:2:0:0:
288,304,178709,2,0,B|317:290|330:269|330:269|352:289|392:294,1,112,8|0,0:0|0:0,0:0:0:0:
431,268,179221,1,10,0:0:0:0:
471,163,179561,1,6,0:0:0:0:
375,104,179902,6,0,B|345:52|345:52|357:0,2,112,6|0|10,3:2|0:0|0:0,0:0:0:0:
303,191,180925,1,2,3:2:0:0:
220,123,181266,1,2,3:2:0:0:
220,123,181436,2,0,B|193:72|193:72|134:49,1,112,8|0,0:0|0:0,0:0:0:0:
92,78,181948,1,14,0:0:0:0:
28,170,182289,1,2,3:2:0:0:
93,261,182630,6,0,P|140:293|211:295,1,112,6|10,3:2|0:0,0:0:0:0:
264,211,183311,2,0,B|258:182|258:182|274:145,2,56,2|0|2,3:2|3:0|3:2,0:0:0:0:
360,267,183993,2,0,P|484:187|416:28,1,336,4|0,0:0|0:0,0:0:0:0:
341,105,185357,5,2,0:0:0:0:
471,76,196266,6,0,P|424:41|350:40,1,112,6|0,3:2|3:0,0:0:0:0:
297,119,196948,1,2,3:2:0:0:
200,176,197289,1,2,3:2:0:0:
105,116,197630,2,0,P|55:174|59:317,1,224,2|2,3:2|3:2,0:0:0:0:
157,366,198652,2,0,P|180:348|212:342,1,56,0|0,3:0|0:0,0:0:0:0:
258,360,198993,5,2,3:2:0:0:
341,288,199334,1,0,3:0:0:0:
274,198,199675,2,0,P|255:148|261:86,1,112,2|0,3:2|3:0,0:0:0:0:
355,32,200357,2,0,P|419:77|468:221,1,224,2|2,3:2|3:2,0:0:0:0:
385,285,201380,2,0,P|370:305|363:339,1,56,0|0,3:0|0:0,0:0:0:0:
327,378,201721,5,6,3:2:0:0:
237,311,202061,2,0,P|191:286|117:283,1,112,0|2,3:0|3:2,0:0:0:0:
75,183,202743,1,0,3:0:0:0:
183,160,203084,2,0,P|203:112|207:46,1,112,2|0,3:2|3:0,0:0:0:0:
102,12,203766,2,0,P|80:25|32:24,1,56,2|0,3:2|0:0,0:0:0:0:
23,77,204107,1,2,3:2:0:0:
66,180,204448,6,0,P|115:200|176:206,1,112,2|0,3:2|3:0,0:0:0:0:
211,254,204959,1,0,0:0:0:0:
211,254,205130,2,0,B|255:217|255:217|317:235,1,112,2|2,3:2|3:2,0:0:0:0:
393,304,205811,5,10,0:0:0:0:
471,223,206152,1,10,0:0:0:0:
443,114,206493,1,10,0:0:0:0:
343,62,206834,2,0,B|319:81|319:81|278:74,1,56,10|8,0:0|0:0,0:0:0:0:
245,40,207175,6,0,P|227:101|233:172,1,123.200003759766,6|8,3:2|0:0,0:0:0:0:
195,211,207686,1,0,0:0:0:0:
195,211,207857,2,0,P|145:173|77:168,1,123.200003759766,2|8,3:2|0:0,0:0:0:0:
15,64,208539,2,0,B|73:66|73:66|139:20,1,123.200003759766,2|8,3:2|0:0,0:0:0:0:
220,109,209221,2,0,P|230:75|245:46,1,61.6000018798829,2|0,3:2|0:0,0:0:0:0:
299,31,209561,1,10,0:0:0:0:
416,82,209902,5,2,3:2:0:0:
416,82,210073,2,0,P|449:67|486:67,2,61.6000018798829,0|8|0,0:0|0:0|0:0,0:0:0:0:
372,125,210584,2,0,B|356:165|356:165|383:259,1,123.200003759766,2|8,3:2|0:0,0:0:0:0:
293,332,211266,2,0,P|266:327|234:300,1,61.6000018798829,2|0,3:2|0:0,0:0:0:0:
201,258,211607,1,8,0:0:0:0:
271,154,211948,2,0,P|286:94|277:23,1,123.200003759766,2|8,3:2|0:0,0:0:0:0:
226,13,212459,1,8,0:0:0:0:
226,13,212630,5,6,3:2:0:0:
160,117,212971,2,0,B|103:140|103:140|30:100,1,123.200003759766,8|2,0:0|3:2,0:0:0:0:
20,230,213652,2,0,P|24:258|38:294,1,61.6000018798829,8|0,0:0|0:0,0:0:0:0:
90,316,213993,2,0,P|133:287|151:204,1,123.200003759766,2|8,3:2|0:0,0:0:0:0:
215,114,214675,2,0,B|252:106|252:106|281:108,1,61.6000018798829,2|0,3:2|0:0,0:0:0:0:
331,133,215016,1,8,0:0:0:0:
421,216,215357,6,0,B|434:242|434:242|427:277,1,61.6000018798829,4|0,3:2|3:0,0:0:0:0:
389,322,215698,2,0,B|340:283|340:283|273:301,1,123.200003759766,8|0,0:0|3:0,0:0:0:0:
168,350,216380,1,2,0:0:0:0:
81,262,216721,2,0,B|54:267|54:267|19:246,2,61.6000018798829,6|10|10,3:2|0:0|0:0,0:0:0:0:
171,174,217402,2,0,P|228:157|295:171,1,123.200003759766,10|10,0:0|0:0,0:0:0:0:
399,243,218084,5,6,3:2:0:0:
399,243,218255,2,0,B|437:231|437:231|451:195,2,63.2800001931152,0|8|0,0:0|0:0|0:0,0:0:0:0:
335,243,218766,2,0,P|310:307|338:367,1,126.56000038623,2|8,3:2|0:0,0:0:0:0:
203,370,219448,2,0,B|148:359|148:359|137:364|137:364|73:346,1,126.56000038623,2|8,3:2|0:0,0:0:0:0:
34,231,220130,1,2,3:2:0:0:
144,167,220471,2,0,B|156:131|156:131|146:100,1,63.2800001931152,14|0,0:0|0:0,0:0:0:0:
104,61,220811,5,6,3:2:0:0:
104,61,220982,2,0,P|88:24|88:1,2,63.2800001931152,0|8|0,0:0|0:0|0:0,0:0:0:0:
48,94,221493,2,0,P|29:133|26:222,1,126.56000038623,2|8,3:2|0:0,0:0:0:0:
106,311,222175,2,0,B|135:293|135:293|177:289,1,63.2800001931152,10|8,3:2|0:0,0:0:0:0:
213,250,222516,2,0,B|274:266|274:266|280:274|280:274|347:295,1,126.56000038623,12|2,0:0|3:2,0:0:0:0:
443,347,223198,2,0,B|439:314|439:314|463:284,1,63.2800001931152,8|8,0:0|0:0,0:0:0:0:
491,236,223539,5,6,3:2:0:0:
397,150,223880,2,0,P|379:95|378:11,1,126.56000038623,8|2,0:0|3:2,0:0:0:0:
249,13,224561,2,0,B|201:20|201:20|186:31|186:31|121:42,1,126.56000038623,8|2,0:0|3:2,0:0:0:0:
71,155,225243,2,0,P|105:163|142:181,1,63.2800001931152,8|2,0:0|0:0,0:0:0:0:
180,213,225584,2,0,P|247:216|304:160,1,126.56000038623,2|8,3:2|0:0,0:0:0:0:
383,93,226266,6,0,P|358:61|358:27,2,63.2800001931152,6|0|8,3:2|0:0|0:0,0:0:0:0:
445,120,226777,1,0,3:0:0:0:
445,120,226948,2,0,B|460:172|460:172|445:256,1,126.56000038623,6|8,3:2|0:0,0:0:0:0:
370,344,227630,2,0,P|348:330|307:325,1,63.2800001931152,6|8,3:2|0:0,0:0:0:0:
273,274,227971,2,0,P|243:294|200:295,1,63.2800001931152,10|0,0:0|0:0,0:0:0:0:
164,261,228311,1,2,3:2:0:0:
64,339,228652,1,2,3:2:0:0:
26,222,228993,5,6,0:0:0:0:
100,172,230357,5,2,0:0:0:0:
41,44,231209,5,0,3:0:0:0:
41,44,231380,2,0,B|66:66|66:66|106:65,1,56,14|0,0:0|0:0,0:0:0:0:
140,43,231724,6,0,P|178:88|186:157,1,112,6|8,3:2|0:0,0:0:0:0:
270,214,232405,2,0,P|292:197|326:183,2,56,2|0|8,3:2|0:0|0:0,0:0:0:0:
242,263,232917,1,0,0:0:0:0:
242,263,233087,2,0,B|264:304|264:304|343:323,1,112,2|8,3:2|0:0,0:0:0:0:
436,292,233769,1,2,3:2:0:0:
484,191,234110,2,0,B|466:162|466:162|464:127,1,56,8|0,0:0|0:0,0:0:0:0:
433,93,234451,6,0,P|387:130|329:124,1,112,2|10,3:2|0:0,0:0:0:0:
264,40,235133,2,0,P|244:22|206:19,2,56,2|0|8,3:2|0:0|0:0,0:0:0:0:
200,117,235814,2,0,B|174:117|174:117|134:141,1,56,10|8,0:0|0:0,0:0:0:0:
125,177,236155,2,0,P|127:238|110:293,1,112,6|2,0:0|3:2,0:0:0:0:
69,320,236667,1,8,0:0:0:0:
69,320,236837,1,10,0:0:0:0:
166,373,237178,6,0,P|191:365|231:359,1,56,6|0,3:2|0:0,0:0:0:0:
273,343,237519,2,0,P|234:297|225:239,1,112,14|2,0:0|3:2,0:0:0:0:
302,167,238201,1,8,0:0:0:0:
396,227,238542,2,0,B|450:222|450:222|457:214|457:214|512:209,2,112,2|8|2,3:2|0:0|3:2,0:0:0:0:
375,279,239394,1,0,0:0:0:0:
375,279,239564,2,0,P|348:272|312:269,1,56,8|0,0:0|0:0,0:0:0:0:
290,316,239905,6,0,P|253:347|181:354,1,112,6|8,3:2|0:0,0:0:0:0:
93,302,240587,1,6,3:2:0:0:
145,203,240928,1,8,0:0:0:0:
60,129,241269,2,0,B|42:97|49:71|49:71|76:58|95:15,1,112,10|2,0:0|0:0,0:0:0:0:
135,11,241780,1,8,0:0:0:0:
135,11,241951,2,0,B|156:33|156:33|194:26,1,56,10|8,0:0|0:0,0:0:0:0:
236,17,242292,1,8,0:0:0:0:
319,92,242633,6,0,P|339:236|200:145,1,392,6|8,0:0|0:0,0:0:0:0:
222,98,243996,1,10,0:0:0:0:
