osu file format v14

[General]
AudioFilename: audio.mp3
AudioLeadIn: 0
PreviewTime: 48897
Countdown: 0
SampleSet: Soft
StackLeniency: 0.7
Mode: 0
LetterboxInBreaks: 0
WidescreenStoryboard: 0

[Editor]
Bookmarks: 16270,27179,38088,48997,59906,73545,84454,95363,106272,117181,128090,141721,152630,163539,174448,185357,196266,207175,218084,231724,243996
DistanceSpacing: 1.4
BeatDivisor: 4
GridSize: 16
TimelineZoom: 1.100001

[Metadata]
Title:Fansa
TitleUnicode:ファンサ
Artist:Takamiya Rion
ArtistUnicode:鷹宮リオン
Creator:Hinsvar
Version:Idol
Source:
Tags:Fanservice Virtual YouTuber VTuber にじさんじ Nijisanji 2434 HoneyWorks cover Japanese Pop J-Pop JPop 告白実行委員会 ~アイドルシリーズ~ Confession Executive Committee ~Idol Series~
BeatmapID:2500483
BeatmapSetID:1200696

[Difficulty]
HPDrainRate:6
CircleSize:4
OverallDifficulty:8
ApproachRate:9
SliderMultiplier:1.6
SliderTickRate:1

[Events]
//Background and Video events
0,0,"rion.jpg",0,0
Video,0,"fansa.mp4"
//Break Periods
2,73742,83854
2,141921,152030
2,185557,194984
//Storyboard Layer 0 (Background)
//Storyboard Layer 1 (Fail)
//Storyboard Layer 2 (Pass)
//Storyboard Layer 3 (Foreground)
//Storyboard Layer 4 (Overlay)
//Storyboard Sound Samples

[TimingPoints]
16270,340.909090909091,4,2,1,30,1,0
16270,-133.333333333333,4,2,1,30,0,0
21298,-133.333333333333,4,2,1,5,0,0
21383,-133.333333333333,4,2,1,30,0,0
24025,-133.333333333333,4,2,1,5,0,0
24110,-133.333333333333,4,2,1,30,0,0
26497,-66.6666666666667,4,2,1,40,0,0
27179,-100,4,2,1,50,0,0
29309,-100,4,2,1,5,0,0
29395,-100,4,2,1,50,0,0
29480,-100,4,2,1,5,0,0
29565,-100,4,2,1,50,0,0
29906,-100,4,2,1,50,0,0
32207,-100,4,2,1,5,0,0
32292,-100,4,2,1,50,0,0
32633,-100,4,2,1,50,0,0
34764,-100,4,2,1,5,0,0
34849,-100,4,2,1,50,0,0
34934,-100,4,2,1,5,0,0
35020,-100,4,2,1,50,0,0
35360,-100,4,2,1,50,0,0
36724,-80,4,2,1,50,0,0
36895,-80,4,2,1,5,0,0
36980,-80,4,2,1,50,0,0
37150,-80,4,2,1,5,0,0
37235,-80,4,2,1,50,0,0
37321,-80,4,2,1,5,0,0
37406,-100,4,2,1,50,0,0
38088,-200,4,2,1,40,0,0
39025,-200,4,2,1,5,0,0
39110,-80,4,2,1,40,0,0
39366,-80,4,2,1,5,0,0
39451,-200,4,2,1,40,0,0
40474,-80,4,2,1,40,0,0
40730,-80,4,2,1,5,0,0
40815,-200,4,2,1,40,0,0
41752,-200,4,2,1,5,0,0
41838,-80,4,2,1,40,0,0
42093,-80,4,2,1,5,0,0
42179,-200,4,2,1,40,0,0
43201,-80,4,2,1,40,0,0
43457,-80,4,2,1,5,0,0
43542,-200,4,2,1,40,0,0
44480,-200,4,2,1,5,0,0
44565,-80,4,2,1,40,0,0
44821,-80,4,2,1,5,0,0
44906,-200,4,2,1,40,0,0
45588,-100,4,2,1,40,0,0
45843,-100,4,2,1,5,0,0
45929,-80,4,2,1,40,0,0
46184,-80,4,2,1,5,0,0
46270,-133.333333333333,4,2,1,40,0,0
47633,-88.4955752212389,4,2,1,40,0,0
48315,-88.4955752212389,4,2,1,40,0,0
48656,-88.4955752212389,4,2,1,50,0,0
48997,-88.4955752212389,4,2,1,60,0,1
51042,-66.6666666666667,4,2,1,60,0,1
51298,-66.6666666666667,4,2,1,5,0,1
51383,-66.6666666666667,4,2,1,60,0,1
51724,-88.4955752212389,4,2,1,60,0,1
53002,-88.4955752212389,4,2,1,5,0,1
53088,-88.4955752212389,4,2,1,60,0,1
53770,-66.6666666666667,4,2,1,60,0,1
54025,-66.6666666666667,4,2,1,5,0,1
54110,-66.6666666666667,4,2,1,60,0,1
54451,-88.4955752212389,4,2,1,60,0,1
55730,-88.4955752212389,4,2,1,5,0,1
55815,-88.4955752212389,4,2,1,60,0,1
57179,-80,4,2,1,60,0,1
58542,-66.6666666666667,4,2,1,60,0,1
59224,-200,4,2,1,60,0,1
59565,-200,4,2,1,60,0,0
59906,-88.4955752212389,4,2,1,60,0,1
61951,-66.6666666666667,4,2,1,60,0,1
62207,-66.6666666666667,4,2,1,5,0,1
62292,-66.6666666666667,4,2,1,60,0,1
62633,-88.4955752212389,4,2,1,60,0,1
63912,-88.4955752212389,4,2,1,5,0,1
63997,-88.4955752212389,4,2,1,60,0,1
64679,-66.6666666666667,4,2,1,60,0,1
64934,-66.6666666666667,4,2,1,5,0,1
65020,-66.6666666666667,4,2,1,60,0,1
65360,-88.4955752212389,4,2,1,60,0,1
69451,-66.6666666666667,4,2,1,60,0,1
70133,-200,4,2,1,60,0,1
70389,-200,4,2,1,5,0,1
70474,-200,4,2,1,60,0,1
70815,-200,4,2,1,40,0,0
73116,-200,4,2,1,5,0,0
73201,-66.6666666666667,4,2,1,40,0,0
73456,-66.6666666666667,4,2,1,5,0,0
73545,340.909090909091,4,2,1,50,1,1
73630,-100,4,2,1,50,0,0
84454,-133.333333333333,4,2,1,30,0,0
95022,-100,4,2,1,40,0,0
95363,-100,4,2,1,50,0,0
98090,-100,4,2,1,50,0,0
100221,-100,4,2,1,5,0,0
100306,-100,4,2,1,50,0,0
100391,-100,4,2,1,5,0,0
100476,-100,4,2,1,50,0,0
100817,-100,4,2,1,50,0,0
103204,-100,4,2,1,50,0,0
103545,-100,4,2,1,50,0,0
105846,-100,4,2,1,5,0,0
105931,-100,4,2,1,50,0,0
106272,-200,4,2,1,40,0,0
106954,-100,4,2,1,40,0,0
107209,-100,4,2,1,5,0,0
107295,-80,4,2,1,40,0,0
107550,-80,4,2,1,5,0,0
107635,-200,4,2,1,40,0,0
108658,-80,4,2,1,40,0,0
108914,-80,4,2,1,5,0,0
108999,-200,4,2,1,40,0,0
110022,-80,4,2,1,40,0,0
110277,-80,4,2,1,5,0,0
110363,-200,4,2,1,40,0,0
112408,-100,4,2,1,40,0,0
112664,-100,4,2,1,5,0,0
112749,-80,4,2,1,40,0,0
113005,-80,4,2,1,5,0,0
113090,-200,4,2,1,40,0,0
113772,-100,4,2,1,40,0,0
114027,-100,4,2,1,5,0,0
114113,-80,4,2,1,40,0,0
114368,-80,4,2,1,5,0,0
114454,-200,4,2,1,40,0,0
115135,-100,4,2,1,40,0,0
115476,-200,4,2,1,40,0,0
115732,-200,4,2,1,5,0,0
115817,-88.4955752212389,4,2,1,40,0,0
116840,-88.4955752212389,4,2,1,50,0,0
117181,-88.4955752212389,4,2,1,60,0,1
119226,-66.6666666666667,4,2,1,60,0,1
119482,-88.4955752212389,4,2,1,5,0,1
119567,-66.6666666666667,4,2,1,60,0,1
119908,-88.4955752212389,4,2,1,60,0,1
121954,-66.6666666666667,4,2,1,60,0,1
122209,-66.6666666666667,4,2,1,5,0,1
122295,-66.6666666666667,4,2,1,60,0,1
122635,-88.4955752212389,4,2,1,60,0,1
123914,-88.4955752212389,4,2,1,5,0,1
123999,-88.4955752212389,4,2,1,60,0,1
125363,-80,4,2,1,60,0,1
126726,-80,4,2,1,60,0,1
127408,-66.6666666666667,4,2,1,60,0,1
127749,-66.6666666666667,4,2,1,60,0,0
128090,-88.4955752212389,4,2,1,60,0,1
129027,-88.4955752212389,4,2,1,5,0,1
129113,-88.4955752212389,4,2,1,60,0,1
129368,-88.4955752212389,4,2,1,5,0,1
129454,-88.4955752212389,4,2,1,60,0,1
130135,-66.6666666666667,4,2,1,60,0,1
130391,-66.6666666666667,4,2,1,5,0,1
130476,-66.6666666666667,4,2,1,60,0,1
130732,-66.6666666666667,4,2,1,5,0,1
130817,-88.4955752212389,4,2,1,60,0,1
132096,-88.4955752212389,4,2,1,5,0,1
132181,-88.4955752212389,4,2,1,60,0,1
133118,-88.4955752212389,4,2,1,5,0,1
133204,-66.6666666666667,4,2,1,60,0,1
133545,-88.4955752212389,4,2,1,60,0,1
134823,-88.4955752212389,4,2,1,5,0,1
134908,-88.4955752212389,4,2,1,60,0,1
135505,-88.4955752212389,4,2,1,5,0,1
135590,-88.4955752212389,4,2,1,60,0,1
136272,-80,4,2,1,60,0,1
138999,-200,4,2,1,40,0,0
141300,-200,4,2,1,5,0,0
141385,-133.333333333333,4,2,1,40,0,0
141641,-66.6666666666667,4,2,1,5,0,0
141721,340.909090909091,4,2,1,30,1,0
152630,-200,4,2,1,30,0,0
162857,-133.333333333333,4,2,1,40,0,0
163113,-133.333333333333,4,2,1,5,0,0
163198,-133.333333333333,4,2,1,40,0,0
163453,-133.333333333333,4,2,1,5,0,0
163539,-100,4,2,1,50,0,0
164817,-100,4,2,1,5,0,0
164902,-100,4,2,1,50,0,0
166181,-100,4,2,1,5,0,0
166266,-100,4,2,1,50,0,0
167885,-100,4,2,1,5,0,0
167971,-100,4,2,1,50,0,0
170272,-100,4,2,1,5,0,0
170357,-100,4,2,1,50,0,0
171635,-100,4,2,1,5,0,0
171721,-100,4,2,1,50,0,0
172402,-100,4,2,1,5,0,0
172488,-100,4,2,1,50,0,0
172658,-100,4,2,1,5,0,0
172743,-100,4,2,1,50,0,0
172999,-100,4,2,1,5,0,0
173084,-100,4,2,1,50,0,0
173681,-100,4,2,1,5,0,0
173766,-200,4,2,1,30,0,0
174448,-200,4,2,1,40,0,0
175385,-200,4,2,1,5,0,0
175471,-80,4,2,1,40,0,0
175726,-80,4,2,1,5,0,0
175811,-200,4,2,1,40,0,0
176834,-80,4,2,1,40,0,0
177090,-80,4,2,1,5,0,0
177175,-200,4,2,1,40,0,0
178113,-200,4,2,1,5,0,0
178198,-80,4,2,1,40,0,0
178453,-80,4,2,1,5,0,0
178539,-200,4,2,1,40,0,0
179561,-80,4,2,1,30,0,0
179817,-80,4,2,1,5,0,0
179902,-200,4,2,1,40,0,0
180925,-80,4,2,1,40,0,0
181181,-80,4,2,1,5,0,0
181266,-200,4,2,1,40,0,0
182203,-200,4,2,1,5,0,0
182289,-80,4,2,1,40,0,0
182544,-200,4,2,1,5,0,0
182630,-200,4,2,1,30,0,0
196181,-200,4,2,1,5,0,0
196266,-133.333333333333,4,2,1,30,0,0
201635,-133.333333333333,4,2,1,5,0,0
201721,-133.333333333333,4,2,1,30,0,0
203766,-114.942528735632,4,2,1,30,0,0
204448,-100,4,2,1,35,0,0
205726,-100,4,2,1,5,0,0
205811,-80,4,2,1,40,0,0
206067,-80,4,2,1,5,0,0
206152,-66.6666666666667,4,2,1,45,0,0
206408,-66.6666666666667,4,2,1,5,0,0
206493,-57.1428571428571,4,2,1,50,0,0
206749,-57.1428571428571,4,2,1,5,0,0
206834,-50,4,2,1,55,0,0
207090,-50,4,2,1,5,0,0
207175,-88.4955752212389,4,2,1,60,0,1
209221,-66.6666666666667,4,2,1,60,0,1
209476,-66.6666666666667,4,2,1,5,0,1
209561,-66.6666666666667,4,2,1,60,0,1
209902,-88.4955752212389,4,2,1,60,0,1
211948,-66.6666666666667,4,2,1,60,0,1
212203,-66.6666666666667,4,2,1,5,0,1
212289,-66.6666666666667,4,2,1,60,0,1
212630,-88.4955752212389,4,2,1,60,0,1
213908,-88.4955752212389,4,2,1,5,0,1
213993,-88.4955752212389,4,2,1,60,0,1
215357,-80,4,2,1,60,0,1
216721,-66.6666666666667,4,2,1,60,0,1
217061,-88.4955752212389,4,2,1,60,0,1
217573,-66.6666666666667,4,2,1,60,0,1
217743,-200,4,2,1,60,0,0
218084,-88.4955752212389,4,2,1,60,0,1
220130,-80,4,2,1,60,0,1
220385,-80,4,2,1,5,0,1
220471,-57.1428571428571,4,2,1,60,0,1
220726,-57.1428571428571,4,2,1,5,0,1
220811,-88.4955752212389,4,2,1,60,0,1
224817,-88.4955752212389,4,2,1,5,0,1
224902,-88.4955752212389,4,2,1,60,0,1
226266,-80,4,2,1,60,0,1
228993,-200,4,2,1,40,0,0
231294,-200,4,2,1,5,0,0
231380,-66.6666666666667,4,2,1,40,0,0
231635,-66.6666666666667,4,2,1,5,0,0
231724,340.909090909091,4,2,1,50,1,1
231809,-100,4,2,1,50,0,0
233684,-100,4,2,1,5,0,0
233769,-100,4,2,1,50,0,0
234706,-100,4,2,1,5,0,0
234792,-100,4,2,1,50,0,0
236155,-100,4,2,1,50,0,0
237434,-100,4,2,1,5,0,0
237519,-100,4,2,1,50,0,0
240843,-100,4,2,1,5,0,0
240928,-100,4,2,1,50,0,0
241184,-100,4,2,1,5,0,0
241269,-100,4,2,1,50,0,0
242633,-400,4,2,1,40,0,0
243655,-400,4,2,1,5,0,0
243826,-100,4,2,1,40,0,0

[Colours]
Combo1 : 237,29,221
Combo2 : 242,130,249
Combo3 : 234,119,142
Combo4 : 250,218,65

[HitObjects]
125,272,16270,5,6,3:2:0:0:
125,272,16610,2,0,P|138:246|144:206,1,60.0000022888184,0|0,3:0|0:0,0:0:0:0:
208,143,16951,2,0,B|249:144|267:160|260:166|284:180|345:178,1,120.000004577637,2|0,3:2|3:0,0:0:0:0:
396,224,17463,1,0,0:0:0:0:
333,325,17633,6,0,P|262:280|271:247,1,120.000004577637,2|0,3:2|3:0,0:0:0:0:
451,80,18315,2,0,P|391:77|332:109,1,120.000004577637,2|0,3:2|3:0,0:0:0:0:
385,178,18826,1,0,0:0:0:0:
261,240,18997,5,2,3:2:0:0:
261,240,19167,2,0,P|245:183|243:115,1,120.000004577637
174,0,19679,1,2,3:2:0:0:
258,40,19849,2,0,P|324:38|363:2,1,120.000004577637
455,78,20360,6,0,P|461:133|437:195,1,120.000004577637,2|0,3:2|3:0,0:0:0:0:
442,205,21042,2,0,P|395:204|355:239,1,90.0000034332277,2|0,3:2|0:0,0:0:0:0:
304,177,21383,2,0,P|329:203|358:211,1,60.0000022888184,2|0,3:2|0:0,0:0:0:0:
395,55,21724,5,2,3:2:0:0:
317,13,21895,2,0,P|256:21|196:49,1,120.000004577637
97,28,22406,1,2,3:2:0:0:
97,28,22576,2,0,P|124:87|130:155,1,120.000004577637
36,260,23088,6,0,P|71:303|144:308,1,120.000004577637,2|0,3:2|3:0,0:0:0:0:
143,321,23770,2,0,P|145:270|163:225,1,90.0000034332277,2|0,3:2|0:0,0:0:0:0:
222,273,24110,2,0,P|190:251|179:220,1,60.0000022888184,0|0,3:0|0:0,0:0:0:0:
152,101,24451,5,2,3:2:0:0:
211,39,24622,2,0,P|273:49|338:83,1,120.000004577637
415,196,25133,1,2,3:2:0:0:
457,119,25304,2,0,P|485:96|518:89,2,60.0000022888184,0|0|0,0:0|3:0|0:0,0:0:0:0:
398,298,25815,5,2,3:2:0:0:
398,298,25985,1,0,3:0:0:0:
332,204,26156,2,0,B|304:192|304:192|269:201,1,60.0000022888184,2|0,3:2|0:0,0:0:0:0:
177,346,26497,5,14,0:0:0:0:
90,221,26667,1,0,3:0:0:0:
108,227,26752,1,0,3:0:0:0:
135,266,26838,5,8,0:0:0:0:
138,218,26923,1,8,0:0:0:0:
169,182,27008,1,8,0:0:0:0:
216,179,27093,1,8,0:0:0:0:
253,215,27179,6,0,B|299:243|334:220|329:214|361:191|406:224,1,160,6|10,0:0|0:0,0:0:0:0:
460,307,27690,1,0,0:0:0:0:
508,156,27860,2,0,P|476:73|412:59,1,160,0|10,3:0|0:0,0:0:0:0:
335,166,28372,1,0,0:0:0:0:
209,100,28542,6,0,P|206:59|220:15,1,80,0|0,3:0|0:0,0:0:0:0:
79,66,28883,1,10,0:0:0:0:
172,179,29054,1,2,0:0:0:0:
172,179,29139,1,2,0:0:0:0:
172,179,29224,6,0,P|192:188|224:191,1,40,2|0,3:2|0:0,0:0:0:0:
150,215,29395,2,0,P|171:216|202:208,1,40,0|0,3:0|0:0,0:0:0:0:
253,306,29565,1,8,0:0:0:0:
68,142,29906,6,0,P|65:94|89:52,1,80,0|0,3:0|0:0,0:0:0:0:
238,27,30247,1,10,0:0:0:0:
305,95,30417,2,0,P|313:172|264:233,1,160,0|0,0:0|3:0,0:0:0:0:
197,284,30843,1,0,0:0:0:0:
197,284,30929,2,0,B|212:244|212:244|177:200,1,80,10|0,0:0|0:0,0:0:0:0:
46,288,31270,5,0,3:0:0:0:
116,358,31440,1,2,0:0:0:0:
279,283,31610,2,0,B|313:261|313:261|360:286,1,80,10|0,0:0|0:0,0:0:0:0:
373,207,31866,1,0,0:0:0:0:
373,207,31951,2,0,P|320:218|245:190,1,120,2|0,3:2|0:0,0:0:0:0:
184,225,32292,2,0,B|172:203|172:203|197:138,1,80,10|0,0:0|0:0,0:0:0:0:
49,46,32633,6,0,P|81:69|124:65,1,80,4|0,0:0|0:0,0:0:0:0:
261,14,32974,1,10,0:0:0:0:
330,69,33145,2,0,B|360:114|335:149|327:139|306:179|342:223,1,160,0|0,0:0|3:0,0:0:0:0:
460,290,33656,2,0,B|481:262|481:262|472:210,1,80,10|0,0:0|0:0,0:0:0:0:
402,40,33997,5,0,3:0:0:0:
490,126,34167,1,0,0:0:0:0:
338,101,34338,2,0,B|303:104|303:104|297:109|297:109|248:115,1,80,10|0,0:0|0:0,0:0:0:0:
172,142,34593,1,0,0:0:0:0:
172,142,34679,6,0,P|190:154|203:170,1,40,2|0,3:2|0:0,0:0:0:0:
147,152,34849,2,0,P|165:164|178:180,1,40,0|0,3:0|0:0,0:0:0:0:
201,276,35020,2,0,B|183:287|183:287|122:243,1,80,10|0,0:0|0:0,0:0:0:0:
350,332,35360,6,0,P|367:298|364:249,1,80,0|0,3:0|0:0,0:0:0:0:
262,171,35701,1,10,0:0:0:0:
355,73,35872,2,0,B|305:46|272:74|279:78|247:104|194:83,1,160
48,201,36383,2,0,B|88:192|88:192|128:219,1,80,10|0,0:0|0:0,0:0:0:0:
256,361,36724,6,0,B|274:317|274:317|277:260,1,100,6|0,3:2|0:0,0:0:0:0:
354,309,36980,2,0,B|381:270|381:270|361:212,1,100,2|0,3:2|0:0,0:0:0:0:
426,147,37235,2,0,B|397:146|397:146|372:131,1,50,2|0,3:2|0:0,0:0:0:0:
321,35,37406,5,6,0:0:0:0:
239,175,37576,1,8,0:0:0:0:
239,175,37662,1,8,0:0:0:0:
239,175,37747,2,0,B|203:156|203:156|161:181,1,80,8|0,0:0|0:0,0:0:0:0:
38,39,38088,6,0,P|59:73|104:62,1,80,6|0,3:2|0:0,0:0:0:0:
175,127,38599,1,0,3:0:0:0:
293,17,38770,6,0,B|310:28|310:28|316:84,1,60,10|0,0:0|0:0,0:0:0:0:
348,175,39110,6,0,P|332:110|403:70,1,150,2|0,0:0|0:0,0:0:0:0:
395,253,39451,5,2,3:2:0:0:
455,193,39622,2,0,P|417:167|380:170,1,80,8|0,0:0|0:0,0:0:0:0:
233,256,40133,1,10,0:0:0:0:
233,256,40474,6,0,P|309:212|293:190,1,150,2|0,0:0|0:0,0:0:0:0:
193,120,40815,5,4,3:2:0:0:
114,175,40985,2,0,P|111:136|83:108,1,80,0|0,0:0|3:0,0:0:0:0:
103,299,41497,2,0,B|127:281|127:281|162:288,1,60,10|0,0:0|0:0,0:0:0:0:
205,205,41838,6,0,P|177:262|247:296,1,150,2|0,3:2|0:0,0:0:0:0:
329,213,42179,5,2,3:2:0:0:
275,150,42349,2,0,B|308:126|308:126|357:136,1,80,8|0,0:0|3:0,0:0:0:0:
413,295,42860,1,10,0:0:0:0:
423,276,43031,1,0,3:0:0:0:
274,347,43201,6,0,B|229:332|209:311|209:311|173:321|126:304,1,150,2|0,3:2|0:0,0:0:0:0:
76,230,43542,6,0,P|118:229|141:190,1,80,4|0,3:2|0:0,0:0:0:0:
68,108,44054,1,0,3:0:0:0:
226,158,44224,2,0,B|220:127|220:127|236:91,1,60,10|0,0:0|0:0,0:0:0:0:
299,201,44565,6,0,P|307:122|252:75,1,150,2|0,3:2|0:0,0:0:0:0:
138,159,44906,5,2,3:2:0:0:
212,257,45076,2,0,P|241:231|281:232,1,80,8|0,0:0|3:0,0:0:0:0:
376,83,45588,6,0,B|413:111|413:111|430:193,1,120,10|0,0:0|0:0,0:0:0:0:
450,284,45929,6,0,P|454:224|513:137,1,150,2|0,0:0|0:0,0:0:0:0:
376,238,46270,5,4,3:2:0:0:
307,78,46440,1,8,0:0:0:0:
161,155,46610,5,2,3:2:0:0:
190,166,46781,1,8,0:0:0:0:
143,11,46951,6,0,P|106:54|39:41,1,120.000004577637,10|0,0:0|3:0,0:0:0:0:
3,230,47633,5,4,3:2:0:0:
3,230,48315,2,0,P|9:253|26:283,1,45.2000001379395,2|0,3:2|0:0,3:2:0:0:
99,340,48485,1,0,3:0:0:0:
118,335,48571,1,0,3:0:0:0:
175,351,48656,5,10,0:0:0:0:
142,300,48741,1,10,0:0:0:0:
164,244,48826,1,10,0:0:0:0:
224,240,48912,1,10,0:0:0:0:
257,292,48997,6,0,P|339:331|450:336,1,180.800000551758,4|8,3:2|0:0,0:0:0:0:
318,157,49508,1,0,0:0:0:0:
512,236,49679,2,0,P|467:231|421:253,1,90.4000002758789,2|0,3:2|0:0,0:0:0:0:
279,364,50020,2,0,B|254:325|254:325|274:267,1,90.4000002758789,8|0,0:0|0:0,0:0:0:0:
170,66,50360,6,0,P|186:134|138:246,1,180.800000551758,2|8,3:2|0:0,0:0:0:0:
60,305,50872,1,0,0:0:0:0:
277,373,51042,6,0,B|344:348|373:307|373:307|351:275|319:267,1,180.000006866455,2|0,3:2|0:0,0:0:0:0:
221,314,51383,1,10,0:0:0:0:
208,310,51468,1,8,0:0:0:0:
196,307,51554,1,8,0:0:0:0:
319,120,51724,5,2,3:2:0:0:
172,218,51895,2,0,P|156:173|161:124,2,90.4000002758789,0|8|0,0:0|0:0|0:0,0:0:0:0:
275,53,52406,2,0,P|245:15|196:-1,1,90.4000002758789,2|0,3:2|0:0,0:0:0:0:
358,200,52747,2,0,P|398:217|466:159,1,135.600000413818,8|0,0:0|0:0,0:0:0:0:
418,101,53088,5,2,3:2:0:0:
345,297,53258,1,0,0:0:0:0:
345,297,53343,1,0,0:0:0:0:
345,297,53429,2,0,B|305:269|305:269|254:281,1,90.4000002758789,10|0,0:0|0:0,0:0:0:0:
70,209,53770,6,0,P|91:136|147:187,1,180.000006866455,2|0,3:2|0:0,0:0:0:0:
126,262,54110,1,8,0:0:0:0:
286,13,54281,1,8,0:0:0:0:
311,27,54366,1,8,0:0:0:0:
325,45,54451,6,0,B|288:99|241:115|241:115|224:83|182:61,1,180.800000551758,6|8,3:2|0:0,0:0:0:0:
95,166,54963,1,0,0:0:0:0:
253,282,55133,2,0,P|229:240|241:192,1,90.4000002758789,2|0,3:2|0:0,0:0:0:0:
454,74,55474,2,0,B|454:37|430:16|430:16|402:16|366:51,1,135.600000413818,8|0,0:0|0:0,0:0:0:0:
341,120,55815,6,0,B|287:110|287:110|231:72|231:72|166:92,1,180.800000551758,2|8,3:2|0:0,0:0:0:0:
82,209,56326,1,0,0:0:0:0:
29,4,56497,2,0,P|63:31|119:28,1,90.4000002758789,2|0,3:2|0:0,0:0:0:0:
258,152,56838,1,8,0:0:0:0:
274,135,57179,6,0,P|272:82|298:41,1,100,6|0,3:2|0:0,0:0:0:0:
163,203,57520,1,8,0:0:0:0:
81,30,57690,1,0,3:0:0:0:
57,26,57775,1,0,3:0:0:0:
37,36,57860,2,0,B|91:81|90:126|90:126|114:88|163:73,1,200,6|8,3:2|0:0,0:0:0:0:
307,318,58542,6,0,P|259:355|201:332,1,120.000004577637,6|0,3:2|3:0,0:0:0:0:
195,218,58798,1,8,0:0:0:0:
174,240,58883,2,0,P|207:246|231:271,2,60.0000022888184,10|8|8,0:0|0:0|0:0,0:0:0:0:
404,102,59224,6,0,P|384:130|375:163,1,60,2|8,3:2|0:0,0:0:0:0:
362,256,59565,5,10,0:0:0:0:
349,262,59650,1,8,0:0:0:0:
336,268,59735,1,8,0:0:0:0:
323,274,59821,1,8,0:0:0:0:
309,279,59906,6,0,P|302:187|264:95,1,180.800000551758,4|8,3:2|0:0,0:0:0:0:
140,173,60417,1,0,0:0:0:0:
30,33,60588,2,0,P|68:52|122:58,1,90.4000002758789,2|0,3:2|0:0,0:0:0:0:
295,202,60929,2,0,B|268:206|249:200|249:200|239:212|200:225,1,90.4000002758789,8|0,0:0|0:0,0:0:0:0:
10,180,61270,6,0,P|21:270|67:363,1,180.800000551758,2|8,3:2|0:0,0:0:0:0:
114,227,61781,1,0,0:0:0:0:
251,293,61951,6,0,B|304:257|370:259|370:259|369:222|345:201,1,180.000006866455,2|0,3:2|0:0,0:0:0:0:
268,168,62292,1,10,0:0:0:0:
271,181,62377,1,8,0:0:0:0:
275,193,62463,1,8,0:0:0:0:
443,251,62633,5,2,3:2:0:0:
321,363,62804,2,0,P|363:365|400:336,2,90.4000002758789,0|8|0,0:0|0:0|0:0,0:0:0:0:
193,215,63315,2,0,P|186:256|216:307,1,90.4000002758789,2|0,3:2|0:0,0:0:0:0:
38,359,63656,2,0,B|49:335|73:322|73:322|88:283|61:238,1,135.600000413818,8|0,0:0|0:0,0:0:0:0:
22,162,63997,6,0,P|43:202|101:203,1,90.4000002758789,2|0,3:2|0:0,0:0:0:0:
180,12,64338,2,0,B|193:58|193:58|162:113,1,90.4000002758789,8|0,0:0|0:0,0:0:0:0:
263,151,64593,1,8,0:0:0:0:
240,169,64679,6,0,P|255:65|293:76,1,180.000006866455,10|0,0:0|0:0,0:0:0:0:
346,127,65020,1,8,0:0:0:0:
478,289,65190,1,8,0:0:0:0:
488,261,65275,1,8,0:0:0:0:
471,239,65360,6,0,B|418:260|418:260|357:249|357:249|298:275,1,180.800000551758,6|8,3:2|0:0,0:0:0:0:
423,339,65872,1,2,0:0:0:0:
348,169,66042,2,0,P|306:155|262:182,1,90.4000002758789,0|0,3:2|0:0,0:0:0:0:
135,53,66383,2,0,B|161:73|177:73|177:73|189:65|209:33,1,90.4000002758789,8|0,0:0|0:0,0:0:0:0:
136,233,66724,6,0,P|53:248|8:165,1,180.800000551758,2|8,3:2|0:0,0:0:0:0:
136,338,67235,1,0,0:0:0:0:
136,338,67321,1,0,0:0:0:0:
136,338,67406,2,0,B|192:349|192:349|222:322,1,90.4000002758789,2|0,3:2|0:0,0:0:0:0:
158,146,67747,1,8,0:0:0:0:
441,357,68088,6,0,P|418:305|435:260,1,90.4000002758789,6|0,3:2|0:0,0:0:0:0:
312,186,68429,1,8,0:0:0:0:
480,70,68599,1,0,3:0:0:0:
488,46,68684,1,0,3:0:0:0:
474,24,68770,2,0,B|439:25|417:15|417:15|364:42|364:42|339:28|282:38,1,180.800000551758,6|8,3:2|0:0,0:0:0:0:
18,105,69451,6,0,P|60:132|128:119,1,120.000004577637,6|0,3:2|0:0,0:0:0:0:
242,280,69792,1,10,0:0:0:0:
242,280,69877,1,8,0:0:0:0:
242,280,69963,1,8,0:0:0:0:
111,224,70133,6,0,P|86:220|43:239,1,60,2|0,3:2|0:0,0:0:0:0:
70,354,70474,5,10,0:0:0:0:
74,340,70559,1,8,0:0:0:0:
78,326,70645,1,8,0:0:0:0:
82,312,70730,1,8,0:0:0:0:
86,298,70815,6,0,B|114:234|68:161|64:194|19:114|57:59,1,240,6|0,3:2|0:0,0:0:0:0:
209,19,72008,1,0,0:0:0:0:
209,19,72093,1,0,0:0:0:0:
209,19,72179,5,2,0:0:0:0:
151,85,73031,2,0,P|163:93|182:96,1,20,0|0,3:0|0:0,0:0:0:0:
210,217,73201,6,0,B|232:179|222:129|222:129|174:133|140:174,1,180.000006866455,8|0,0:0|0:0,0:0:0:0:
112,284,73542,5,6,0:0:0:0:
483,138,84454,5,4,3:2:0:0:
483,138,84795,2,0,P|455:134|417:107,1,60.0000022888184,0|0,3:0|0:0,0:0:0:0:
376,41,85050,1,2,0:0:0:0:
364,25,85135,2,0,P|346:69|348:123,2,90.0000034332277,2|2|0,3:2|0:0|0:0,0:0:0:0:
242,76,85817,6,0,P|199:56|149:50,2,90.0000034332277,2|2|0,3:2|0:0|0:0,0:0:0:0:
122,160,86499,1,2,3:2:0:0:
122,160,86840,2,0,P|146:146|178:133,1,60.0000022888184,2|0,3:2|0:0,0:0:0:0:
262,252,87181,5,2,3:2:0:0:
321,184,87351,2,0,P|326:119|305:54,1,120.000004577637
407,93,87777,1,2,0:0:0:0:
422,107,87863,2,0,P|426:62|462:10,2,90.0000034332277,2|2|0,3:2|0:0|0:0,0:0:0:0:
470,308,88545,6,0,P|490:257|479:222,1,80.0000030517579,2|2,3:2|0:0,0:0:0:0:
419,184,88885,2,0,P|404:192|374:197,2,40.000001525879,2|2|2,3:2|0:0|0:0,0:0:0:0:
321,259,89226,6,0,P|280:245|234:249,1,80.0000030517579,2|2,3:2|0:0,0:0:0:0:
184,320,89567,5,2,3:2:0:0:
184,320,89681,1,2,0:0:0:0:
184,320,89795,1,2,0:0:0:0:
184,320,89908,6,0,P|123:297|93:237,1,120.000004577637,2|0,3:2|3:0,0:0:0:0:
174,145,90420,2,0,P|173:181|158:207,1,60.0000022888184,0|0,0:0|3:0,0:0:0:0:
49,87,90760,2,0,P|102:56|179:82,1,120.000004577637,2|0,0:0|0:0,0:0:0:0:
249,196,91272,5,2,3:2:0:0:
326,155,91442,2,0,P|331:104|279:64,1,120.000004577637,2|0,0:0|0:0,0:0:0:0:
149,102,91954,2,0,P|135:69|137:34,2,60.0000022888184,2|2|0,3:2|0:0|3:0,0:0:0:0:
227,189,92465,1,2,0:0:0:0:
398,68,92635,5,2,3:2:0:0:
398,68,92806,2,0,B|356:48|337:64|342:67|318:92|269:66,1,120.000004577637
202,173,93317,1,2,3:2:0:0:
158,90,93488,2,0,P|148:55|148:20,2,60.0000022888184,0|0|0,0:0|3:0|0:0,0:0:0:0:
118,225,93999,6,0,P|90:168|38:168,1,120.000004577637,2|0,3:2|0:0,0:0:0:0:
4,316,94510,1,2,3:2:0:0:
4,316,94596,1,2,3:2:0:0:
4,316,94681,2,0,P|36:316|75:297,1,60.0000022888184,2|0,3:2|0:0,0:0:0:0:
269,304,95022,6,0,B|255:296|240:271|240:271|222:269|200:282,1,80,10|8,0:0|0:0,0:0:0:0:
185,362,95277,1,8,0:0:0:0:
185,362,95363,6,0,P|165:286|165:205,1,160,4|10,0:0|0:0,0:0:0:0:
248,70,95874,1,0,0:0:0:0:
326,139,96045,2,0,P|288:141|247:164,1,80,0|0,3:0|0:0,0:0:0:0:
106,14,96385,2,0,B|142:30|142:30|186:19,1,80,10|0,0:0|0:0,0:0:0:0:
399,68,96726,6,0,P|359:127|380:221,1,160,0|10,3:0|0:0,0:0:0:0:
374,231,97408,2,0,B|344:259|344:259|304:254,1,80,2|0,3:2|0:0,0:0:0:0:
127,355,97749,2,0,B|112:312|112:312|120:264,1,80,10|0,0:0|0:0,0:0:0:0:
59,161,98090,6,0,P|81:190|128:180,1,80,0|0,3:0|0:0,0:0:0:0:
298,257,98431,2,0,B|319:294|299:332|299:332|260:327|221:346,1,160,10|0,0:0|3:0,0:0:0:0:
150,281,98942,1,0,0:0:0:0:
273,175,99113,2,0,B|290:139|290:139|278:100,1,80,10|0,0:0|0:0,0:0:0:0:
273,66,99368,1,0,0:0:0:0:
273,66,99454,6,0,P|239:88|191:100,1,80,0|0,3:0|0:0,0:0:0:0:
10,156,99795,2,0,B|31:142|55:145|55:145|80:171|131:184,1,120,10|0,0:0|3:0,0:0:0:0:
186,218,100135,6,0,P|166:222|144:207,1,40,2|0,3:2|0:0,0:0:0:0:
178,259,100306,2,0,P|158:254|144:231,1,40,0|0,3:0|0:0,0:0:0:0:
55,325,100476,1,10,0:0:0:0:
280,208,100817,6,0,P|303:235|303:281,1,80,4|0,0:0|0:0,0:0:0:0:
419,327,101158,2,0,B|475:283|475:283|442:184,1,160,10|0,0:0|3:0,0:0:0:0:
366,131,101670,1,0,0:0:0:0:
274,291,101840,2,0,B|238:305|238:305|196:278,1,80,10|0,0:0|0:0,0:0:0:0:
130,127,102181,5,0,3:0:0:0:
130,127,102351,1,0,3:0:0:0:
22,210,102522,2,0,B|60:227|60:227|112:216,1,80,10|0,0:0|0:0,0:0:0:0:
207,54,102863,2,0,P|223:82|231:131,1,80,2|0,3:2|0:0,0:0:0:0:
307,286,103204,1,10,0:0:0:0:
478,54,103545,6,0,P|432:57|402:41,1,80,4|0,0:0|3:0,0:0:0:0:
293,204,103885,1,10,0:0:0:0:
202,93,104056,1,0,3:0:0:0:
202,93,104141,1,0,3:0:0:0:
202,93,104226,2,0,P|266:88|304:8,1,160,6|10,0:0|0:0,0:0:0:0:
337,136,104738,1,0,0:0:0:0:
131,43,104908,6,0,B|97:67|80:106|80:106|102:107|123:124,1,120,2|8,3:2|0:0,0:0:0:0:
177,187,105249,1,2,3:2:0:0:
177,187,105334,1,0,3:0:0:0:
177,187,105420,1,0,3:0:0:0:
307,272,105590,6,0,P|342:231|328:166,1,120,4|0,0:0|0:0,0:0:0:0:
247,85,105931,5,8,0:0:0:0:
241,74,106016,1,8,0:0:0:0:
240,62,106101,1,8,0:0:0:0:
243,50,106187,1,8,0:0:0:0:
251,42,106272,6,0,P|298:33|323:14,1,80,4|0,3:2|0:0,0:0:0:0:
422,50,106783,1,0,3:0:0:0:
317,218,106954,6,0,B|317:179|300:140|300:140|332:130|357:153,1,120,12|0,0:0|0:0,0:0:0:0:
385,287,107295,6,0,B|350:276|327:241|327:241|290:243|252:278,1,150,2|0,3:2|0:0,0:0:0:0:
190,149,107635,5,2,3:2:0:0:
140,218,107806,2,0,P|103:227|58:197,1,80,8|0,0:0|3:0,0:0:0:0:
43,27,108317,2,0,B|34:51|34:51|42:75,1,40,10|0,0:0|0:0,0:0:0:0:
165,141,108658,6,0,B|218:132|240:100|240:100|274:104|306:138,1,150,2|0,0:0|0:0,0:0:0:0:
225,245,108999,6,0,P|249:261|308:261,1,80,4|0,3:2|0:0,0:0:0:0:
256,344,109510,1,0,3:0:0:0:
434,288,109681,2,0,B|418:285|418:285|396:296,1,40,10|0,0:0|0:0,0:0:0:0:
477,134,110022,6,0,P|393:131|335:91,1,150,2|0,3:2|0:0,0:0:0:0:
236,7,110363,5,2,3:2:0:0:
184,76,110533,2,0,P|144:91|104:85,1,80,0|0,3:0|3:0,0:0:0:0:
184,291,111045,1,14,0:0:0:0:
18,155,111215,1,0,3:0:0:0:
84,234,111385,1,2,3:2:0:0:
110,221,111556,1,8,0:0:0:0:
179,116,111726,6,0,P|215:100|263:106,1,80,4|0,3:2|0:0,0:0:0:0:
332,143,112238,1,0,3:0:0:0:
232,239,112408,6,0,B|230:271|201:288|201:288|239:294|257:325,1,120,14|0,0:0|0:0,0:0:0:0:
345,359,112749,6,0,P|257:361|178:385,1,150,6|0,3:2|0:0,0:0:0:0:
117,278,113090,5,2,3:2:0:0:
42,322,113260,2,0,B|27:288|27:288|36:247,1,80,8|0,0:0|3:0,0:0:0:0:
126,66,113772,6,0,B|178:72|178:72|188:82|188:82|251:92,1,120,14|0,0:0|0:0,0:0:0:0:
340,130,114113,6,0,P|272:113|225:186,1,150,2|0,3:2|0:0,0:0:0:0:
267,286,114454,6,0,P|282:257|293:207,1,80,6|0,3:2|0:0,0:0:0:0:
362,273,114965,1,0,3:0:0:0:
499,143,115135,5,14,0:0:0:0:
416,47,115306,1,8,0:0:0:0:
416,47,115391,1,8,0:0:0:0:
416,47,115476,6,0,P|391:59|354:57,1,60,8|0,0:0|0:0,0:0:0:0:
294,105,115817,5,4,3:2:0:0:
294,105,116499,2,0,P|266:102|237:90,1,45.2000001379395,2|0,3:2|0:0,0:0:0:0:
171,24,116670,1,0,3:0:0:0:
151,21,116755,1,0,3:0:0:0:
105,57,116840,5,10,0:0:0:0:
123,112,116925,1,10,0:0:0:0:
75,147,117010,1,10,0:0:0:0:
30,111,117096,1,10,0:0:0:0:
46,56,117181,5,6,3:2:0:0:
219,182,117351,2,0,P|266:175|318:147,2,90.4000002758789,0|8|0,0:0|0:0|0:0,0:0:0:0:
42,237,117863,2,0,P|86:250|99:295,1,90.4000002758789,2|0,3:2|0:0,0:0:0:0:
250,379,118204,2,0,B|267:336|267:336|255:290,1,90.4000002758789,8|0,0:0|0:0,0:0:0:0:
345,81,118545,6,0,P|426:88|392:163,1,180.800000551758,2|8,3:2|0:0,0:0:0:0:
419,324,119056,1,0,0:0:0:0:
247,217,119226,6,0,B|219:204|195:210|195:210|177:232|144:253|144:253|109:238|81:251,1,180.000006866455,2|0,3:2|0:0,0:0:0:0:
18,167,119567,1,10,0:0:0:0:
29,171,119652,1,8,0:0:0:0:
40,175,119738,1,8,0:0:0:0:
184,24,119908,5,2,3:2:0:0:
262,135,120079,2,0,P|307:141|352:120,2,90.4000002758789,0|8|0,0:0|0:0|0:0,0:0:0:0:
385,16,120590,2,0,P|431:20|472:71,1,90.4000002758789,2|0,3:2|0:0,0:0:0:0:
457,247,120931,2,0,B|480:207|480:207|459:164,1,90.4000002758789,8|0,0:0|0:0,0:0:0:0:
361,345,121272,5,2,3:2:0:0:
197,269,121442,1,0,0:0:0:0:
197,269,121527,1,0,0:0:0:0:
197,269,121613,2,0,B|221:293|221:293|282:272,1,90.4000002758789,8|0,0:0|0:0,0:0:0:0:
129,70,121954,6,0,B|195:42|247:54|247:54|251:84|227:129,1,180.000006866455,2|0,3:2|0:0,0:0:0:0:
164,153,122295,1,8,0:0:0:0:
340,223,122465,1,8,0:0:0:0:
369,222,122550,1,8,0:0:0:0:
388,203,122635,6,0,P|410:113|349:30,1,180.800000551758,6|8,3:2|0:0,0:0:0:0:
511,152,123147,1,0,0:0:0:0:
415,337,123317,2,0,P|381:309|325:315,1,90.4000002758789,2|0,3:2|0:0,0:0:0:0:
226,170,123658,2,0,B|213:218|213:218|188:241|188:241|173:295,1,135.600000413818,8|0,0:0|0:0,0:0:0:0:
115,348,123999,6,0,P|43:283|88:210,1,180.800000551758,2|8,3:2|0:0,0:0:0:0:
144,31,124510,1,0,0:0:0:0:
13,108,124681,2,0,P|56:131|109:121,1,90.4000002758789,2|0,3:2|0:0,0:0:0:0:
269,232,125022,1,8,0:0:0:0:
285,240,125363,6,0,P|292:193|266:145,1,100,6|0,3:2|0:0,0:0:0:0:
119,309,125704,2,0,B|161:274|161:274|208:293,1,100,8|0,0:0|3:0,0:0:0:0:
300,365,125959,1,0,3:0:0:0:
288,341,126045,2,0,B|359:331|400:347|400:347|439:301|453:250,1,200,6|0,0:0|0:0,0:0:0:0:
291,116,126726,6,0,P|266:70|274:13,1,100,10|0,0:0|0:0,0:0:0:0:
177,189,127067,1,10,0:0:0:0:
181,215,127152,1,8,0:0:0:0:
201,200,127238,1,8,0:0:0:0:
33,100,127408,5,6,3:2:0:0:
169,32,127579,2,0,B|194:38|194:38|201:45|201:45|232:54,1,60.0000022888184,8|8,0:0|0:0,0:0:0:0:
310,11,127749,5,8,0:0:0:0:
327,12,127834,1,8,0:0:0:0:
344,14,127920,1,8,0:0:0:0:
359,23,128005,1,8,0:0:0:0:
373,34,128090,6,0,P|418:30|472:3,1,90.4000002758789,6|0,3:2|0:0,0:0:0:0:
507,200,128431,2,0,B|465:211|465:211|424:171,1,90.4000002758789,8|0,0:0|0:0,0:0:0:0:
362,349,128772,2,0,P|358:294|287:304,1,135.600000413818,2|0,3:2|0:0,0:0:0:0:
222,230,129113,2,0,B|257:235|281:259|281:259|308:235|321:193,1,135.600000413818,8|0,0:0|0:0,0:0:0:0:
446,241,129454,6,0,P|393:177|426:80,1,180.800000551758,2|8,3:2|0:0,0:0:0:0:
505,14,129965,1,0,0:0:0:0:
287,119,130135,6,0,B|229:69|258:25|258:25|305:36|341:2,1,180.000006866455,2|0,3:2|0:0,0:0:0:0:
417,65,130476,1,10,0:0:0:0:
404,67,130562,1,8,0:0:0:0:
393,70,130647,1,8,0:0:0:0:
293,201,130817,5,2,3:2:0:0:
459,258,130988,2,0,P|469:214|461:158,2,90.4000002758789,0|8|0,0:0|0:0|0:0,0:0:0:0:
323,358,131499,2,0,P|294:316|302:257,1,90.4000002758789,2|0,3:2|0:0,0:0:0:0:
181,115,131840,2,0,B|133:109|113:128|113:128|119:157|142:185,1,135.600000413818,8|0,0:0|0:0,0:0:0:0:
217,189,132181,5,2,3:2:0:0:
342,41,132351,1,0,0:0:0:0:
342,41,132437,1,0,0:0:0:0:
342,41,132522,2,0,B|361:79|361:79|346:128,1,90.4000002758789,8|0,0:0|0:0,0:0:0:0:
461,246,132863,5,2,3:2:0:0:
471,267,132948,2,0,B|435:273|435:273|423:283|423:283|382:291,1,90.4000002758789,0|0,3:0|0:0,0:0:0:0:
329,352,133204,6,0,B|304:309|304:309|214:290,1,120.000004577637,8|8,0:0|0:0,0:0:0:0:
141,328,133459,1,8,0:0:0:0:
152,349,133545,6,0,P|205:300|185:197,1,180.800000551758,6|8,3:2|0:0,0:0:0:0:
69,277,134056,1,2,0:0:0:0:
26,101,134226,2,0,P|58:130|112:126,1,90.4000002758789,0|0,3:0|0:0,0:0:0:0:
333,210,134567,2,0,B|296:179|287:157|287:157|296:137|334:93,1,135.600000413818,8|0,0:0|0:0,0:0:0:0:
401,85,134908,6,0,P|408:40|368:17,1,90.4000002758789,2|0,3:2|0:0,0:0:0:0:
215,76,135249,2,0,B|182:95|150:99|150:99|128:70|67:68,1,135.600000413818,8|0,0:0|0:0,0:0:0:0:
29,26,135590,2,0,P|18:47|15:73,2,45.2000001379395,2|0|0,3:2|0:0|0:0,0:0:0:0:
125,175,135931,1,8,0:0:0:0:
301,353,136272,6,0,P|274:317|282:249,1,100,4|0,3:2|0:0,0:0:0:0:
495,164,136613,2,0,B|450:152|450:152|403:183,1,100,8|0,0:0|3:0,0:0:0:0:
358,249,136868,1,0,3:0:0:0:
370,271,136954,2,0,P|384:198|276:163,1,200,6|8,3:2|0:0,0:0:0:0:
154,65,137465,1,8,0:0:0:0:
146,43,137550,1,8,0:0:0:0:
137,22,137635,5,6,3:2:0:0:
88,206,137806,1,0,0:0:0:0:
109,192,137891,1,8,0:0:0:0:
131,179,137976,1,10,0:0:0:0:
240,38,138147,1,8,0:0:0:0:
55,119,138317,1,2,3:2:0:0:
171,263,138488,2,0,P|194:261|222:251,1,50,0|0,3:0|3:0,0:0:0:0:
290,310,138658,2,0,P|293:277|302:262,3,50,2|0|0|0,3:2|3:0|3:0|3:0,0:0:0:0:
283,182,138999,6,0,B|341:171|397:227|386:237|433:293|499:278,1,240,6|0,0:0|0:0,0:0:0:0:
437,156,140192,1,0,0:0:0:0:
437,156,140277,1,0,0:0:0:0:
437,156,140363,5,2,0:0:0:0:
358,219,141215,2,0,P|353:206|356:184,1,20,0|0,3:0|0:0,0:0:0:0:
281,165,141385,6,0,P|310:166|336:98,1,90.0000034332277,2|0,0:0|0:0,0:0:0:0:
287,67,141721,5,4,0:0:0:0:
33,50,152630,6,0,P|61:82|69:126,1,80,2|0,0:0|0:0,0:0:0:0:
149,237,153311,2,0,P|159:192|185:160,1,80,2|0,0:0|0:0,0:0:0:0:
344,92,153993,1,0,0:0:0:0:
435,169,154334,1,2,0:0:0:0:
492,339,154675,1,2,0:0:0:0:
272,274,155016,1,2,0:0:0:0:
146,327,155357,5,2,0:0:0:0:
209,218,155698,2,0,P|209:176|197:131,2,80,2|2|0,0:0|0:0|0:0,0:0:0:0:
75,318,156721,1,2,0:0:0:0:
32,236,157061,1,0,0:0:0:0:
119,51,157402,1,2,0:0:0:0:
119,51,157743,2,0,P|138:58|166:56,1,40
240,30,158084,5,2,0:0:0:0:
293,106,158425,1,0,0:0:0:0:
138,249,158766,1,2,0:0:0:0:
138,249,159107,2,0,P|142:222|144:195,1,40
197,327,159448,5,2,0:0:0:0:
267,263,159789,1,0,0:0:0:0:
469,321,160130,1,2,0:0:0:0:
469,321,160471,2,0,P|447:328|423:341,1,40
323,375,160811,6,0,P|286:367|256:327,1,80,2|0,0:0|0:0,0:0:0:0:
137,225,161493,2,0,P|169:203|180:148,1,80,2|0,0:0|0:0,0:0:0:0:
280,37,162175,5,2,0:0:0:0:
386,27,162857,6,0,P|357:60|368:104,1,90.0000034332277,2|0,0:0|0:0,0:0:0:0:
413,187,163198,2,0,B|430:164|432:146|432:146|420:129|393:121,1,90.0000034332277,8|0,0:0|0:0,0:0:0:0:
354,251,163539,6,0,B|298:284|268:250|276:246|243:210|183:243,1,160,6|10,3:2|0:0,0:0:0:0:
56,338,164050,1,0,0:0:0:0:
25,253,164221,2,0,P|63:251|113:267,1,80,2|0,3:2|0:0,0:0:0:0:
262,357,164561,2,0,B|294:329|294:329|275:245,1,120,10|0,0:0|0:0,0:0:0:0:
340,203,164902,6,0,B|337:157|308:125|308:125|334:103|345:51,1,160,2|10,3:2|0:0,0:0:0:0:
245,14,165414,1,0,0:0:0:0:
176,188,165584,2,0,P|180:148|150:114,1,80,2|0,3:2|0:0,0:0:0:0:
323,246,165925,2,0,B|362:220|369:206|369:206|384:207|412:165,1,120,10|0,0:0|0:0,0:0:0:0:
350,79,166266,6,0,P|362:111|479:109,1,160,2|8,3:2|0:0,0:0:0:0:
322,229,166777,2,0,P|284:214|235:211,1,80,2|0,0:0|3:0,0:0:0:0:
284,362,167118,1,0,0:0:0:0:
92,303,167289,2,0,B|131:310|131:310|163:283,1,80,10|0,0:0|0:0,0:0:0:0:
109,226,167544,1,0,0:0:0:0:
109,226,167630,6,0,P|84:149|98:97,1,120,2|0,3:2|0:0,0:0:0:0:
7,18,167971,6,0,P|48:13|85:38,1,80,6|8,0:0|0:0,0:0:0:0:
157,64,168226,1,8,0:0:0:0:
177,60,168311,1,10,0:0:0:0:
350,30,168482,1,10,0:0:0:0:
318,22,168567,1,10,0:0:0:0:
285,14,168652,1,10,0:0:0:0:
426,138,168823,1,8,0:0:0:0:
408,146,168908,1,8,0:0:0:0:
389,154,168993,6,0,P|360:215|343:321,1,160,6|10,0:0|0:0,0:0:0:0:
272,365,169505,1,0,0:0:0:0:
119,234,169675,2,0,P|153:255|207:262,1,80,2|0,3:2|0:0,0:0:0:0:
297,135,170016,2,0,B|323:111|349:101|349:101|371:122|415:124,1,120,10|0,0:0|0:0,0:0:0:0:
464,210,170357,6,0,P|435:142|464:58,1,160,2|8,3:2|0:0,0:0:0:0:
307,20,170868,1,0,0:0:0:0:
307,20,170953,1,0,0:0:0:0:
307,20,171039,2,0,B|285:54|285:54|312:93,1,80,2|0,3:2|0:0,0:0:0:0:
166,201,171380,2,0,B|199:149|199:149|163:100,1,120,10|0,0:0|0:0,0:0:0:0:
49,68,171721,6,0,P|123:76|187:8,1,160,6|10,3:2|0:0,0:0:0:0:
319,79,172232,2,0,P|304:107|301:159,1,80,4|0,3:2|0:0,0:0:0:0:
264,222,172488,2,0,P|254:191|213:159,1,80,2|0,3:2|0:0,0:0:0:0:
143,86,172743,2,0,B|126:121|110:135|110:135|115:159|152:191,1,120,14|0,0:0|0:0,0:0:0:0:
224,297,173084,5,10,0:0:0:0:
230,306,173169,1,8,0:0:0:0:
230,318,173255,1,8,0:0:0:0:
225,328,173340,1,8,0:0:0:0:
218,337,173425,2,0,P|165:314|95:302,1,120,10|0,0:0|0:0,0:0:0:0:
36,248,173766,6,0,P|70:220|71:181,1,80,2|0,3:2|0:0,0:0:0:0:
292,151,174448,6,0,P|265:128|249:77,1,80,6|0,3:2|0:0,0:0:0:0:
309,19,174959,1,0,0:0:0:0:
414,116,175130,2,0,B|443:132|443:132|472:119,1,60,10|0,0:0|0:0,0:0:0:0:
507,194,175471,6,0,P|448:182|392:260,1,150,2|0,3:2|0:0,0:0:0:0:
334,352,175811,5,2,0:0:0:0:
268,292,175982,2,0,B|258:262|258:262|276:218,1,80,8|0,0:0|0:0,0:0:0:0:
90,282,176493,1,10,0:0:0:0:
90,282,176834,6,0,B|74:261|79:242|79:242|112:196|76:159|37:184,1,150,2|0,0:0|0:0,0:0:0:0:
180,215,177175,5,4,3:2:0:0:
173,299,177346,2,0,P|217:300|237:267,1,80,8|0,0:0|0:0,0:0:0:0:
365,352,177857,2,0,B|359:338|359:338|369:288,1,60,10|0,0:0|0:0,0:0:0:0:
354,162,178198,6,0,P|411:211|391:277,1,150,2|0,3:2|0:0,0:0:0:0:
273,362,178539,5,2,3:2:0:0:
289,280,178709,2,0,P|251:280|214:303,1,80,8|0,0:0|0:0,0:0:0:0:
36,185,179221,1,10,0:0:0:0:
91,312,179391,1,8,0:0:0:0:
91,312,179476,1,8,0:0:0:0:
91,312,179561,6,0,P|140:258|146:170,1,150,6|0,0:0|0:0,0:0:0:0:
226,193,179902,6,0,P|199:160|199:122,1,80,6|0,3:2|0:0,0:0:0:0:
249,48,180414,1,0,3:0:0:0:
399,158,180584,1,10,0:0:0:0:
399,158,180925,6,0,B|447:120|493:117|493:117|471:100|458:73,1,150,2|0,3:2|0:0,0:0:0:0:
373,43,181266,5,2,3:2:0:0:
373,43,181436,2,0,P|359:79|371:122,1,80,8|0,0:0|0:0,0:0:0:0:
269,240,181948,2,0,B|257:205|257:205|232:187,1,60,14|0,0:0|0:0,0:0:0:0:
130,153,182289,6,0,P|203:170|244:92,1,150,2|0,3:2|0:0,0:0:0:0:
204,42,182630,5,6,3:2:0:0:
121,15,182800,1,0,3:0:0:0:
13,106,182971,1,10,0:0:0:0:
13,106,183311,5,2,3:2:0:0:
83,282,183482,1,0,3:0:0:0:
172,182,183652,2,0,P|167:210|150:228,1,40,2|0,3:2|0:0,0:0:0:0:
342,331,183993,6,0,B|305:270|312:214|312:214|321:149|297:94,1,240,4|0,0:0|0:0,0:0:0:0:
450,43,185357,1,2,0:0:0:0:
404,123,195584,5,2,0:0:0:0:
318,161,195755,1,0,0:0:0:0:
318,161,195840,1,0,0:0:0:0:
318,161,195925,1,2,0:0:0:0:
318,161,196266,5,6,3:2:0:0:
398,264,196436,2,0,P|396:233|416:205,2,60.0000022888184,0|0|0,0:0|3:0|0:0,0:0:0:0:
322,356,196948,2,0,B|280:355|266:330|270:325|255:303|204:309,1,120.000004577637,2|2,3:2|3:2,0:0:0:0:
26,200,197630,6,0,P|79:203|140:159,1,120.000004577637,2|0,3:2|3:0,0:0:0:0:
228,24,198311,1,2,3:2:0:0:
327,102,198652,1,0,3:0:0:0:
44,167,198993,6,0,P|31:228|57:289,1,120.000004577637,2|0,3:2|3:0,0:0:0:0:
109,351,199505,1,0,0:0:0:0:
196,249,199675,2,0,P|257:244|318:272,1,120.000004577637,2|0,3:2|3:0,0:0:0:0:
470,360,200357,6,0,P|461:294|496:247,1,120.000004577637,2|0,3:2|3:0,0:0:0:0:
507,258,201039,1,2,3:2:0:0:
449,171,201209,1,0,0:0:0:0:
320,300,201380,2,0,P|354:268|351:223,1,90.0000034332277,0|0,3:0|0:0,0:0:0:0:
336,214,201721,6,0,P|270:231|212:235,1,120.000004577637,6|0,3:2|3:0,0:0:0:0:
88,173,202232,1,0,0:0:0:0:
94,349,202402,2,0,P|109:322|115:280,1,60.0000022888184,2|0,3:2|0:0,0:0:0:0:
226,263,202743,2,0,P|222:234|198:207,1,60.0000022888184,0|0,3:0|0:0,0:0:0:0:
385,294,203084,6,0,P|344:326|264:339,1,120.000004577637,2|0,3:2|3:0,0:0:0:0:
258,328,203766,6,0,P|233:288|237:250,1,69.6000005841065,2|0,3:2|0:0,0:0:0:0:
321,123,204107,2,0,P|319:164|305:190,1,69.6000005841065,2|0,3:2|0:0,0:0:0:0:
480,225,204448,6,0,B|445:218|445:218|438:211|438:211|401:214,1,80,2|0,3:2|0:0,0:0:0:0:
340,302,204789,1,0,3:0:0:0:
213,167,204959,2,0,B|162:152|131:189|145:192|118:230|60:215,1,160,2|0,0:0|0:0,0:0:0:0:
153,342,205471,2,0,P|205:307|189:257,1,120,2|0,3:2|0:0,0:0:0:0:
19,29,205811,6,0,B|-1:121|-1:121|71:141,1,150,10|0,0:0|0:0,0:0:0:0:
121,80,206152,6,0,P|160:24|158:97,1,180.000006866455,10|0,0:0|0:0,0:0:0:0:
274,96,206493,6,0,B|333:184|333:184|360:77,1,210.000002002716,10|0,0:0|0:0,0:0:0:0:
505,32,206834,6,0,B|471:41|442:37|442:37|449:59|449:59|460:84|460:84|466:90|466:90|459:94|459:94|448:116|448:116|438:133|438:133|468:129|504:138,1,240,10|0,0:0|0:0,0:0:0:0:
466,264,207175,6,0,P|375:257|328:332,1,180.800000551758,6|8,3:2|0:0,0:0:0:0:
228,370,207686,1,0,0:0:0:0:
101,246,207857,2,0,P|136:275|198:276,1,90.4000002758789,2|0,3:2|0:0,0:0:0:0:
313,207,208198,2,0,B|328:179|328:179|306:113,1,90.4000002758789,8|0,0:0|0:0,0:0:0:0:
150,18,208539,6,0,P|82:91|13:67,1,180.800000551758,2|8,3:2|0:0,0:0:0:0:
150,155,209050,1,0,0:0:0:0:
10,270,209221,6,0,B|70:236|126:247|126:247|137:273|110:308,1,180.000006866455,2|0,3:2|0:0,0:0:0:0:
197,367,209561,1,10,0:0:0:0:
185,364,209647,1,8,0:0:0:0:
173,361,209732,1,8,0:0:0:0:
26,171,209902,5,2,3:2:0:0:
108,50,210073,2,0,B|128:78|128:78|183:65,1,90.4000002758789,0|8,0:0|0:0,0:0:0:0:
293,15,210414,1,0,0:0:0:0:
196,172,210584,2,0,P|280:155|314:243,1,180.800000551758,2|8,3:2|0:0,0:0:0:0:
411,108,211096,1,0,0:0:0:0:
479,300,211266,6,0,P|435:308|403:280,1,90.4000002758789,2|0,3:2|0:0,0:0:0:0:
161,263,211607,2,0,B|201:257|201:257|205:261|205:261|249:242,1,90.4000002758789,8|0,0:0|0:0,0:0:0:0:
344,174,211863,1,8,0:0:0:0:
349,145,211948,6,0,B|335:96|292:57|292:57|300:7|339:9,1,180.000006866455,2|0,3:2|0:0,0:0:0:0:
398,59,212289,1,8,0:0:0:0:
237,171,212459,1,8,0:0:0:0:
229,199,212544,1,8,0:0:0:0:
241,226,212630,6,0,B|288:233|332:266|332:266|375:262|407:225,1,180.800000551758,6|8,3:2|0:0,0:0:0:0:
318,350,213141,1,0,0:0:0:0:
265,152,213311,2,0,P|224:146|177:177,1,90.4000002758789,2|0,3:2|0:0,0:0:0:0:
39,275,213652,2,0,B|68:306|106:304|106:304|103:277|131:228,1,135.600000413818,8|0,0:0|0:0,0:0:0:0:
63,195,213993,6,0,P|43:155|52:99,1,90.4000002758789,2|0,3:2|0:0,0:0:0:0:
184,7,214334,1,8,0:0:0:0:
140,81,214505,1,0,0:0:0:0:
232,209,214675,2,0,B|270:225|270:225|321:198,1,90.4000002758789,2|0,3:2|0:0,0:0:0:0:
359,44,215016,1,8,0:0:0:0:
142,121,215357,6,0,B|117:69|117:69|129:5,1,100,4|0,3:2|3:0,0:0:0:0:
208,63,215613,1,8,0:0:0:0:
208,63,215698,1,8,0:0:0:0:
83,204,215868,2,0,P|135:203|194:220,1,100,2|0,0:0|3:0,0:0:0:0:
366,355,216209,6,0,B|357:313|357:313|362:302|362:302|355:254,1,100,12|0,0:0|0:0,0:0:0:0:
442,285,216465,1,8,0:0:0:0:
436,309,216550,1,0,3:0:0:0:
272,268,216721,6,0,B|240:225|240:225|299:183,1,120.000004577637,6|10,3:2|0:0,0:0:0:0:
452,127,216976,1,10,0:0:0:0:
457,100,217061,6,0,B|416:89|416:89|367:109,1,90.4000002758789,10|0,0:0|0:0,0:0:0:0:
384,187,217317,1,8,0:0:0:0:
405,193,217402,1,10,0:0:0:0:
290,78,217573,2,0,B|267:98|267:98|238:91,1,60.0000022888184,8|8,0:0|0:0,0:0:0:0:
115,17,217743,5,10,0:0:0:0:
105,27,217828,1,8,0:0:0:0:
100,41,217914,1,8,0:0:0:0:
100,57,217999,1,8,0:0:0:0:
96,72,218084,6,0,P|57:105|11:117,1,90.4000002758789,6|0,3:2|0:0,0:0:0:0:
115,286,218425,2,0,B|100:245|100:245|141:203,1,90.4000002758789,8|0,0:0|0:0,0:0:0:0:
296,260,218766,2,0,P|321:177|292:79,1,180.800000551758,2|8,3:2|0:0,0:0:0:0:
392,27,219277,1,0,0:0:0:0:
411,223,219448,6,0,B|445:254|491:250|491:250|517:206|493:158,1,180.800000551758,2|8,3:2|0:0,0:0:0:0:
366,112,219959,1,0,0:0:0:0:
213,126,220130,6,0,B|158:111|142:86|142:86|110:94|96:151,1,150,2|0,3:2|0:0,0:0:0:0:
34,185,220471,6,0,B|90:157|140:195|135:203|164:237|244:211,1,210.000002002716,14|0,0:0|0:0,0:0:0:0:
158,295,220811,5,6,3:2:0:0:
281,364,220982,2,0,P|277:326|300:273,2,90.4000002758789,0|8|0,0:0|0:0|0:0,0:0:0:0:
462,293,221493,2,0,P|432:262|383:247,1,90.4000002758789,2|0,3:2|0:0,0:0:0:0:
505,84,221834,2,0,B|472:118|472:118|431:106,1,90.4000002758789,8|0,0:0|0:0,0:0:0:0:
280,33,222175,5,10,3:2:0:0:
297,44,222260,1,8,0:0:0:0:
313,28,222346,1,8,0:0:0:0:
108,85,222516,2,0,B|128:126|149:138|149:138|131:151|120:201,1,135.600000413818,12|8,0:0|0:0,0:0:0:0:
60,247,222857,5,2,3:2:0:0:
186,371,223027,1,8,0:0:0:0:
186,371,223113,1,8,0:0:0:0:
186,371,223198,2,0,P|161:368|140:360,1,45.2000001379395,8|0,0:0|0:0,0:0:0:0:
259,244,223368,1,8,0:0:0:0:
266,222,223453,1,8,0:0:0:0:
253,202,223539,6,0,P|229:127|257:23,1,180.800000551758,6|8,3:2|0:0,0:0:0:0:
406,158,224050,1,2,0:0:0:0:
485,29,224221,2,0,P|442:30|410:74,1,90.4000002758789,0|0,3:0|0:0,0:0:0:0:
305,228,224561,2,0,B|372:237|372:237|374:244|374:244|450:256,1,135.600000413818,8|0,0:0|0:0,0:0:0:0:
493,338,224902,6,0,P|510:302|511:242,1,90.4000002758789,2|0,3:2|0:0,0:0:0:0:
455,142,225243,1,8,0:0:0:0:
324,243,225414,1,2,0:0:0:0:
324,243,225499,1,2,0:0:0:0:
324,243,225584,2,0,P|270:215|245:171,1,90.4000002758789,2|0,3:2|0:0,0:0:0:0:
269,348,225925,1,8,0:0:0:0:
281,362,226266,6,0,P|319:324|304:263,1,100,6|0,3:2|0:0,0:0:0:0:
149,115,226607,2,0,B|120:155|120:155|134:203,1,100,8|0,0:0|3:0,0:0:0:0:
61,243,226863,1,0,3:0:0:0:
52,220,226948,2,0,B|119:217|119:217|173:271|173:271|232:292,1,200,6|8,3:2|0:0,0:0:0:0:
445,338,227544,1,8,0:0:0:0:
423,353,227630,6,0,P|419:302|450:246,1,100,6|8,3:2|0:0,0:0:0:0:
486,141,227885,1,8,0:0:0:0:
473,162,227971,2,0,B|446:166|424:173|424:173|394:165|368:117,1,100,10|0,0:0|0:0,0:0:0:0:
194,19,228311,6,0,P|159:24|126:45,2,66.6666666666667,2|0|0,3:2|3:0|3:0,0:0:0:0:
271,44,228652,5,2,3:2:0:0:
301,95,228766,1,0,3:0:0:0:
278,150,228880,1,0,3:0:0:0:
212,200,228993,6,0,B|140:236|102:165|108:158|69:86|10:122,1,240,6|0,0:0|0:0,0:0:0:0:
125,56,230186,1,0,0:0:0:0:
125,56,230272,1,0,0:0:0:0:
125,56,230357,5,2,0:0:0:0:
200,122,231209,2,0,P|214:120|229:112,1,20,0|0,3:0|0:0,0:0:0:0:
243,239,231380,6,0,B|258:195|240:155|240:155|287:128|304:66,1,180.000006866455,14|0,0:0|0:0,0:0:0:0:
407,31,231724,6,0,P|341:46|248:-10,1,160,6|8,3:2|0:0,0:0:0:0:
188,92,232235,1,0,0:0:0:0:
24,7,232405,2,0,P|46:37|52:89,1,80,2|0,3:2|0:0,0:0:0:0:
129,236,232746,2,0,B|115:192|115:192|153:154,1,80,8|0,0:0|0:0,0:0:0:0:
242,304,233087,5,2,3:2:0:0:
242,304,233258,1,0,0:0:0:0:
332,211,233428,2,0,B|317:251|317:251|353:342,1,120,8|0,0:0|0:0,0:0:0:0:
419,301,233769,2,0,P|461:303|481:344,1,80,2|0,3:2|0:0,0:0:0:0:
502,149,234110,2,0,B|472:176|472:176|433:158,1,80,8|0,0:0|0:0,0:0:0:0:
461,77,234366,1,0,0:0:0:0:
461,77,234451,6,0,B|425:90|406:65|409:61|387:41|347:58,1,120,2|0,3:2|0:0,0:0:0:0:
250,34,234792,6,0,P|276:94|286:191,1,160,10|2,0:0|3:2,0:0:0:0:
135,140,235303,1,0,0:0:0:0:
36,253,235474,2,0,B|21:213|21:213|34:169,1,80,8|0,0:0|0:0,0:0:0:0:
129,43,235814,2,0,B|149:57|149:57|170:56,3,40,10|8|8|8,0:0|0:0|0:0|0:0,0:0:0:0:
253,37,236155,6,0,B|249:92|211:136|211:136|214:168|232:200,1,160,6|2,0:0|3:2,0:0:0:0:
305,321,236667,1,8,0:0:0:0:
429,157,236837,1,10,0:0:0:0:
481,270,237008,1,8,0:0:0:0:
481,270,237093,1,8,0:0:0:0:
481,270,237178,6,0,P|425:243|371:256,1,120,6|0,3:2|0:0,0:0:0:0:
296,333,237519,6,0,P|276:276|259:170,1,160,14|2,0:0|3:2,0:0:0:0:
314,32,238030,1,0,0:0:0:0:
473,154,238201,2,0,B|441:176|441:176|394:166,1,80,8|0,0:0|0:0,0:0:0:0:
204,71,238542,6,0,B|150:57|122:92|130:99|107:135|48:111,2,160,2|8|2,3:2|0:0|3:2,0:0:0:0:
326,177,239394,1,0,0:0:0:0:
245,263,239564,2,0,B|236:300|236:300|252:348,1,80,8|0,0:0|0:0,0:0:0:0:
43,222,239905,6,0,P|124:224|183:162,1,160,6|8,3:2|0:0,0:0:0:0:
94,68,240417,1,0,0:0:0:0:
269,141,240587,2,0,P|297:187|301:267,1,120,6|0,3:2|0:0,0:0:0:0:
402,307,240928,2,0,B|383:239|383:239|425:189,1,120,8|0,0:0|0:0,0:0:0:0:
424,121,241269,6,0,B|444:132|444:132|477:136,3,40,10|8|8|8,0:0|0:0|0:0|0:0,0:0:0:0:
511,72,241610,1,2,0:0:0:0:
356,26,241780,1,8,0:0:0:0:
337,33,241866,1,8,0:0:0:0:
318,39,241951,1,10,0:0:0:0:
235,198,242121,1,8,0:0:0:0:
141,36,242292,1,8,0:0:0:0:
123,25,242377,1,8,0:0:0:0:
104,20,242462,1,8,0:0:0:0:
84,24,242547,1,8,0:0:0:0:
69,35,242633,6,0,P|62:86|115:119,1,120,6|0,0:0|0:0,0:0:0:0:
241,91,243826,6,0,P|220:81|196:80,1,40,8|8,0:0|0:0,0:0:0:0:
130,198,243996,1,10,0:0:0:0:
