osu file format v14

[General]
AudioFilename: audio.mp3
AudioLeadIn: 0
PreviewTime: 1248
Countdown: 0
SampleSet: Soft
StackLeniency: 0.7
Mode: 3
LetterboxInBreaks: 0
SpecialStyle: 0
WidescreenStoryboard: 0

[Editor]
DistanceSpacing: 1
BeatDivisor: 4
GridSize: 4
TimelineZoom: 2

[Metadata]
Title:MeniMeni ManiMani (TV Version)
TitleUnicode:メニメニマニマニ(TVバージョン)
Artist:Takamiya Nasuno (CV:Narumi Kyoko)
ArtistUnicode:高宮なすの(CV:鳴海杏子)
Creator:Carol
Version:Normal
Source:てーきゅう
Tags:teekyuu 2 opening tv size pop'n music ラピストリア lapistoria
BeatmapID:1306915
BeatmapSetID:620076

[Difficulty]
HPDrainRate:7.5
CircleSize:4
OverallDifficulty:7.5
ApproachRate:5
SliderMultiplier:1.4
SliderTickRate:1

[Events]
//Background and Video events
0,0,"Teekyuu BG.jpg",0,0
//Break Periods
//Storyboard Layer 0 (Background)
//Storyboard Layer 1 (Fail)
//Storyboard Layer 2 (Pass)
//Storyboard Layer 3 (Foreground)
//Storyboard Sound Samples

[TimingPoints]
1248,389.61038961039,4,2,1,40,1,0
10598,-100,4,2,1,60,0,0
11962,-100,4,2,1,40,0,0
13715,-100,4,2,1,40,0,1
26183,-100,4,2,1,40,0,0

[HitObjects]
320,192,663,5,0,0:0:0:0:
192,192,663,1,2,1:0:0:0:
192,192,858,128,2,1248:1:0:0:0:
320,192,858,128,0,1248:0:0:0:0:
448,192,1248,5,4,0:0:0:0:
64,192,1248,1,2,0:0:0:0:
320,192,1442,1,0,0:0:0:0:
64,192,1637,1,4,0:0:0:0:
448,192,1637,1,8,0:0:0:0:
192,192,1832,1,0,0:0:0:0:
320,192,2027,1,0,0:0:0:0:
448,192,2027,1,2,0:0:0:0:
192,192,2222,1,0,0:0:0:0:
64,192,2416,1,8,0:0:0:0:
320,192,2416,1,0,0:0:0:0:
448,192,2611,1,0,0:0:0:0:
192,192,2806,1,0,0:0:0:0:
320,192,2806,1,2,0:0:0:0:
64,192,3001,1,0,0:0:0:0:
192,192,3196,1,8,0:0:0:0:
448,192,3196,1,0,0:0:0:0:
320,192,3390,1,0,0:0:0:0:
448,192,3585,128,2,3975:0:0:0:0:
320,192,3780,128,0,3975:0:0:0:0:
64,192,3975,128,8,4364:0:0:0:0:
192,192,4170,128,0,4364:0:0:0:0:
448,192,4364,1,0,0:0:0:0:
320,192,4364,1,2,0:0:0:0:
192,192,4559,1,0,0:0:0:0:
64,192,4754,1,4,0:0:0:0:
320,192,4754,1,8,0:0:0:0:
448,192,4949,1,0,0:0:0:0:
192,192,5144,1,2,0:0:0:0:
64,192,5144,1,0,0:0:0:0:
320,192,5338,1,0,0:0:0:0:
448,192,5533,1,0,0:0:0:0:
64,192,5533,1,8,0:0:0:0:
192,192,5728,1,0,0:0:0:0:
64,192,5923,1,2,0:0:0:0:
448,192,5923,1,0,0:0:0:0:
320,192,6118,1,0,0:0:0:0:
64,192,6312,1,0,0:0:0:0:
192,192,6312,1,8,0:0:0:0:
448,192,6507,1,0,0:0:0:0:
320,192,6702,1,0,0:0:0:0:
64,192,6702,1,2,0:0:0:0:
192,192,6897,1,0,0:0:0:0:
64,192,7092,1,0,0:0:0:0:
448,192,7092,1,8,0:0:0:0:
320,192,7286,1,0,0:0:0:0:
64,192,7481,1,2,0:0:0:0:
192,192,7481,1,4,0:0:0:0:
320,192,7676,1,0,0:0:0:0:
448,192,7871,1,8,0:0:0:0:
192,192,7871,1,0,0:0:0:0:
64,192,8066,1,0,0:0:0:0:
320,192,8260,1,4,0:0:0:0:
448,192,8260,1,2,0:0:0:0:
192,192,8455,1,0,0:0:0:0:
64,192,8650,1,0,0:0:0:0:
320,192,8650,1,8,0:0:0:0:
448,192,8845,1,0,0:0:0:0:
320,192,9040,1,2,0:0:0:0:
192,192,9040,1,4,0:0:0:0:
64,192,9235,1,0,0:0:0:0:
320,192,9429,1,8,0:0:0:0:
64,192,9429,1,0,0:0:0:0:
448,192,9624,1,0,0:0:0:0:
64,192,9819,1,4,0:0:0:0:
448,192,9819,1,2,0:0:0:0:
192,192,10014,1,0,0:0:0:0:
320,192,10209,1,0,0:0:0:0:
448,192,10209,1,8,0:0:0:0:
192,192,10403,1,0,0:0:0:0:
64,192,10598,1,2,0:0:0:0:
448,192,10598,1,4,0:0:0:0:
320,192,10793,1,0,0:0:0:0:
192,192,10890,1,4,0:0:0:0:
64,192,10890,1,2,0:0:0:0:
320,192,11085,1,0,0:0:0:0:
64,192,11183,1,2,0:0:0:0:
448,192,11183,1,4,0:0:0:0:
192,192,11377,1,0,0:0:0:0:
448,192,11475,1,4,0:0:0:0:
320,192,11475,1,2,0:0:0:0:
192,192,11670,1,0,0:0:0:0:
64,192,11767,1,4,0:0:0:0:
448,192,11767,1,2,0:0:0:0:
192,192,11962,1,2,0:0:0:0:
320,192,11962,1,0,0:0:0:0:
320,192,12157,1,2,0:0:0:0:
64,192,12157,128,4,12449:0:0:0:0:
192,192,12449,128,0,12741:0:0:0:0:
448,192,12546,1,8,0:0:0:0:
320,192,12741,128,0,12936:0:0:0:0:
448,192,12936,1,2,0:0:0:0:
64,192,12936,128,0,13131:0:0:0:0:
192,192,13131,1,2,0:0:0:0:
320,192,13325,1,2,0:0:0:0:
448,192,13325,1,0,0:0:0:0:
192,192,13423,1,2,0:0:0:0:
64,192,13520,1,2,0:0:0:0:
448,192,13618,1,2,0:0:0:0:
64,192,13715,1,2,0:0:0:0:
320,192,13715,1,4,0:0:0:0:
192,192,13910,1,0,0:0:0:0:
448,192,14105,1,4,0:0:0:0:
64,192,14105,128,8,14494:0:0:0:0:
192,192,14299,1,0,0:0:0:0:
320,192,14494,1,2,0:0:0:0:
448,192,14494,1,0,0:0:0:0:
192,192,14689,1,0,0:0:0:0:
64,192,14884,1,0,0:0:0:0:
320,192,14884,1,8,0:0:0:0:
448,192,15079,1,0,0:0:0:0:
192,192,15273,1,0,0:0:0:0:
320,192,15273,1,2,0:0:0:0:
64,192,15468,1,0,0:0:0:0:
192,192,15663,1,0,0:0:0:0:
448,192,15663,1,8,0:0:0:0:
320,192,15858,1,0,0:0:0:0:
64,192,16053,128,2,16442:0:0:0:0:
192,192,16248,128,0,16442:0:0:0:0:
448,192,16442,128,8,16832:0:0:0:0:
320,192,16637,128,0,16832:0:0:0:0:
64,192,16832,1,0,0:0:0:0:
192,192,16832,1,2,0:0:0:0:
320,192,17027,1,0,0:0:0:0:
64,192,17222,1,4,0:0:0:0:
448,192,17222,128,8,17611:0:0:0:0:
320,192,17416,1,0,0:0:0:0:
64,192,17611,1,0,0:0:0:0:
192,192,17611,1,2,0:0:0:0:
320,192,17806,1,0,0:0:0:0:
64,192,18001,1,0,0:0:0:0:
448,192,18001,1,8,0:0:0:0:
192,192,18196,1,0,0:0:0:0:
448,192,18390,1,4,0:0:0:0:
320,192,18390,1,2,0:0:0:0:
192,192,18585,1,0,0:0:0:0:
64,192,18780,1,8,0:0:0:0:
448,192,18780,1,0,0:0:0:0:
320,192,18975,1,0,0:0:0:0:
64,192,19170,1,2,0:0:0:0:
192,192,19170,1,0,0:0:0:0:
448,192,19364,1,0,0:0:0:0:
192,192,19559,1,0,0:0:0:0:
320,192,19559,1,8,0:0:0:0:
64,192,19754,1,0,0:0:0:0:
320,192,19949,1,2,0:0:0:0:
448,192,19949,1,4,0:0:0:0:
192,192,20144,1,0,0:0:0:0:
64,192,20338,1,8,0:0:0:0:
320,192,20338,1,0,0:0:0:0:
448,192,20533,1,0,0:0:0:0:
192,192,20728,1,4,0:0:0:0:
64,192,20728,1,2,0:0:0:0:
320,192,20923,1,0,0:0:0:0:
448,192,21118,1,0,0:0:0:0:
64,192,21118,1,8,0:0:0:0:
192,192,21312,1,0,0:0:0:0:
320,192,21507,1,2,0:0:0:0:
448,192,21507,1,4,0:0:0:0:
192,192,21799,1,4,0:0:0:0:
64,192,21799,1,2,0:0:0:0:
64,192,22092,1,2,0:0:0:0:
448,192,22092,1,4,0:0:0:0:
192,192,22286,1,0,0:0:0:0:
448,192,22286,128,4,22676:0:0:0:0:
192,192,22481,1,2,0:0:0:0:
320,192,22676,1,0,0:0:0:0:
64,192,22676,1,8,0:0:0:0:
320,192,22871,1,2,0:0:0:0:
64,192,23066,1,2,0:0:0:0:
448,192,23066,1,4,0:0:0:0:
320,192,23260,1,0,0:0:0:0:
64,192,23455,1,8,0:0:0:0:
192,192,23455,1,0,0:0:0:0:
320,192,23650,1,0,0:0:0:0:
448,192,23845,1,0,0:0:0:0:
64,192,23845,1,2,0:0:0:0:
192,192,24040,1,0,0:0:0:0:
320,192,24235,1,0,0:0:0:0:
448,192,24235,1,8,0:0:0:0:
192,192,24429,1,0,0:0:0:0:
64,192,24624,1,4,0:0:0:0:
320,192,24624,1,2,0:0:0:0:
448,192,24819,1,0,0:0:0:0:
192,192,25014,1,0,0:0:0:0:
320,192,25014,1,8,0:0:0:0:
64,192,25209,1,0,0:0:0:0:
448,192,25403,1,4,0:0:0:0:
192,192,25403,1,2,0:0:0:0:
64,192,25533,1,2,0:0:0:0:
320,192,25663,1,2,0:0:0:0:
64,192,25793,1,8,0:0:0:0:
448,192,25793,1,4,0:0:0:0:
192,192,25923,1,2,0:0:0:0:
320,192,26053,1,2,0:0:0:0:
64,192,26183,128,4,26962:0:0:0:0:
448,192,26183,1,2,0:0:0:0:
64,192,27351,1,0,0:0:0:0:
320,192,27351,1,8,0:0:0:0:
192,192,27546,1,2,0:0:0:0:
448,192,27546,128,0,27741:0:0:0:0:
192,192,28131,1,0,0:0:0:0:
448,192,28131,1,8,0:0:0:0:
320,192,28325,1,2,0:0:0:0:
64,192,28325,128,0,28520:0:0:0:0:
320,192,28910,1,0,0:0:0:0:
448,192,28910,1,8,0:0:0:0:
64,192,29105,1,2,0:0:0:0:
192,192,29105,128,0,29299:0:0:0:0:
320,192,29494,1,8,0:0:0:0:
64,192,29494,128,0,29689:0:0:0:0:
448,192,29786,1,8,0:0:0:0:
192,192,29786,128,0,29981:0:0:0:0:
448,192,30079,128,4,30663:0:0:0:0:
320,192,30079,128,2,30663:0:0:0:0:
