osu file format v14

[General]
AudioFilename: audio.mp3
AudioLeadIn: 0
PreviewTime: 1248
Countdown: 0
SampleSet: Soft
StackLeniency: 0.7
Mode: 3
LetterboxInBreaks: 0
SpecialStyle: 0
WidescreenStoryboard: 0

[Editor]
DistanceSpacing: 1
BeatDivisor: 2
GridSize: 4
TimelineZoom: 1.3

[Metadata]
Title:MeniMeni ManiMani (TV Version)
TitleUnicode:メニメニマニマニ(TVバージョン)
Artist:Takamiya Nasuno (CV:Narumi Kyoko)
ArtistUnicode:高宮なすの(CV:鳴海杏子)
Creator:Carol
Version:Easy
Source:てーきゅう
Tags:teekyuu 2 opening tv size pop'n music ラピストリア lapistoria
BeatmapID:1306914
BeatmapSetID:620076

[Difficulty]
HPDrainRate:7
CircleSize:4
OverallDifficulty:7
ApproachRate:5
SliderMultiplier:1.4
SliderTickRate:1

[Events]
//Background and Video events
0,0,"Teekyuu BG.jpg",0,0
//Break Periods
//Storyboard Layer 0 (Background)
//Storyboard Layer 1 (Fail)
//Storyboard Layer 2 (Pass)
//Storyboard Layer 3 (Foreground)
//Storyboard Sound Samples

[TimingPoints]
1248,389.61038961039,4,2,1,40,1,0
10598,-100,4,2,1,60,0,0
11962,-100,4,2,1,40,0,0
13715,-100,4,2,1,40,0,1
26183,-100,4,2,1,40,0,0

[HitObjects]
192,192,663,5,2,1:0:0:0:
320,192,858,128,2,1248:1:0:0:0:
64,192,1248,5,4,0:0:0:0:
448,192,1248,1,2,0:0:0:0:
320,192,1637,1,12,0:0:0:0:
64,192,2027,1,2,0:0:0:0:
192,192,2416,1,8,0:0:0:0:
448,192,2806,1,2,0:0:0:0:
192,192,3196,1,8,0:0:0:0:
64,192,3585,128,2,3975:0:0:0:0:
448,192,3975,128,8,4364:0:0:0:0:
320,192,4364,1,2,0:0:0:0:
192,192,4364,1,0,0:0:0:0:
64,192,4754,1,12,0:0:0:0:
320,192,5144,1,2,0:0:0:0:
448,192,5533,1,8,0:0:0:0:
64,192,5923,1,2,0:0:0:0:
192,192,6312,1,8,0:0:0:0:
320,192,6702,1,2,0:0:0:0:
64,192,7092,1,8,0:0:0:0:
448,192,7481,128,6,7871:0:0:0:0:
320,192,7871,1,8,0:0:0:0:
192,192,8066,1,0,0:0:0:0:
64,192,8260,128,6,8650:0:0:0:0:
192,192,8650,1,8,0:0:0:0:
320,192,8845,1,0,0:0:0:0:
448,192,9040,128,6,9429:0:0:0:0:
64,192,9429,1,8,0:0:0:0:
320,192,9624,1,0,0:0:0:0:
192,192,9819,128,6,10209:0:0:0:0:
448,192,10209,1,8,0:0:0:0:
320,192,10403,1,0,0:0:0:0:
64,192,10598,128,6,10890:0:0:0:0:
192,192,10890,1,6,0:0:0:0:
448,192,11183,128,6,11475:0:0:0:0:
320,192,11475,1,6,0:0:0:0:
192,192,11767,1,6,0:0:0:0:
320,192,11962,1,2,0:0:0:0:
448,192,12157,1,4,0:0:0:0:
64,192,12157,1,2,0:0:0:0:
192,192,12449,1,0,0:0:0:0:
448,192,12741,1,0,0:0:0:0:
64,192,12936,128,2,13325:0:0:0:0:
320,192,13131,1,2,0:0:0:0:
192,192,13325,1,0,0:0:0:0:
448,192,13325,1,2,0:0:0:0:
320,192,13520,1,2,0:0:0:0:
64,192,13715,1,2,0:0:0:0:
448,192,13715,1,4,0:0:0:0:
192,192,14105,1,12,0:0:0:0:
448,192,14494,1,2,0:0:0:0:
320,192,14884,1,8,0:0:0:0:
448,192,15273,1,2,0:0:0:0:
64,192,15273,1,0,0:0:0:0:
192,192,15663,1,8,0:0:0:0:
64,192,16053,128,2,16442:0:0:0:0:
448,192,16442,128,8,16832:0:0:0:0:
192,192,16832,1,2,0:0:0:0:
320,192,16832,1,0,0:0:0:0:
64,192,17222,1,12,0:0:0:0:
320,192,17611,1,2,0:0:0:0:
448,192,18001,1,8,0:0:0:0:
320,192,18390,1,2,0:0:0:0:
64,192,18390,1,4,0:0:0:0:
192,192,18780,1,8,0:0:0:0:
448,192,19170,1,2,0:0:0:0:
64,192,19559,1,8,0:0:0:0:
320,192,19949,1,4,0:0:0:0:
192,192,19949,1,2,0:0:0:0:
448,192,20338,1,8,0:0:0:0:
64,192,20728,1,4,0:0:0:0:
320,192,20728,1,2,0:0:0:0:
192,192,21118,1,8,0:0:0:0:
64,192,21507,1,2,0:0:0:0:
448,192,21507,1,4,0:0:0:0:
192,192,21799,1,6,0:0:0:0:
320,192,22092,1,6,0:0:0:0:
192,192,22286,1,4,0:0:0:0:
64,192,22286,128,0,22676:0:0:0:0:
448,192,22481,1,2,0:0:0:0:
320,192,22676,1,8,0:0:0:0:
192,192,22676,1,0,0:0:0:0:
64,192,22871,1,2,0:0:0:0:
320,192,23066,1,2,0:0:0:0:
448,192,23066,1,4,0:0:0:0:
192,192,23455,1,8,0:0:0:0:
448,192,23845,1,2,0:0:0:0:
64,192,23845,1,0,0:0:0:0:
320,192,24235,1,8,0:0:0:0:
448,192,24624,1,2,0:0:0:0:
192,192,24624,1,4,0:0:0:0:
64,192,25014,1,8,0:0:0:0:
320,192,25403,128,4,26183:0:0:0:0:
448,192,25403,1,2,0:0:0:0:
192,192,25793,128,12,26183:0:0:0:0:
64,192,26183,128,2,26962:0:0:0:0:
448,192,26183,1,4,0:0:0:0:
64,192,27351,1,8,0:0:0:0:
192,192,27546,1,0,0:0:0:0:
448,192,27546,1,2,0:0:0:0:
448,192,28131,1,8,0:0:0:0:
64,192,28325,1,2,0:0:0:0:
320,192,28325,1,0,0:0:0:0:
192,192,28910,1,8,0:0:0:0:
64,192,29105,1,0,0:0:0:0:
448,192,29105,1,2,0:0:0:0:
320,192,29494,1,8,0:0:0:0:
448,192,29494,1,0,0:0:0:0:
192,192,29786,1,8,0:0:0:0:
64,192,30079,1,2,0:0:0:0:
448,192,30079,128,4,30663:0:0:0:0:
