osu file format v14

[General]
AudioFilename: audio.mp3
AudioLeadIn: 0
PreviewTime: 62354
Countdown: 0
SampleSet: Soft
StackLeniency: 0.7
Mode: 3
LetterboxInBreaks: 0
SpecialStyle: 0
WidescreenStoryboard: 0

[Editor]
DistanceSpacing: 1.3
BeatDivisor: 4
GridSize: 32
TimelineZoom: 1.4

[Metadata]
Title:MeniMeni ManiMani
TitleUnicode:メニメニマニマニ
Artist:Takamiya Nasuno (CV:Narumi Kyoko)
ArtistUnicode:高宮なすの(CV:鳴海杏子)
Creator:Feerum
Version:EX
Source:pop'n music ラピストリア
Tags:てーきゅう teekyuu 2 opening lapistoria konami bemani
BeatmapID:1167645
BeatmapSetID:551251

[Difficulty]
HPDrainRate:8.5
CircleSize:9
OverallDifficulty:7.5
ApproachRate:5
SliderMultiplier:1.4
SliderTickRate:1

[Events]
//Background and Video events
0,0,"teekyuu.jpg",0,0
//Break Periods
//Storyboard Layer 0 (Background)
//Storyboard Layer 1 (Fail)
//Storyboard Layer 2 (Pass)
//Storyboard Layer 3 (Foreground)
//Storyboard Sound Samples

[TimingPoints]
1575,389.61038961039,4,2,1,50,1,0
62354,-100,4,2,1,50,0,1
74432,-100,4,2,1,50,0,0
74821,-100,4,2,1,50,0,1
87289,-100,4,2,1,50,0,0

[HitObjects]
28,192,1575,5,0,0:0:0:0:
142,192,1575,1,2,2:0:0:0:
28,192,1769,1,0,0:0:0:0:
142,192,1769,1,2,2:0:0:0:
85,192,1964,1,0,0:0:0:0:
426,192,2062,1,0,0:0:0:0:
85,192,2256,1,0,0:0:0:0:
426,192,2354,1,0,0:0:0:0:
85,192,2549,1,0,0:0:0:0:
426,192,2646,1,0,0:0:0:0:
256,192,2743,1,0,0:0:0:0:
85,192,2841,1,0,0:0:0:0:
426,192,2938,1,0,0:0:0:0:
483,192,3133,1,2,2:0:0:0:
369,192,3133,1,0,0:0:0:0:
483,192,3328,1,2,2:0:0:0:
369,192,3328,1,0,0:0:0:0:
312,192,3523,1,0,0:0:0:0:
28,192,3620,1,0,0:0:0:0:
312,192,3815,1,0,0:0:0:0:
28,192,3912,1,0,0:0:0:0:
312,192,4107,1,0,0:0:0:0:
28,192,4204,1,0,0:0:0:0:
426,192,4302,1,0,0:0:0:0:
312,192,4399,1,0,0:0:0:0:
28,192,4497,1,0,0:0:0:0:
85,192,4691,1,2,2:0:0:0:
369,192,4691,1,0,0:0:0:0:
369,192,4886,1,0,0:0:0:0:
85,192,4886,1,2,2:0:0:0:
256,192,5081,1,0,0:0:0:0:
483,192,5178,1,0,0:0:0:0:
256,192,5373,1,0,0:0:0:0:
483,192,5471,1,0,0:0:0:0:
256,192,5665,1,0,0:0:0:0:
483,192,5763,1,0,0:0:0:0:
85,192,5860,1,0,0:0:0:0:
256,192,5958,1,0,0:0:0:0:
483,192,6055,1,0,0:0:0:0:
426,192,6250,1,2,2:0:0:0:
142,192,6250,1,0,0:0:0:0:
426,192,6445,1,2,2:0:0:0:
142,192,6445,1,0,0:0:0:0:
369,192,6639,1,0,0:0:0:0:
28,192,6737,1,0,0:0:0:0:
28,192,6932,1,0,0:0:0:0:
312,192,6932,1,0,0:0:0:0:
85,192,7126,1,0,0:0:0:0:
142,192,7224,1,0,0:0:0:0:
199,192,7321,1,0,0:0:0:0:
256,192,7419,128,0,7808:0:0:0:0:
483,192,7419,1,0,0:0:0:0:
426,192,7516,1,0,0:0:0:0:
369,192,7613,1,0,0:0:0:0:
312,192,7711,1,0,0:0:0:0:
85,192,7808,1,2,2:0:0:0:
28,192,7808,1,0,0:0:0:0:
483,192,7808,1,0,3:0:0:0:
85,192,8003,1,2,2:0:0:0:
28,192,8003,1,0,0:0:0:0:
426,192,8100,1,0,0:0:0:0:
369,192,8198,1,2,3:0:0:0:
312,192,8198,1,0,0:0:0:0:
199,192,8295,1,0,0:0:0:0:
28,192,8393,1,0,0:0:0:0:
142,192,8490,1,0,0:0:0:0:
256,192,8587,1,0,3:0:0:0:
426,192,8587,1,0,0:0:0:0:
369,192,8685,1,0,0:0:0:0:
483,192,8782,1,0,0:0:0:0:
142,192,8880,1,0,0:0:0:0:
312,192,8977,1,2,3:0:0:0:
28,192,8977,1,0,0:0:0:0:
199,192,9075,1,0,0:0:0:0:
426,192,9172,1,0,0:0:0:0:
369,192,9367,1,2,2:0:0:0:
256,192,9367,1,0,3:0:0:0:
85,192,9367,128,0,9562:0:0:0:0:
199,192,9562,128,0,9756:0:0:0:0:
312,192,9562,1,2,2:0:0:0:
483,192,9756,128,0,9951:0:0:0:0:
28,192,9756,1,0,0:0:0:0:
426,192,9756,1,2,3:0:0:0:
312,192,9951,128,0,10341:0:0:0:0:
142,192,9951,1,0,0:0:0:0:
199,192,10146,1,0,3:0:0:0:
426,192,10146,1,0,0:0:0:0:
142,192,10341,128,0,10536:0:0:0:0:
369,192,10341,1,0,0:0:0:0:
28,192,10536,128,0,10925:0:0:0:0:
256,192,10536,1,2,3:0:0:0:
426,192,10536,1,0,0:0:0:0:
483,192,10730,1,0,0:0:0:0:
199,192,10925,1,0,3:0:0:0:
426,192,10925,1,2,2:0:0:0:
85,192,10925,1,4,3:0:0:0:
426,192,11120,1,2,2:0:0:0:
199,192,11120,1,0,0:0:0:0:
312,192,11217,1,0,0:0:0:0:
142,192,11315,1,0,0:0:0:0:
256,192,11315,1,2,3:0:0:0:
483,192,11412,1,0,0:0:0:0:
369,192,11510,1,0,0:0:0:0:
85,192,11607,1,0,0:0:0:0:
312,192,11704,1,0,3:0:0:0:
28,192,11704,1,0,0:0:0:0:
426,192,11802,1,0,0:0:0:0:
256,192,11899,1,0,0:0:0:0:
85,192,11997,1,0,0:0:0:0:
199,192,12094,1,2,3:0:0:0:
483,192,12094,1,0,0:0:0:0:
369,192,12191,1,0,0:0:0:0:
142,192,12289,1,0,0:0:0:0:
256,192,12484,128,4,12678:3:0:0:0:
426,192,12484,1,2,2:0:0:0:
28,192,12484,1,0,3:0:0:0:
426,192,12678,1,2,2:0:0:0:
28,192,12678,1,0,0:0:0:0:
85,192,12873,1,0,0:0:0:0:
369,192,12873,1,2,3:0:0:0:
256,192,12873,128,0,13068:0:0:0:0:
312,192,13068,1,0,0:0:0:0:
142,192,13165,1,0,0:0:0:0:
426,192,13263,1,0,3:0:0:0:
28,192,13263,128,0,13652:0:0:0:0:
199,192,13458,128,0,13652:0:0:0:0:
369,192,13458,1,0,0:0:0:0:
483,192,13652,128,0,14042:0:0:0:0:
85,192,13652,1,0,3:0:0:0:
426,192,13652,1,2,3:0:0:0:
312,192,13847,128,0,14042:0:0:0:0:
142,192,13847,1,0,3:0:0:0:
28,192,14042,128,0,14821:0:0:0:0:
256,192,14042,1,2,2:0:0:0:
85,192,14042,1,6,3:0:0:0:
426,192,14237,1,2,2:0:0:0:
369,192,14237,1,0,0:0:0:0:
142,192,14432,1,0,0:0:0:0:
199,192,14432,1,6,3:0:0:0:
483,192,14432,1,0,0:0:0:0:
312,192,14626,1,0,3:0:0:0:
256,192,14626,1,0,0:0:0:0:
483,192,14821,1,6,3:0:0:0:
426,192,14821,1,0,0:0:0:0:
85,192,14821,1,0,0:0:0:0:
369,192,15016,1,0,3:0:0:0:
142,192,15016,1,0,0:0:0:0:
256,192,15211,1,6,3:0:0:0:
28,192,15211,1,0,0:0:0:0:
483,192,15211,1,0,0:0:0:0:
199,192,15406,1,0,3:0:0:0:
312,192,15406,1,0,0:0:0:0:
426,192,15600,1,2,2:0:0:0:
369,192,15600,1,6,3:0:0:0:
28,192,15600,1,0,0:0:0:0:
142,192,15795,1,0,3:0:0:0:
85,192,15795,1,2,2:0:0:0:
369,192,15990,1,6,3:0:0:0:
426,192,15990,1,0,0:0:0:0:
256,192,15990,1,0,0:0:0:0:
142,192,16185,1,0,3:0:0:0:
85,192,16185,1,0,0:0:0:0:
483,192,16380,1,0,0:0:0:0:
426,192,16380,1,6,3:0:0:0:
28,192,16477,1,0,0:0:0:0:
85,192,16477,1,0,3:0:0:0:
312,192,16575,1,0,0:0:0:0:
369,192,16575,1,0,3:0:0:0:
199,192,16672,1,0,3:0:0:0:
142,192,16672,1,0,0:0:0:0:
483,192,16769,1,0,3:0:0:0:
28,192,16769,1,6,3:0:0:0:
426,192,16834,1,0,3:0:0:0:
85,192,16834,1,0,0:0:0:0:
369,192,16899,1,0,3:0:0:0:
142,192,16899,1,0,0:0:0:0:
312,192,16964,1,0,3:0:0:0:
199,192,16964,1,0,0:0:0:0:
483,192,17029,1,0,0:0:0:0:
28,192,17029,1,0,3:0:0:0:
426,192,17094,1,0,0:0:0:0:
85,192,17094,1,0,3:0:0:0:
369,192,17159,1,0,0:0:0:0:
142,192,17159,1,0,3:0:0:0:
256,192,17159,1,0,0:0:0:0:
312,192,17451,1,0,3:0:0:0:
426,192,17451,1,0,0:0:0:0:
199,192,17451,1,0,0:0:0:0:
256,192,17743,1,8,3:0:0:0:
369,192,17743,1,0,0:0:0:0:
142,192,17743,1,0,0:0:0:0:
85,192,17938,1,0,0:0:0:0:
199,192,17938,1,0,3:0:0:0:
312,192,17938,1,0,0:0:0:0:
483,192,18230,1,0,0:0:0:0:
369,192,18230,1,0,3:0:0:0:
142,192,18230,1,0,0:0:0:0:
28,192,18523,1,8,3:0:0:0:
142,192,18523,1,0,0:0:0:0:
369,192,18523,1,0,0:0:0:0:
483,192,18717,1,0,3:0:0:0:
199,192,18717,1,0,0:0:0:0:
426,192,18815,1,0,0:0:0:0:
369,192,18912,1,0,0:0:0:0:
312,192,19010,1,0,0:0:0:0:
256,192,19107,1,8,3:0:0:0:
28,192,19107,1,0,0:0:0:0:
85,192,19204,1,0,0:0:0:0:
142,192,19302,1,0,0:0:0:0:
199,192,19399,1,0,0:0:0:0:
256,192,19497,1,0,0:0:0:0:
483,192,19497,1,0,3:0:0:0:
426,192,19594,1,0,0:0:0:0:
369,192,19691,1,0,0:0:0:0:
28,192,19691,1,0,3:0:0:0:
85,192,19789,1,0,0:0:0:0:
142,192,19886,1,8,3:0:0:0:
483,192,19886,1,0,0:0:0:0:
426,192,19984,1,0,0:0:0:0:
369,192,20081,1,0,3:0:0:0:
28,192,20081,1,0,0:0:0:0:
85,192,20178,1,0,0:0:0:0:
142,192,20276,1,0,0:0:0:0:
256,192,20276,1,0,3:0:0:0:
483,192,20276,1,4,3:0:0:0:
312,192,20471,1,0,0:0:0:0:
426,192,20665,1,0,0:0:0:0:
28,192,20665,1,2,3:0:0:0:
85,192,20763,1,0,0:0:0:0:
142,192,20860,1,0,0:0:0:0:
199,192,20958,1,0,0:0:0:0:
312,192,21055,1,0,3:0:0:0:
256,192,21055,1,0,0:0:0:0:
369,192,21250,1,0,0:0:0:0:
142,192,21347,1,0,0:0:0:0:
28,192,21445,1,0,0:0:0:0:
483,192,21445,1,2,3:0:0:0:
426,192,21639,1,0,0:0:0:0:
199,192,21834,1,0,3:0:0:0:
369,192,21834,1,0,0:0:0:0:
85,192,22029,1,0,0:0:0:0:
256,192,22224,1,0,0:0:0:0:
312,192,22224,1,2,3:0:0:0:
28,192,22419,1,0,0:0:0:0:
142,192,22516,1,0,0:0:0:0:
483,192,22613,1,0,0:0:0:0:
369,192,22613,1,0,3:0:0:0:
199,192,22808,1,0,0:0:0:0:
312,192,22906,1,0,0:0:0:0:
426,192,23003,1,0,0:0:0:0:
85,192,23003,1,2,3:0:0:0:
256,192,23198,1,0,0:0:0:0:
142,192,23393,1,0,3:0:0:0:
28,192,23393,1,0,0:0:0:0:
483,192,23587,1,0,0:0:0:0:
369,192,23782,1,2,3:0:0:0:
199,192,23782,1,0,0:0:0:0:
256,192,23880,1,0,0:0:0:0:
28,192,23977,1,0,0:0:0:0:
142,192,24075,1,0,0:0:0:0:
312,192,24172,1,0,3:0:0:0:
483,192,24172,1,0,0:0:0:0:
199,192,24367,1,0,0:0:0:0:
85,192,24464,1,0,0:0:0:0:
426,192,24562,1,0,0:0:0:0:
369,192,24562,1,2,3:0:0:0:
142,192,24756,1,0,0:0:0:0:
312,192,24951,128,0,25341:0:0:0:0:
28,192,24951,1,0,3:0:0:0:
199,192,25146,128,0,25536:0:0:0:0:
426,192,25146,1,0,0:0:0:0:
483,192,25341,128,0,25730:0:0:0:0:
85,192,25341,1,2,3:0:0:0:
369,192,25536,128,0,25730:0:0:0:0:
256,192,25536,1,0,0:0:0:0:
28,192,25730,1,0,0:0:0:0:
142,192,25730,1,0,3:0:0:0:
312,192,25925,1,0,0:0:0:0:
199,192,26023,1,0,0:0:0:0:
426,192,26120,1,2,3:0:0:0:
85,192,26120,1,0,0:0:0:0:
256,192,26315,1,0,0:0:0:0:
28,192,26510,128,0,26802:0:0:0:0:
369,192,26510,1,0,3:0:0:0:
142,192,26704,1,0,0:0:0:0:
483,192,26802,128,0,27094:0:0:0:0:
85,192,26899,1,2,3:0:0:0:
199,192,26899,1,0,0:0:0:0:
256,192,27094,128,0,27289:0:0:0:0:
312,192,27094,1,0,0:0:0:0:
426,192,27289,128,0,27581:0:0:0:0:
142,192,27289,1,0,3:0:0:0:
199,192,27484,1,0,0:0:0:0:
85,192,27581,128,0,27873:0:0:0:0:
369,192,27678,1,2,3:0:0:0:
483,192,27678,1,0,0:0:0:0:
312,192,27873,128,0,28068:0:0:0:0:
142,192,27873,1,0,0:0:0:0:
426,192,28068,1,0,3:0:0:0:
28,192,28068,128,0,28360:0:0:0:0:
256,192,28263,1,0,0:0:0:0:
199,192,28360,128,0,28652:0:0:0:0:
483,192,28458,1,0,0:0:0:0:
312,192,28458,1,2,3:0:0:0:
369,192,28652,128,0,28847:0:0:0:0:
142,192,28652,1,0,0:0:0:0:
85,192,28847,128,0,29139:0:0:0:0:
28,192,28847,1,0,3:0:0:0:
312,192,29042,1,0,0:0:0:0:
483,192,29139,128,0,29432:0:0:0:0:
142,192,29237,1,0,0:0:0:0:
369,192,29237,1,2,3:0:0:0:
256,192,29432,128,0,29626:0:0:0:0:
28,192,29432,1,0,0:0:0:0:
85,192,29626,1,0,0:0:0:0:
199,192,29626,1,2,3:0:0:0:
426,192,29626,1,4,3:0:0:0:
85,192,29724,1,0,0:0:0:0:
199,192,29724,1,2,3:0:0:0:
312,192,30016,128,0,30406:0:0:0:0:
369,192,30016,1,0,3:0:0:0:
142,192,30016,1,0,0:0:0:0:
483,192,30406,1,2,3:0:0:0:
142,192,30406,1,0,0:0:0:0:
28,192,30406,1,4,3:0:0:0:
483,192,30503,1,2,3:0:0:0:
142,192,30503,1,0,0:0:0:0:
85,192,30795,128,0,31185:0:0:0:0:
199,192,30795,1,0,3:0:0:0:
312,192,30795,1,0,0:0:0:0:
426,192,31185,1,0,0:0:0:0:
369,192,31185,1,2,3:0:0:0:
256,192,31185,1,4,3:0:0:0:
426,192,31282,1,0,0:0:0:0:
369,192,31282,1,2,3:0:0:0:
142,192,31575,128,0,31964:0:0:0:0:
312,192,31575,1,0,3:0:0:0:
483,192,31575,1,0,0:0:0:0:
28,192,31964,1,2,3:0:0:0:
483,192,31964,1,0,0:0:0:0:
256,192,31964,1,4,3:0:0:0:
483,192,32062,1,0,0:0:0:0:
28,192,32062,1,2,3:0:0:0:
369,192,32354,128,0,32743:0:0:0:0:
199,192,32354,1,0,3:0:0:0:
142,192,32354,1,0,0:0:0:0:
199,192,32549,1,0,3:0:0:0:
256,192,32743,1,0,3:0:0:0:
28,192,32743,1,0,0:0:0:0:
142,192,32743,1,4,3:0:0:0:
426,192,32938,1,0,0:0:0:0:
199,192,33133,1,0,0:0:0:0:
312,192,33133,1,2,3:0:0:0:
85,192,33230,1,0,0:0:0:0:
483,192,33328,1,0,0:0:0:0:
256,192,33523,1,0,3:0:0:0:
142,192,33523,1,0,0:0:0:0:
28,192,33717,1,0,0:0:0:0:
199,192,33815,1,0,0:0:0:0:
426,192,33912,1,0,0:0:0:0:
312,192,33912,1,2,3:0:0:0:
85,192,34107,1,0,0:0:0:0:
483,192,34302,1,0,0:0:0:0:
142,192,34302,1,0,3:0:0:0:
369,192,34497,1,0,0:0:0:0:
256,192,34691,1,2,3:0:0:0:
28,192,34691,1,0,0:0:0:0:
85,192,34789,1,0,0:0:0:0:
142,192,34886,1,0,0:0:0:0:
369,192,34984,1,0,0:0:0:0:
312,192,35081,1,0,0:0:0:0:
199,192,35081,1,0,3:0:0:0:
426,192,35276,1,0,0:0:0:0:
85,192,35373,1,0,0:0:0:0:
256,192,35471,1,2,3:0:0:0:
483,192,35471,1,0,0:0:0:0:
28,192,35665,1,0,0:0:0:0:
142,192,35860,1,0,3:0:0:0:
369,192,35860,128,0,37419:0:0:0:0:
199,192,36055,1,0,0:0:0:0:
85,192,36250,1,0,0:0:0:0:
312,192,36250,1,2,3:0:0:0:
28,192,36445,1,0,0:0:0:0:
142,192,36542,1,0,0:0:0:0:
256,192,36639,1,0,3:0:0:0:
483,192,36639,1,0,0:0:0:0:
85,192,36834,1,0,0:0:0:0:
199,192,36932,1,0,0:0:0:0:
28,192,37029,1,2,3:0:0:0:
312,192,37029,1,0,0:0:0:0:
256,192,37224,1,0,0:0:0:0:
142,192,37419,128,0,38977:0:0:0:0:
483,192,37419,128,0,37613:0:0:0:0:
85,192,37419,1,0,3:0:0:0:
312,192,37613,128,0,37808:0:0:0:0:
28,192,37613,1,0,0:0:0:0:
426,192,37808,128,0,38003:0:0:0:0:
199,192,37808,1,2,3:0:0:0:
256,192,38003,128,0,38198:0:0:0:0:
369,192,38003,1,0,0:0:0:0:
483,192,38198,1,0,3:0:0:0:
85,192,38198,1,0,0:0:0:0:
426,192,38393,1,0,0:0:0:0:
312,192,38490,1,0,0:0:0:0:
199,192,38587,1,0,0:0:0:0:
483,192,38587,1,2,3:0:0:0:
256,192,38782,1,0,0:0:0:0:
483,192,38977,128,4,39269:3:0:0:0:
28,192,38977,1,0,3:0:0:0:
199,192,39172,1,0,0:0:0:0:
369,192,39269,128,0,39562:0:0:0:0:
85,192,39367,1,0,0:0:0:0:
256,192,39367,1,2,3:0:0:0:
28,192,39562,128,0,39756:0:0:0:0:
426,192,39562,1,0,0:0:0:0:
199,192,39756,128,4,40049:3:0:0:0:
142,192,39756,1,0,3:0:0:0:
483,192,39951,1,0,0:0:0:0:
312,192,40049,128,0,40341:0:0:0:0:
28,192,40146,1,0,0:0:0:0:
256,192,40146,1,2,3:0:0:0:
85,192,40341,128,0,40536:0:0:0:0:
142,192,40341,1,0,0:0:0:0:
426,192,40536,128,4,40828:3:0:0:0:
369,192,40536,1,0,3:0:0:0:
28,192,40730,1,0,0:0:0:0:
256,192,40828,128,0,41120:0:0:0:0:
312,192,40925,1,0,0:0:0:0:
199,192,40925,1,2,3:0:0:0:
142,192,41120,128,0,41315:0:0:0:0:
483,192,41120,1,0,0:0:0:0:
28,192,41315,128,4,41607:3:0:0:0:
426,192,41315,1,0,3:0:0:0:
199,192,41510,1,0,0:0:0:0:
369,192,41607,128,0,41899:0:0:0:0:
142,192,41704,1,0,0:0:0:0:
256,192,41704,1,2,3:0:0:0:
85,192,41899,1,0,0:0:0:0:
483,192,42094,1,0,0:0:0:0:
28,192,42094,1,2,3:0:0:0:
256,192,42094,1,4,3:0:0:0:
483,192,42191,1,0,0:0:0:0:
28,192,42191,1,2,3:0:0:0:
369,192,42484,128,0,42873:0:0:0:0:
142,192,42484,128,0,42873:0:0:0:0:
256,192,42484,1,0,3:0:0:0:
312,192,42873,1,2,3:0:0:0:
199,192,42873,1,4,3:0:0:0:
312,192,42971,1,2,3:0:0:0:
199,192,42971,1,0,0:0:0:0:
256,192,43263,1,0,3:0:0:0:
426,192,43263,128,0,43652:0:0:0:0:
85,192,43263,128,0,43652:0:0:0:0:
483,192,43652,1,0,0:0:0:0:
28,192,43652,1,0,0:0:0:0:
199,192,43652,1,4,3:0:0:0:
312,192,43652,1,0,0:0:0:0:
369,192,43847,1,0,3:0:0:0:
142,192,43847,1,0,0:0:0:0:
426,192,43945,1,0,0:0:0:0:
85,192,43945,1,0,0:0:0:0:
256,192,43945,1,8,3:0:0:0:
483,192,44237,1,0,0:0:0:0:
312,192,44237,1,0,0:0:0:0:
199,192,44237,1,0,3:0:0:0:
28,192,44432,1,0,3:0:0:0:
142,192,44432,1,0,0:0:0:0:
369,192,44432,1,0,0:0:0:0:
85,192,44691,1,0,0:0:0:0:
426,192,44756,1,0,0:0:0:0:
312,192,44821,1,0,0:0:0:0:
199,192,44821,1,2,3:0:0:0:
369,192,45211,1,0,3:0:0:0:
28,192,45211,1,4,3:0:0:0:
483,192,45211,1,0,0:0:0:0:
142,192,45406,1,0,0:0:0:0:
312,192,45600,1,0,3:0:0:0:
199,192,45600,1,0,0:0:0:0:
426,192,45795,1,0,0:0:0:0:
256,192,45990,1,0,3:0:0:0:
28,192,45990,1,0,0:0:0:0:
142,192,46185,1,0,0:0:0:0:
369,192,46380,1,0,3:0:0:0:
483,192,46380,1,0,0:0:0:0:
199,192,46575,1,0,0:0:0:0:
85,192,46769,1,0,0:0:0:0:
312,192,46769,1,0,3:0:0:0:
426,192,46964,1,0,0:0:0:0:
142,192,47159,1,0,3:0:0:0:
28,192,47159,1,0,0:0:0:0:
256,192,47354,1,0,0:0:0:0:
369,192,47549,1,0,0:0:0:0:
312,192,47549,1,0,3:0:0:0:
85,192,47743,128,0,47841:0:0:0:0:
483,192,47743,1,0,0:0:0:0:
199,192,47841,128,0,47938:0:0:0:0:
312,192,47938,128,0,48036:0:0:0:0:
28,192,47938,1,0,3:0:0:0:
426,192,48036,128,0,48328:0:0:0:0:
142,192,48133,1,0,0:0:0:0:
256,192,48328,1,0,3:0:0:0:
85,192,48328,1,0,0:0:0:0:
369,192,48523,1,0,0:0:0:0:
199,192,48717,1,0,0:0:0:0:
312,192,48717,1,0,3:0:0:0:
142,192,48912,1,0,0:0:0:0:
483,192,49107,1,0,0:0:0:0:
28,192,49107,1,0,3:0:0:0:
256,192,49302,1,0,0:0:0:0:
85,192,49497,1,0,0:0:0:0:
426,192,49497,1,0,3:0:0:0:
142,192,49691,1,0,0:0:0:0:
483,192,49886,128,0,50665:0:0:0:0:
426,192,49886,128,0,50665:0:0:0:0:
312,192,49886,128,0,50276:3:0:0:0:
28,192,50081,1,0,0:0:0:0:
85,192,50276,1,0,0:0:0:0:
256,192,50276,128,0,50665:3:0:0:0:
142,192,50471,1,0,0:0:0:0:
199,192,50665,128,0,51055:3:0:0:0:
28,192,50665,128,0,51445:0:0:0:0:
85,192,50665,128,0,51445:0:0:0:0:
312,192,50860,1,0,0:0:0:0:
426,192,51055,1,0,3:0:0:0:
483,192,51055,1,0,0:0:0:0:
369,192,51250,1,0,0:0:0:0:
312,192,51445,1,0,0:0:0:0:
142,192,51445,1,0,3:0:0:0:
256,192,51639,1,0,0:0:0:0:
483,192,51834,1,0,0:0:0:0:
426,192,51834,1,0,3:0:0:0:
199,192,52029,1,0,0:0:0:0:
369,192,52224,1,0,3:0:0:0:
85,192,52224,1,0,0:0:0:0:
28,192,52419,1,0,0:0:0:0:
312,192,52613,1,0,3:0:0:0:
483,192,52613,1,0,0:0:0:0:
256,192,52808,1,0,0:0:0:0:
142,192,53003,128,0,53782:0:0:0:0:
369,192,53003,128,0,53782:0:0:0:0:
85,192,53003,1,0,3:0:0:0:
199,192,53198,1,0,0:0:0:0:
312,192,53393,1,0,0:0:0:0:
256,192,53393,1,0,3:0:0:0:
426,192,53587,1,0,0:0:0:0:
483,192,53782,128,0,54562:0:0:0:0:
28,192,53782,128,0,54562:0:0:0:0:
199,192,53782,1,0,3:0:0:0:
256,192,53977,1,0,0:0:0:0:
312,192,54172,1,0,3:0:0:0:
199,192,54172,1,0,0:0:0:0:
369,192,54367,1,0,0:0:0:0:
85,192,54562,1,4,3:0:0:0:
256,192,54562,1,0,3:0:0:0:
426,192,54562,1,0,0:0:0:0:
369,192,55925,1,0,3:0:0:0:
312,192,55925,1,0,0:0:0:0:
142,192,55925,1,0,0:0:0:0:
28,192,56120,1,0,0:0:0:0:
85,192,56120,1,4,3:0:0:0:
483,192,56120,1,0,3:0:0:0:
256,192,57484,1,0,0:0:0:0:
369,192,57484,1,0,0:0:0:0:
142,192,57484,1,0,3:0:0:0:
483,192,57678,1,4,3:0:0:0:
312,192,57678,1,0,0:0:0:0:
199,192,57678,1,0,3:0:0:0:
28,192,57678,1,0,0:0:0:0:
426,192,57971,1,0,0:0:0:0:
85,192,57971,1,0,3:0:0:0:
426,192,58263,1,0,3:0:0:0:
85,192,58263,1,0,0:0:0:0:
256,192,58458,1,4,3:0:0:0:
369,192,58458,1,0,0:0:0:0:
142,192,58458,1,0,3:0:0:0:
312,192,58750,1,0,0:0:0:0:
199,192,58750,1,0,3:0:0:0:
483,192,59042,1,0,3:0:0:0:
28,192,59042,1,0,0:0:0:0:
85,192,59237,128,4,59626:3:0:0:0:
426,192,59237,1,2,3:0:0:0:
199,192,59432,128,0,59821:0:0:0:0:
369,192,59432,1,0,3:0:0:0:
312,192,59626,128,4,60016:3:0:0:0:
483,192,59626,1,2,3:0:0:0:
426,192,59821,128,0,60211:0:0:0:0:
85,192,59821,1,0,3:0:0:0:
199,192,60016,1,2,3:0:0:0:
28,192,60016,128,4,60406:3:0:0:0:
312,192,60211,1,0,3:0:0:0:
142,192,60211,128,0,60600:0:0:0:0:
426,192,60406,1,2,3:0:0:0:
256,192,60406,128,4,60795:3:0:0:0:
369,192,60600,128,0,60795:0:0:0:0:
28,192,60600,1,0,3:0:0:0:
85,192,60795,1,2,3:0:0:0:
483,192,60795,1,0,0:0:0:0:
426,192,60893,1,0,0:0:0:0:
369,192,60990,1,0,0:0:0:0:
142,192,60990,1,0,3:0:0:0:
312,192,61087,1,0,0:0:0:0:
28,192,61185,1,0,0:0:0:0:
426,192,61185,1,2,3:0:0:0:
85,192,61282,1,0,0:0:0:0:
142,192,61380,1,0,0:0:0:0:
369,192,61380,1,0,3:0:0:0:
199,192,61477,1,0,0:0:0:0:
483,192,61575,1,0,0:0:0:0:
28,192,61575,1,2,3:0:0:0:
85,192,61672,1,0,0:0:0:0:
426,192,61672,1,0,0:0:0:0:
142,192,61769,1,0,0:0:0:0:
369,192,61769,1,0,3:0:0:0:
199,192,61867,1,0,0:0:0:0:
312,192,61867,1,0,0:0:0:0:
426,192,61964,1,2,3:0:0:0:
85,192,61964,1,0,3:0:0:0:
483,192,62062,1,0,0:0:0:0:
28,192,62062,1,0,3:0:0:0:
199,192,62159,1,0,3:0:0:0:
312,192,62159,1,0,0:0:0:0:
142,192,62256,1,0,0:0:0:0:
369,192,62256,1,0,3:0:0:0:
256,192,62354,1,0,3:0:0:0:
85,192,62354,128,0,62549:0:0:0:0:
426,192,62354,128,4,62549:2:0:0:0:
369,192,62549,128,0,62743:0:0:0:0:
142,192,62549,128,0,62743:0:0:0:0:
483,192,62743,128,0,62938:0:0:0:0:
28,192,62743,128,0,62938:0:0:0:0:
256,192,62743,1,2,3:0:0:0:
312,192,62938,128,0,63133:0:0:0:0:
199,192,62938,128,0,63133:0:0:0:0:
85,192,63133,1,0,3:0:0:0:
426,192,63133,1,0,0:0:0:0:
256,192,63328,1,0,0:0:0:0:
369,192,63425,1,0,0:0:0:0:
28,192,63523,1,0,0:0:0:0:
142,192,63523,1,2,3:0:0:0:
312,192,63620,1,0,0:0:0:0:
199,192,63717,1,0,0:0:0:0:
256,192,63815,1,0,0:0:0:0:
85,192,63912,1,0,0:0:0:0:
426,192,63912,1,0,0:0:0:0:
369,192,64107,1,0,0:0:0:0:
142,192,64107,1,0,0:0:0:0:
312,192,64302,1,2,3:0:0:0:
199,192,64302,1,0,0:0:0:0:
28,192,64399,1,0,0:0:0:0:
85,192,64497,1,0,0:0:0:0:
483,192,64594,1,0,0:0:0:0:
256,192,64691,128,0,64886:0:0:0:0:
426,192,64691,1,0,0:0:0:0:
142,192,64886,128,0,65081:0:0:0:0:
28,192,64886,1,0,0:0:0:0:
312,192,65081,128,0,65276:0:0:0:0:
369,192,65081,1,0,0:0:0:0:
85,192,65081,1,2,3:0:0:0:
199,192,65276,128,0,65471:0:0:0:0:
426,192,65276,1,0,0:0:0:0:
483,192,65471,128,0,65665:0:0:0:0:
28,192,65471,128,0,65665:0:0:0:0:
256,192,65471,1,0,3:0:0:0:
142,192,65665,128,0,65860:0:0:0:0:
369,192,65665,128,0,65860:0:0:0:0:
483,192,65860,128,0,66055:0:0:0:0:
28,192,65860,128,0,66055:0:0:0:0:
256,192,65860,1,2,3:0:0:0:
312,192,66055,128,0,66250:0:0:0:0:
199,192,66055,128,0,66250:0:0:0:0:
85,192,66250,1,0,0:0:0:0:
426,192,66250,1,0,3:0:0:0:
142,192,66445,1,0,0:0:0:0:
483,192,66542,1,0,0:0:0:0:
256,192,66639,1,2,3:0:0:0:
28,192,66639,1,0,0:0:0:0:
369,192,66737,1,0,0:0:0:0:
199,192,66834,1,0,0:0:0:0:
85,192,66932,1,0,0:0:0:0:
312,192,67029,1,0,3:0:0:0:
426,192,67029,1,0,0:0:0:0:
369,192,67224,1,0,0:0:0:0:
256,192,67224,1,0,0:0:0:0:
312,192,67419,1,2,3:0:0:0:
199,192,67419,1,0,0:0:0:0:
85,192,67516,1,0,0:0:0:0:
483,192,67613,1,0,0:0:0:0:
369,192,67711,1,0,0:0:0:0:
28,192,67808,128,0,68003:0:0:0:0:
256,192,67808,1,0,3:0:0:0:
199,192,68003,128,0,68198:0:0:0:0:
312,192,68003,1,0,0:0:0:0:
369,192,68198,128,0,68393:0:0:0:0:
483,192,68198,1,2,3:0:0:0:
142,192,68198,1,0,0:0:0:0:
85,192,68393,128,0,68587:0:0:0:0:
426,192,68393,1,0,0:0:0:0:
256,192,68587,128,0,69367:0:0:0:0:
28,192,68587,1,0,3:0:0:0:
312,192,68587,1,4,2:0:0:0:
199,192,68782,1,0,0:0:0:0:
483,192,68977,1,2,3:0:0:0:
85,192,68977,1,0,0:0:0:0:
369,192,68977,1,0,0:0:0:0:
426,192,69172,1,0,0:0:0:0:
142,192,69367,128,0,70146:0:0:0:0:
312,192,69367,1,0,3:0:0:0:
28,192,69367,1,0,0:0:0:0:
483,192,69562,1,0,0:0:0:0:
199,192,69756,1,2,3:0:0:0:
426,192,69756,1,0,0:0:0:0:
369,192,69756,1,0,0:0:0:0:
85,192,69951,1,0,0:0:0:0:
312,192,70146,128,0,70925:0:0:0:0:
256,192,70146,1,0,3:0:0:0:
426,192,70146,1,0,0:0:0:0:
28,192,70341,1,0,0:0:0:0:
199,192,70536,1,0,0:0:0:0:
369,192,70536,1,2,3:0:0:0:
142,192,70536,1,0,0:0:0:0:
85,192,70730,1,0,0:0:0:0:
483,192,70925,128,0,71704:0:0:0:0:
142,192,70925,1,0,3:0:0:0:
28,192,70925,1,0,0:0:0:0:
256,192,71120,1,0,0:0:0:0:
369,192,71315,1,2,3:0:0:0:
85,192,71315,1,0,0:0:0:0:
28,192,71315,1,0,0:0:0:0:
199,192,71510,1,0,0:0:0:0:
85,192,71704,1,0,0:0:0:0:
256,192,71704,1,8,3:0:0:0:
426,192,71704,1,0,0:0:0:0:
312,192,71899,1,2,3:0:0:0:
199,192,71899,1,0,0:0:0:0:
426,192,71997,1,8,3:0:0:0:
256,192,71997,1,0,0:0:0:0:
85,192,71997,1,0,0:0:0:0:
312,192,72191,1,0,0:0:0:0:
199,192,72191,1,2,3:0:0:0:
426,192,72289,1,0,0:0:0:0:
256,192,72289,1,0,0:0:0:0:
85,192,72289,1,8,3:0:0:0:
312,192,72484,1,2,3:0:0:0:
199,192,72484,1,0,0:0:0:0:
426,192,72581,1,8,3:0:0:0:
256,192,72581,1,0,0:0:0:0:
85,192,72581,1,0,0:0:0:0:
312,192,72776,1,0,0:0:0:0:
199,192,72776,1,2,3:0:0:0:
426,192,72873,1,0,0:0:0:0:
256,192,72873,1,0,0:0:0:0:
85,192,72873,1,8,3:0:0:0:
369,192,73068,1,8,3:0:0:0:
142,192,73068,1,0,0:0:0:0:
28,192,73263,128,0,73555:0:0:0:0:
256,192,73263,1,0,3:0:0:0:
426,192,73263,1,0,0:0:0:0:
483,192,73555,128,0,73847:0:0:0:0:
312,192,73652,1,2,3:0:0:0:
142,192,73652,1,0,0:0:0:0:
199,192,73847,128,0,74042:0:0:0:0:
369,192,73847,1,0,0:0:0:0:
85,192,74042,1,0,0:0:0:0:
426,192,74042,1,0,0:0:0:0:
256,192,74042,1,0,3:0:0:0:
142,192,74237,1,0,0:0:0:0:
369,192,74237,1,0,3:0:0:0:
256,192,74334,1,0,0:0:0:0:
426,192,74432,1,0,3:0:0:0:
483,192,74432,1,0,3:0:0:0:
28,192,74529,1,0,0:0:0:0:
85,192,74529,1,0,3:0:0:0:
369,192,74626,1,0,0:0:0:0:
312,192,74626,1,0,3:0:0:0:
142,192,74724,1,0,0:0:0:0:
199,192,74724,1,0,3:0:0:0:
256,192,74821,1,0,3:0:0:0:
28,192,74821,128,0,75016:0:0:0:0:
483,192,74821,128,4,75016:2:0:0:0:
312,192,75016,128,0,75211:0:0:0:0:
199,192,75016,128,0,75211:0:0:0:0:
426,192,75211,128,0,75406:0:0:0:0:
85,192,75211,128,0,75406:0:0:0:0:
256,192,75211,1,2,3:0:0:0:
369,192,75406,128,0,75600:0:0:0:0:
142,192,75406,128,0,75600:0:0:0:0:
28,192,75600,1,0,3:0:0:0:
483,192,75600,1,0,0:0:0:0:
199,192,75795,1,0,0:0:0:0:
312,192,75893,1,0,0:0:0:0:
426,192,75990,1,2,3:0:0:0:
85,192,75990,1,0,0:0:0:0:
256,192,76087,1,0,0:0:0:0:
142,192,76185,1,0,0:0:0:0:
369,192,76282,1,0,0:0:0:0:
483,192,76380,1,0,3:0:0:0:
28,192,76380,1,0,0:0:0:0:
199,192,76575,1,0,0:0:0:0:
312,192,76575,1,0,0:0:0:0:
426,192,76769,1,0,0:0:0:0:
85,192,76769,1,2,3:0:0:0:
369,192,76964,1,0,0:0:0:0:
256,192,77062,1,0,0:0:0:0:
142,192,77159,1,0,3:0:0:0:
483,192,77159,128,0,77354:0:0:0:0:
312,192,77354,128,0,77549:0:0:0:0:
28,192,77354,1,0,0:0:0:0:
369,192,77549,128,0,77743:0:0:0:0:
85,192,77549,1,0,0:0:0:0:
426,192,77549,1,2,3:0:0:0:
199,192,77743,128,0,77938:0:0:0:0:
142,192,77743,1,0,0:0:0:0:
483,192,77938,128,0,78133:0:0:0:0:
28,192,77938,128,0,78133:0:0:0:0:
256,192,77938,1,0,3:0:0:0:
426,192,78133,128,0,78328:0:0:0:0:
85,192,78133,128,0,78328:0:0:0:0:
312,192,78328,128,0,78523:0:0:0:0:
199,192,78328,128,0,78523:0:0:0:0:
256,192,78328,1,2,3:0:0:0:
369,192,78523,128,0,78717:0:0:0:0:
142,192,78523,128,0,78717:0:0:0:0:
483,192,78717,1,0,3:0:0:0:
28,192,78717,1,0,0:0:0:0:
256,192,78912,1,0,0:0:0:0:
426,192,79010,1,0,0:0:0:0:
85,192,79107,1,0,0:0:0:0:
199,192,79107,1,2,3:0:0:0:
369,192,79204,1,0,0:0:0:0:
312,192,79302,1,0,0:0:0:0:
142,192,79497,1,0,0:0:0:0:
256,192,79497,1,0,3:0:0:0:
369,192,79691,1,0,0:0:0:0:
483,192,79691,1,0,0:0:0:0:
199,192,79886,1,2,3:0:0:0:
85,192,79886,1,0,0:0:0:0:
426,192,80081,1,0,0:0:0:0:
256,192,80178,1,0,0:0:0:0:
369,192,80276,1,0,3:0:0:0:
142,192,80276,128,0,80471:0:0:0:0:
312,192,80471,128,0,80665:0:0:0:0:
28,192,80471,1,0,0:0:0:0:
483,192,80665,128,0,80860:0:0:0:0:
199,192,80665,1,2,3:0:0:0:
85,192,80665,1,0,0:0:0:0:
28,192,80860,128,0,81055:0:0:0:0:
369,192,80860,1,0,0:0:0:0:
256,192,81055,128,0,81834:0:0:0:0:
426,192,81055,1,4,2:0:0:0:
142,192,81055,1,0,3:0:0:0:
85,192,81250,1,0,0:0:0:0:
369,192,81445,1,0,0:0:0:0:
199,192,81445,1,2,3:0:0:0:
28,192,81445,1,0,0:0:0:0:
483,192,81639,1,0,0:0:0:0:
426,192,81834,128,0,82613:0:0:0:0:
142,192,81834,1,0,3:0:0:0:
28,192,82029,1,0,0:0:0:0:
312,192,82224,1,2,3:0:0:0:
85,192,82224,1,0,0:0:0:0:
256,192,82224,1,0,0:0:0:0:
199,192,82419,1,0,0:0:0:0:
28,192,82613,1,0,0:0:0:0:
142,192,82613,1,0,3:0:0:0:
369,192,82613,1,0,0:0:0:0:
312,192,82906,1,0,3:0:0:0:
256,192,82906,1,0,0:0:0:0:
483,192,82906,1,0,0:0:0:0:
85,192,83198,1,0,0:0:0:0:
199,192,83198,1,0,3:0:0:0:
426,192,83198,1,0,0:0:0:0:
369,192,83393,1,0,3:0:0:0:
483,192,83393,1,0,0:0:0:0:
256,192,83587,1,0,0:0:0:0:
142,192,83587,1,0,3:0:0:0:
426,192,83782,128,0,84172:0:0:0:0:
312,192,83782,1,2,3:0:0:0:
85,192,83977,1,0,3:0:0:0:
28,192,83977,1,0,0:0:0:0:
199,192,84172,1,4,3:0:0:0:
369,192,84172,1,0,0:0:0:0:
256,192,84172,1,0,3:0:0:0:
483,192,84367,1,0,0:0:0:0:
312,192,84464,1,0,0:0:0:0:
85,192,84562,1,0,0:0:0:0:
142,192,84562,1,2,3:0:0:0:
369,192,84562,1,0,0:0:0:0:
426,192,84659,1,0,0:0:0:0:
256,192,84756,1,0,0:0:0:0:
28,192,84854,1,0,0:0:0:0:
199,192,84951,1,0,3:0:0:0:
369,192,84951,1,0,0:0:0:0:
85,192,85049,1,0,0:0:0:0:
312,192,85146,1,0,0:0:0:0:
483,192,85243,1,0,0:0:0:0:
28,192,85341,1,0,0:0:0:0:
142,192,85341,1,2,3:0:0:0:
426,192,85341,1,0,0:0:0:0:
369,192,85438,1,0,0:0:0:0:
256,192,85536,1,0,0:0:0:0:
142,192,85633,1,0,0:0:0:0:
28,192,85730,1,0,0:0:0:0:
483,192,85730,1,0,3:0:0:0:
312,192,85925,1,0,0:0:0:0:
199,192,85925,1,0,3:0:0:0:
426,192,86120,1,2,3:0:0:0:
85,192,86120,1,0,3:0:0:0:
369,192,86315,1,0,0:0:0:0:
142,192,86315,1,0,3:0:0:0:
28,192,86510,1,0,0:0:0:0:
483,192,86510,1,0,3:0:0:0:
85,192,86639,1,0,3:0:0:0:
426,192,86639,1,0,0:0:0:0:
142,192,86769,1,0,0:0:0:0:
369,192,86769,1,0,3:0:0:0:
28,192,86899,1,0,0:0:0:0:
483,192,86899,1,0,3:0:0:0:
256,192,86899,1,2,3:0:0:0:
85,192,86964,1,0,0:0:0:0:
426,192,86964,1,0,3:0:0:0:
369,192,87029,1,0,0:0:0:0:
142,192,87029,1,0,3:0:0:0:
312,192,87094,1,0,0:0:0:0:
199,192,87094,1,0,3:0:0:0:
28,192,87159,1,0,0:0:0:0:
483,192,87159,1,0,3:0:0:0:
85,192,87224,1,0,3:0:0:0:
426,192,87224,1,0,0:0:0:0:
256,192,87289,128,0,88068:3:0:0:0:
369,192,87289,128,4,88068:2:0:0:0:
142,192,87289,128,0,88068:0:0:0:0:
483,192,88458,1,0,0:0:0:0:
312,192,88458,1,0,0:0:0:0:
199,192,88458,1,0,3:0:0:0:
28,192,88458,1,0,0:0:0:0:
85,192,88652,1,0,0:0:0:0:
426,192,88652,1,0,0:0:0:0:
256,192,88652,1,0,3:0:0:0:
28,192,89237,1,0,0:0:0:0:
142,192,89237,1,0,0:0:0:0:
483,192,89237,1,0,0:0:0:0:
369,192,89237,1,0,3:0:0:0:
85,192,89432,1,0,3:0:0:0:
256,192,89432,1,0,0:0:0:0:
426,192,89432,1,0,0:0:0:0:
483,192,90016,1,0,0:0:0:0:
369,192,90016,1,0,0:0:0:0:
142,192,90016,1,0,3:0:0:0:
28,192,90016,1,0,0:0:0:0:
85,192,90211,1,0,0:0:0:0:
256,192,90211,1,0,0:0:0:0:
426,192,90211,1,0,3:0:0:0:
369,192,90600,1,0,0:0:0:0:
142,192,90600,1,0,0:0:0:0:
426,192,90893,1,0,0:0:0:0:
85,192,90893,1,0,0:0:0:0:
256,192,90893,1,0,3:0:0:0:
369,192,91185,1,0,3:0:0:0:
483,192,91185,1,0,0:0:0:0:
28,192,91185,1,0,0:0:0:0:
142,192,91185,1,0,0:0:0:0:
256,192,91964,1,2,3:0:0:0:
