osu file format v14

[General]
AudioFilename: audio.mp3
AudioLeadIn: 0
PreviewTime: 62354
Countdown: 0
SampleSet: Soft
StackLeniency: 0.7
Mode: 3
LetterboxInBreaks: 0
SpecialStyle: 0
WidescreenStoryboard: 0

[Editor]
DistanceSpacing: 1.3
BeatDivisor: 4
GridSize: 32
TimelineZoom: 0.8

[Metadata]
Title:MeniMeni ManiMani
TitleUnicode:メニメニマニマニ
Artist:Takamiya Nasuno (CV:Narumi Kyoko)
ArtistUnicode:高宮なすの(CV:鳴海杏子)
Creator:Feerum
Version:Normal
Source:pop'n music ラピストリア
Tags:てーきゅう teekyuu 2 opening lapistoria konami bemani
BeatmapID:1167647
BeatmapSetID:551251

[Difficulty]
HPDrainRate:7
CircleSize:9
OverallDifficulty:7
ApproachRate:5
SliderMultiplier:1.4
SliderTickRate:1

[Events]
//Background and Video events
0,0,"teekyuu.jpg",0,0
//Break Periods
//Storyboard Layer 0 (Background)
//Storyboard Layer 1 (Fail)
//Storyboard Layer 2 (Pass)
//Storyboard Layer 3 (Foreground)
//Storyboard Sound Samples

[TimingPoints]
1575,389.61038961039,4,2,1,50,1,0
62354,-100,4,2,1,50,0,1
74432,-100,4,2,1,50,0,0
74821,-100,4,2,1,50,0,1
87289,-100,4,2,1,50,0,0

[HitObjects]
426,192,1575,5,2,2:0:0:0:
426,192,1769,1,2,2:0:0:0:
85,192,1964,1,0,0:0:0:0:
199,192,2354,1,0,0:0:0:0:
369,192,2743,1,0,0:0:0:0:
483,192,3133,1,2,2:0:0:0:
483,192,3328,1,2,2:0:0:0:
312,192,3523,1,0,0:0:0:0:
85,192,3912,1,0,0:0:0:0:
256,192,4302,1,0,0:0:0:0:
142,192,4691,1,2,2:0:0:0:
142,192,4886,1,2,2:0:0:0:
28,192,5081,1,0,0:0:0:0:
199,192,5471,1,0,0:0:0:0:
369,192,5860,1,0,0:0:0:0:
483,192,6250,1,2,2:0:0:0:
483,192,6445,1,2,2:0:0:0:
142,192,6639,1,0,0:0:0:0:
312,192,7029,1,0,0:0:0:0:
28,192,7029,128,0,7808:0:0:0:0:
426,192,7419,128,0,7808:0:0:0:0:
199,192,7808,1,0,3:0:0:0:
256,192,7808,1,0,0:0:0:0:
85,192,8198,1,2,3:0:0:0:
369,192,8393,1,0,0:0:0:0:
483,192,8587,1,0,3:0:0:0:
312,192,8977,1,2,3:0:0:0:
142,192,9172,1,0,0:0:0:0:
28,192,9367,128,0,9756:0:0:0:0:
199,192,9367,1,0,3:0:0:0:
312,192,9756,128,0,9951:0:0:0:0:
483,192,9756,1,2,3:0:0:0:
199,192,9951,128,0,10341:0:0:0:0:
426,192,10146,1,0,3:0:0:0:
85,192,10341,128,0,10536:0:0:0:0:
369,192,10536,128,0,10925:0:0:0:0:
256,192,10536,1,2,3:0:0:0:
199,192,10925,1,0,3:0:0:0:
28,192,10925,1,4,3:0:0:0:
426,192,11315,1,2,3:0:0:0:
142,192,11510,1,0,0:0:0:0:
256,192,11704,1,0,3:0:0:0:
369,192,12094,1,2,3:0:0:0:
85,192,12289,1,0,0:0:0:0:
483,192,12484,128,0,12873:0:0:0:0:
199,192,12484,1,0,3:0:0:0:
28,192,12873,128,0,13263:0:0:0:0:
312,192,12873,1,2,3:0:0:0:
426,192,13263,128,0,13458:0:0:0:0:
142,192,13263,1,0,3:0:0:0:
85,192,13458,128,0,13652:0:0:0:0:
369,192,13652,128,0,13847:0:0:0:0:
256,192,13652,1,2,3:0:0:0:
142,192,13847,128,0,14042:0:0:0:0:
483,192,14042,1,2,3:0:0:0:
28,192,14042,1,4,3:0:0:0:
199,192,14237,1,0,3:0:0:0:
369,192,14432,1,6,3:0:0:0:
312,192,14821,1,6,3:0:0:0:
199,192,15016,1,0,3:0:0:0:
85,192,15211,1,6,3:0:0:0:
256,192,15600,1,6,3:0:0:0:
369,192,15795,1,0,3:0:0:0:
483,192,15990,1,6,3:0:0:0:
142,192,16380,1,6,3:0:0:0:
312,192,16575,1,0,3:0:0:0:
199,192,16769,1,6,3:0:0:0:
369,192,16964,1,0,3:0:0:0:
28,192,17159,1,0,0:0:0:0:
256,192,17159,1,0,3:0:0:0:
426,192,17451,1,0,3:0:0:0:
369,192,17451,1,0,0:0:0:0:
312,192,17743,1,8,3:0:0:0:
483,192,17743,1,0,0:0:0:0:
199,192,17938,1,0,3:0:0:0:
28,192,17938,1,0,0:0:0:0:
85,192,18230,1,0,3:0:0:0:
142,192,18230,1,0,0:0:0:0:
369,192,18523,1,8,3:0:0:0:
256,192,18523,1,0,0:0:0:0:
483,192,18717,1,0,0:0:0:0:
28,192,18717,128,0,19107:3:0:0:0:
199,192,19107,128,8,19497:3:0:0:0:
312,192,19107,1,0,0:0:0:0:
369,192,19497,128,0,19886:3:0:0:0:
142,192,19497,1,0,0:0:0:0:
85,192,19886,128,8,20276:3:0:0:0:
426,192,19886,1,0,0:0:0:0:
256,192,20276,1,0,3:0:0:0:
483,192,20276,1,4,3:0:0:0:
28,192,20665,1,2,3:0:0:0:
426,192,20860,1,0,0:0:0:0:
199,192,21055,1,0,3:0:0:0:
312,192,21250,1,0,0:0:0:0:
142,192,21445,1,2,3:0:0:0:
256,192,21639,1,0,0:0:0:0:
483,192,21834,1,0,3:0:0:0:
85,192,22224,1,2,3:0:0:0:
256,192,22419,1,0,0:0:0:0:
426,192,22613,1,0,3:0:0:0:
28,192,22808,1,0,0:0:0:0:
199,192,23003,1,2,3:0:0:0:
369,192,23198,1,0,0:0:0:0:
142,192,23393,1,0,3:0:0:0:
483,192,23782,1,2,3:0:0:0:
312,192,23977,1,0,0:0:0:0:
28,192,24172,1,0,3:0:0:0:
199,192,24367,1,0,0:0:0:0:
426,192,24562,1,2,3:0:0:0:
256,192,24756,1,0,0:0:0:0:
85,192,24951,128,0,25146:3:0:0:0:
199,192,25146,128,0,25341:0:0:0:0:
483,192,25341,128,2,25536:3:0:0:0:
369,192,25536,128,0,25730:0:0:0:0:
28,192,25730,1,0,3:0:0:0:
142,192,25925,1,0,0:0:0:0:
312,192,26120,1,2,3:0:0:0:
256,192,26510,1,0,3:0:0:0:
85,192,26802,1,0,0:0:0:0:
426,192,27094,1,0,0:0:0:0:
199,192,27289,1,0,3:0:0:0:
369,192,27581,1,0,0:0:0:0:
28,192,27873,1,0,0:0:0:0:
483,192,28068,1,0,3:0:0:0:
199,192,28360,1,0,0:0:0:0:
312,192,28652,1,0,0:0:0:0:
85,192,28847,1,0,3:0:0:0:
426,192,29139,1,0,0:0:0:0:
256,192,29432,1,0,0:0:0:0:
142,192,29626,1,4,3:0:0:0:
369,192,29626,1,0,0:0:0:0:
85,192,30016,128,0,30406:3:0:0:0:
483,192,30406,1,4,3:0:0:0:
312,192,30406,1,0,0:0:0:0:
426,192,30795,128,0,31185:3:0:0:0:
28,192,31185,1,4,3:0:0:0:
199,192,31185,1,0,0:0:0:0:
85,192,31575,128,0,31964:3:0:0:0:
312,192,31964,1,4,3:0:0:0:
483,192,31964,1,0,0:0:0:0:
426,192,32354,128,0,32743:3:0:0:0:
28,192,32743,1,4,3:0:0:0:
199,192,32743,1,0,3:0:0:0:
85,192,33133,1,2,3:0:0:0:
256,192,33328,1,0,0:0:0:0:
483,192,33523,1,0,3:0:0:0:
312,192,33717,1,0,0:0:0:0:
142,192,33912,1,2,3:0:0:0:
369,192,34107,1,0,0:0:0:0:
85,192,34302,1,0,3:0:0:0:
483,192,34691,1,2,3:0:0:0:
312,192,34886,1,0,0:0:0:0:
28,192,35081,1,0,3:0:0:0:
199,192,35276,1,0,0:0:0:0:
426,192,35471,1,2,3:0:0:0:
85,192,35665,1,0,0:0:0:0:
256,192,35860,1,0,3:0:0:0:
369,192,36250,1,2,3:0:0:0:
142,192,36445,1,0,0:0:0:0:
426,192,36639,1,0,3:0:0:0:
199,192,36834,1,0,0:0:0:0:
483,192,37029,1,2,3:0:0:0:
28,192,37224,1,0,0:0:0:0:
256,192,37419,128,0,37613:3:0:0:0:
426,192,37613,128,0,37808:0:0:0:0:
312,192,37808,128,2,38003:3:0:0:0:
199,192,38003,128,0,38198:0:0:0:0:
28,192,38198,1,0,3:0:0:0:
483,192,38393,1,0,0:0:0:0:
256,192,38587,1,2,3:0:0:0:
142,192,38977,128,4,39269:3:0:0:0:
483,192,39269,128,0,39562:0:0:0:0:
256,192,39562,1,0,0:0:0:0:
28,192,39756,128,4,40049:3:0:0:0:
312,192,40049,128,0,40341:0:0:0:0:
85,192,40341,1,0,0:0:0:0:
426,192,40536,128,4,40828:3:0:0:0:
199,192,40828,128,0,41120:0:0:0:0:
483,192,41120,1,0,0:0:0:0:
142,192,41315,128,4,41607:3:0:0:0:
369,192,41607,128,0,41899:0:0:0:0:
28,192,41899,1,0,0:0:0:0:
312,192,42094,1,4,3:0:0:0:
85,192,42094,1,0,0:0:0:0:
199,192,42484,128,0,42873:3:0:0:0:
369,192,42873,1,4,3:0:0:0:
28,192,42873,1,0,0:0:0:0:
142,192,43263,128,0,43652:3:0:0:0:
426,192,43652,1,12,3:0:0:0:
28,192,43652,1,0,0:0:0:0:
312,192,43945,1,8,3:0:0:0:
199,192,43945,1,0,0:0:0:0:
369,192,44237,1,0,3:0:0:0:
483,192,44237,1,0,0:0:0:0:
142,192,44432,1,0,3:0:0:0:
28,192,44432,128,0,44821:0:0:0:0:
483,192,44821,128,0,45211:0:0:0:0:
256,192,44821,1,2,3:0:0:0:
85,192,45211,1,0,3:0:0:0:
312,192,45211,1,4,3:0:0:0:
199,192,45406,1,0,0:0:0:0:
426,192,45600,1,0,3:0:0:0:
369,192,45990,1,0,3:0:0:0:
256,192,46185,1,0,0:0:0:0:
142,192,46380,1,0,3:0:0:0:
483,192,46769,1,0,3:0:0:0:
312,192,46964,1,0,0:0:0:0:
85,192,47159,1,0,3:0:0:0:
256,192,47354,1,0,0:0:0:0:
426,192,47549,1,0,3:0:0:0:
142,192,47743,128,0,48328:0:0:0:0:
369,192,47938,1,0,3:0:0:0:
483,192,48328,1,0,3:0:0:0:
28,192,48523,1,0,0:0:0:0:
199,192,48717,1,0,3:0:0:0:
312,192,49107,128,0,49497:0:0:0:0:
85,192,49107,1,0,3:0:0:0:
426,192,49497,128,0,49886:0:0:0:0:
256,192,49497,1,0,3:0:0:0:
142,192,49886,128,0,50276:0:0:0:0:
483,192,49886,1,0,3:0:0:0:
256,192,50276,128,0,50665:0:0:0:0:
369,192,50276,1,0,3:0:0:0:
28,192,50665,128,0,51055:0:0:0:0:
426,192,50665,1,0,3:0:0:0:
199,192,51055,1,0,3:0:0:0:
85,192,51445,1,0,3:0:0:0:
256,192,51639,1,0,0:0:0:0:
426,192,51834,1,0,3:0:0:0:
369,192,52224,1,0,3:0:0:0:
199,192,52419,1,0,0:0:0:0:
28,192,52613,1,0,3:0:0:0:
85,192,53003,1,0,3:0:0:0:
142,192,53198,1,0,0:0:0:0:
312,192,53393,1,0,3:0:0:0:
369,192,53587,1,0,0:0:0:0:
483,192,53782,1,0,3:0:0:0:
256,192,53782,128,0,54562:0:0:0:0:
28,192,54172,1,0,3:0:0:0:
426,192,54562,1,4,3:0:0:0:
85,192,54562,1,0,3:0:0:0:
312,192,55925,1,0,0:0:0:0:
199,192,55925,1,0,3:0:0:0:
426,192,56120,1,4,3:0:0:0:
85,192,56120,1,0,3:0:0:0:
142,192,57484,1,0,3:0:0:0:
369,192,57484,1,0,0:0:0:0:
483,192,57678,1,0,0:0:0:0:
28,192,57678,1,4,3:0:0:0:
256,192,57971,1,0,3:0:0:0:
85,192,58263,1,0,3:0:0:0:
426,192,58458,1,4,3:0:0:0:
256,192,58750,1,0,3:0:0:0:
483,192,59042,1,0,3:0:0:0:
28,192,59237,1,2,3:0:0:0:
369,192,59237,128,4,59432:3:0:0:0:
256,192,59432,128,0,59626:0:0:0:0:
142,192,59626,128,2,59821:3:0:0:0:
28,192,59821,128,0,60016:0:0:0:0:
426,192,60016,128,2,60211:3:0:0:0:
312,192,60211,128,0,60406:0:0:0:0:
199,192,60406,128,2,60600:3:0:0:0:
85,192,60600,128,0,60795:0:0:0:0:
483,192,60795,128,0,62354:0:0:0:0:
256,192,60795,1,2,3:0:0:0:
142,192,60990,1,0,0:0:0:0:
28,192,61185,1,2,3:0:0:0:
199,192,61380,1,0,0:0:0:0:
369,192,61575,1,0,0:0:0:0:
312,192,61769,1,0,0:0:0:0:
85,192,61964,1,2,3:0:0:0:
199,192,62159,1,0,0:0:0:0:
312,192,62354,1,0,3:0:0:0:
369,192,62354,128,4,62549:2:0:0:0:
28,192,62549,128,0,62743:0:0:0:0:
369,192,62743,128,0,62938:0:0:0:0:
199,192,62743,1,2,3:0:0:0:
28,192,62938,128,0,63133:0:0:0:0:
256,192,63133,1,0,3:0:0:0:
483,192,63328,1,0,0:0:0:0:
142,192,63523,1,2,3:0:0:0:
426,192,63717,1,0,0:0:0:0:
85,192,63912,1,0,3:0:0:0:
369,192,64302,1,2,3:0:0:0:
28,192,64691,128,0,64886:0:0:0:0:
426,192,64691,1,0,3:0:0:0:
199,192,64886,128,0,65081:0:0:0:0:
483,192,65081,128,0,65276:0:0:0:0:
85,192,65081,1,2,3:0:0:0:
312,192,65276,128,0,65471:0:0:0:0:
142,192,65471,128,0,65665:0:0:0:0:
426,192,65471,1,0,3:0:0:0:
369,192,65665,128,0,65860:0:0:0:0:
142,192,65860,128,0,66055:0:0:0:0:
483,192,65860,1,2,3:0:0:0:
369,192,66055,128,0,66250:0:0:0:0:
256,192,66250,1,0,3:0:0:0:
85,192,66445,1,0,0:0:0:0:
426,192,66639,1,2,3:0:0:0:
28,192,66834,1,0,0:0:0:0:
312,192,67029,1,0,3:0:0:0:
483,192,67419,1,2,3:0:0:0:
85,192,67808,128,0,68003:0:0:0:0:
369,192,67808,1,0,3:0:0:0:
199,192,68003,128,0,68198:0:0:0:0:
312,192,68198,128,0,68393:0:0:0:0:
28,192,68198,1,2,3:0:0:0:
426,192,68393,128,0,68587:0:0:0:0:
142,192,68587,1,0,3:0:0:0:
256,192,68587,128,4,69367:2:0:0:0:
369,192,68977,1,2,3:0:0:0:
28,192,69367,128,0,70146:0:0:0:0:
483,192,69367,1,0,3:0:0:0:
312,192,69756,1,2,3:0:0:0:
369,192,70146,128,0,70925:0:0:0:0:
199,192,70146,1,0,3:0:0:0:
85,192,70536,1,2,3:0:0:0:
142,192,70925,128,0,71704:0:0:0:0:
312,192,70925,1,0,3:0:0:0:
426,192,71315,1,2,3:0:0:0:
256,192,71704,1,8,3:0:0:0:
256,192,71997,1,8,3:0:0:0:
369,192,72289,1,8,3:0:0:0:
369,192,72581,1,8,3:0:0:0:
199,192,72873,1,8,3:0:0:0:
426,192,73068,1,8,3:0:0:0:
28,192,73263,128,0,73555:0:0:0:0:
256,192,73263,1,0,3:0:0:0:
312,192,73555,128,0,73847:0:0:0:0:
142,192,73847,128,0,74042:0:0:0:0:
483,192,74042,128,0,74821:3:0:0:0:
85,192,74237,1,0,3:0:0:0:
199,192,74432,1,0,3:0:0:0:
312,192,74626,1,0,3:0:0:0:
426,192,74821,1,0,0:0:0:0:
28,192,74821,128,4,75016:2:0:0:0:
256,192,75016,128,0,75211:0:0:0:0:
28,192,75211,128,0,75406:0:0:0:0:
369,192,75211,1,2,3:0:0:0:
256,192,75406,128,0,75600:0:0:0:0:
142,192,75600,1,0,3:0:0:0:
483,192,75795,1,0,0:0:0:0:
369,192,75990,1,2,3:0:0:0:
199,192,76185,1,0,0:0:0:0:
85,192,76380,1,0,3:0:0:0:
426,192,76769,1,2,3:0:0:0:
312,192,77159,128,0,77354:0:0:0:0:
28,192,77159,1,0,3:0:0:0:
142,192,77354,128,0,77549:0:0:0:0:
369,192,77549,128,0,77743:0:0:0:0:
256,192,77549,1,2,3:0:0:0:
199,192,77743,128,0,77938:0:0:0:0:
483,192,77938,128,0,78133:0:0:0:0:
28,192,77938,1,0,3:0:0:0:
256,192,78133,128,0,78328:0:0:0:0:
483,192,78328,128,0,78523:0:0:0:0:
85,192,78328,1,2,3:0:0:0:
256,192,78523,128,0,78717:0:0:0:0:
426,192,78717,1,0,3:0:0:0:
142,192,78912,1,0,0:0:0:0:
369,192,79107,1,2,3:0:0:0:
28,192,79302,1,0,0:0:0:0:
199,192,79497,1,0,3:0:0:0:
426,192,79886,1,2,3:0:0:0:
483,192,80276,128,0,80471:0:0:0:0:
256,192,80276,1,0,3:0:0:0:
369,192,80471,128,0,80665:0:0:0:0:
199,192,80665,128,0,80860:0:0:0:0:
85,192,80665,1,2,3:0:0:0:
28,192,80860,128,0,81055:0:0:0:0:
256,192,81055,1,4,2:0:0:0:
483,192,81055,1,0,3:0:0:0:
426,192,81250,1,0,0:0:0:0:
199,192,81445,1,0,0:0:0:0:
369,192,81445,1,2,3:0:0:0:
142,192,81639,1,0,0:0:0:0:
85,192,81834,1,0,3:0:0:0:
483,192,81834,1,0,0:0:0:0:
312,192,82029,1,0,0:0:0:0:
28,192,82224,1,0,0:0:0:0:
256,192,82224,1,2,3:0:0:0:
426,192,82419,1,0,0:0:0:0:
142,192,82613,128,0,82906:0:0:0:0:
199,192,82613,1,0,3:0:0:0:
369,192,82906,128,0,83198:0:0:0:0:
483,192,82906,1,0,3:0:0:0:
256,192,83198,128,0,83393:0:0:0:0:
28,192,83198,1,0,3:0:0:0:
85,192,83393,128,0,83782:0:0:0:0:
426,192,83393,1,0,0:0:0:0:
312,192,83782,1,2,3:0:0:0:
199,192,84172,1,0,3:0:0:0:
369,192,84172,1,4,2:0:0:0:
142,192,84562,1,2,3:0:0:0:
426,192,84562,1,0,0:0:0:0:
256,192,84951,1,0,3:0:0:0:
85,192,84951,1,0,0:0:0:0:
199,192,85341,1,2,3:0:0:0:
483,192,85341,1,0,0:0:0:0:
28,192,85730,1,0,0:0:0:0:
426,192,85730,1,0,3:0:0:0:
142,192,85925,1,0,3:0:0:0:
256,192,86120,1,0,3:0:0:0:
369,192,86120,1,2,3:0:0:0:
483,192,86315,1,0,3:0:0:0:
85,192,86510,1,0,3:0:0:0:
199,192,86639,1,0,3:0:0:0:
312,192,86769,1,0,3:0:0:0:
483,192,86899,1,2,3:0:0:0:
369,192,87029,1,0,3:0:0:0:
256,192,87159,1,0,3:0:0:0:
142,192,87289,128,4,88068:2:0:0:0:
28,192,87289,128,0,88068:3:0:0:0:
426,192,88458,1,0,3:0:0:0:
85,192,88458,1,0,0:0:0:0:
312,192,88652,1,0,0:0:0:0:
199,192,88652,1,0,3:0:0:0:
369,192,89237,1,0,0:0:0:0:
142,192,89237,1,0,3:0:0:0:
483,192,89432,1,0,3:0:0:0:
28,192,89432,1,0,0:0:0:0:
369,192,90016,1,0,3:0:0:0:
142,192,90016,1,0,0:0:0:0:
483,192,90211,1,0,0:0:0:0:
28,192,90211,1,0,3:0:0:0:
426,192,90600,1,0,3:0:0:0:
85,192,90600,1,0,0:0:0:0:
369,192,90893,1,0,0:0:0:0:
142,192,90893,1,0,3:0:0:0:
312,192,91185,1,0,3:0:0:0:
199,192,91185,1,0,0:0:0:0:
256,192,91964,1,2,3:0:0:0:
