osu file format v14

[General]
AudioFilename: audio.mp3
AudioLeadIn: 0
PreviewTime: 16341
Countdown: 1
SampleSet: None
StackLeniency: 0.6
Mode: 0
LetterboxInBreaks: 0
WidescreenStoryboard: 1

[Editor]
DistanceSpacing: 1
BeatDivisor: 4
GridSize: 8
TimelineZoom: 1.4

[Metadata]
Title:Natsu no Owari no Amaoto ga
TitleUnicode:夏の終わりの雨音が
Artist:Takami Chika (CV: Inami Anju), Matsuura Kanan (CV: Suwa Nanaka)
ArtistUnicode:高海千歌 (CV.伊波杏樹)、松浦果南 (CV.諏訪ななか)
Creator:Noctiam
Version:Memories
Source:ラブライブ! サンシャイン!!
Tags:love live sunshine aqours takami chika 高海千歌 inami anju 伊波杏樹 matsuura kanan 松浦果南 suwa nanaka 諏訪ななか
BeatmapID:1782020
BeatmapSetID:724358

[Difficulty]
HPDrainRate:6
CircleSize:4
OverallDifficulty:8
ApproachRate:9
SliderMultiplier:1.6
SliderTickRate:2

[Events]
//Background and Video events
0,0,"BG.jpg",0,0
//Break Periods
2,154340,160628
2,220095,229962
2,255651,259962
//Storyboard Layer 0 (Background)
//Storyboard Layer 1 (Fail)
//Storyboard Layer 2 (Pass)
//Storyboard Layer 3 (Foreground)
//Storyboard Sound Samples

[TimingPoints]
340.5,444.444444444444,4,2,0,60,1,0
1229,444.444444444444,4,2,0,60,1,0
8340,-80,4,2,0,60,0,0
13673,-50,4,2,0,60,0,0
17228,-66.6666666666667,4,2,0,60,0,1
45673,-66.6666666666667,4,2,0,60,0,0
47451,-66.6666666666667,4,2,0,60,0,0
53673,-50,4,2,0,60,0,0
54562,-66.6666666666667,4,2,0,60,0,0
59896,-50,4,2,0,60,0,0
61673,-100,4,2,0,60,0,0
90117,-80,4,2,0,60,0,0
111451,-66.6666666666667,4,2,0,60,0,1
139895,-66.6666666666667,4,2,0,60,0,0
146117,-50,4,2,0,60,0,0
147008,-66.6666666666667,4,2,0,60,0,0
152340,-50,4,2,0,60,0,0
154117,-100,4,2,0,60,0,0
161228,-133.333333333333,4,2,1,60,0,0
168340,-80,4,2,0,60,0,0
187895,-50,4,2,0,60,0,0
191451,-66.6666666666667,4,2,0,60,0,1
219895,-100,4,2,0,60,0,0
230562,-100,4,2,0,60,0,0
234117,-66.6666666666667,4,2,0,60,0,0
248340,-50,4,2,0,60,0,0
262562,-66.6666666666667,4,2,0,60,0,1
283895,-66.6666666666667,4,2,0,60,0,0
291895,-50,4,2,0,60,0,0
292784,-66.6666666666667,4,2,0,60,0,0
298117,-50,4,2,0,60,0,0
299895,-100,4,2,0,60,0,0

[Colours]
Combo1 : 255,128,64
Combo2 : 0,255,64
Combo3 : 255,128,0
Combo4 : 128,255,128

[HitObjects]
304,192,340,5,0,0:0:0:0:
387,208,562,1,0,0:0:0:0:
368,128,784,1,0,0:0:0:0:
450,144,1006,1,0,0:0:0:0:
482,223,1229,6,0,P|466:263|434:287,1,80
232,192,1673,2,0,P|248:232|280:256,1,80
365,88,2118,1,0,0:0:0:0:
391,175,2340,1,0,0:0:0:0:
241,36,2562,2,0,L|216:113,1,80
365,88,3006,5,0,0:0:0:0:
301,182,3229,2,0,L|333:258,1,80
239,330,3673,1,0,0:0:0:0:
181,266,3896,1,0,0:0:0:0:
211,189,4118,1,0,0:0:0:0:
124,206,4340,1,0,0:0:0:0:
153,125,4562,1,0,0:0:0:0:
52,235,4784,6,0,P|92:275|124:283,1,80
286,161,5229,2,0,P|246:121|214:113,1,80
149,70,5673,1,0,0:0:0:0:
63,172,5896,1,0,0:0:0:0:
43,63,6117,1,0,0:0:0:0:
157,193,6340,2,0,L|112:240,1,40
112,246,6562,6,0,P|61:288|114:357,1,160
283,277,7229,1,0,0:0:0:0:
183,139,7451,1,0,0:0:0:0:
345,192,7673,1,0,0:0:0:0:
183,244,7896,1,0,0:0:0:0:
283,106,8118,1,0,0:0:0:0:
120,80,8340,6,0,L|168:168,1,100,8|0,0:0|0:0,0:0:0:0:
80,208,8784,2,0,L|136:312,1,100,8|0,0:0|0:0,0:0:0:0:
256,144,9229,2,0,L|312:240,1,100,8|0,0:0|0:0,0:0:0:0:
224,280,9673,1,8,0:0:0:0:
392,304,10118,6,0,L|344:216,1,100,8|0,0:0|0:0,0:0:0:0:
432,176,10562,2,0,L|376:72,1,100,8|0,0:0|0:0,0:0:0:0:
256,240,11007,2,0,L|200:144,1,100,8|0,0:0|0:0,0:0:0:0:
288,104,11451,1,8,0:0:0:0:
80,80,11896,5,8,0:0:0:0:
80,80,12118,1,8,0:0:0:0:
155,213,12340,1,8,0:0:0:0:
155,213,12562,1,8,0:0:0:0:
264,97,12784,1,8,0:0:0:0:
191,252,13007,1,8,0:0:0:0:
352,144,13229,1,8,0:0:0:0:
174,116,13451,1,8,0:0:0:0:
78,279,13673,6,0,L|-15:232,3,80,8|0|0|0,0:0|0:0|0:0|0:0,0:0:0:0:
189,279,14117,2,0,L|275:322,3,80,8|0|0|0,0:0|0:0|0:0|0:0,0:0:0:0:
376,275,14562,6,0,L|335:344,1,80
225,215,14784,2,0,L|266:146,1,80
417,88,15006,6,0,L|376:157,1,80
159,109,15228,2,0,L|200:40,1,80
80,217,16340,5,0,0:0:0:0:
193,106,16562,1,0,0:0:0:0:
224,226,16784,1,0,0:0:0:0:
340,125,17007,1,0,0:0:0:0:
212,304,17228,6,0,P|269:288|302:240,1,120.000004577637,8|0,0:0|0:0,0:0:0:0:
367,317,17673,1,8,0:0:0:0:
192,184,17896,1,0,0:0:0:0:
384,192,18117,2,0,P|398:134|372:82,1,120.000004577637,8|0,0:0|0:0,0:0:0:0:
208,48,18562,1,8,0:0:0:0:
112,160,18784,1,0,0:0:0:0:
206,283,19006,5,8,0:0:0:0:
304,160,19229,1,8,0:0:0:0:
304,160,19340,1,0,0:0:0:0:
304,160,19451,1,8,0:0:0:0:
112,160,19673,1,0,0:0:0:0:
380,115,19896,6,0,P|388:179|356:227,1,120.000004577637,8|0,0:0|0:0,0:0:0:0:
415,308,20340,1,8,0:0:0:0:
240,200,20562,1,0,0:0:0:0:
208,320,20784,2,0,P|272:328|320:296,1,120.000004577637,8|0,0:0|0:0,0:0:0:0:
184,128,21229,2,0,P|125:118|74:148,1,120.000004577637,8|0,0:0|0:0,0:0:0:0:
355,220,21673,2,0,P|364:161|334:110,1,120.000004577637,8|0,0:0|0:0,0:0:0:0:
197,252,22117,1,0,0:0:0:0:
402,299,22340,1,0,0:0:0:0:
291,176,22562,5,0,0:0:0:0:
136,192,22784,1,8,0:0:0:0:
136,192,22896,1,8,0:0:0:0:
136,192,23007,1,8,0:0:0:0:
278,339,23229,1,0,0:0:0:0:
416,176,23451,5,8,0:0:0:0:
352,88,23673,1,0,0:0:0:0:
400,192,23896,1,8,0:0:0:0:
240,160,24118,1,0,0:0:0:0:
384,216,24340,6,0,P|341:257|283:261,1,120.000004577637,8|0,0:0|0:0,0:0:0:0:
150,222,24784,1,8,0:0:0:0:
291,136,25007,1,0,0:0:0:0:
161,298,25229,2,0,P|103:281|71:232,1,120.000004577637,8|0,0:0|0:0,0:0:0:0:
140,127,25673,1,8,0:0:0:0:
63,327,25895,1,0,0:0:0:0:
276,322,26118,5,8,0:0:0:0:
240,144,26340,1,0,0:0:0:0:
361,274,26562,1,8,0:0:0:0:
135,169,26784,1,8,0:0:0:0:
296,50,27006,2,0,P|355:75|380:126,1,120.000004577637,8|0,0:0|0:0,0:0:0:0:
458,264,27451,1,8,0:0:0:0:
300,125,27673,1,0,0:0:0:0:
334,330,27895,6,0,P|372:278|369:221,1,120.000004577637,8|0,0:0|0:0,0:0:0:0:
141,226,28340,2,0,P|102:272|103:331,1,120.000004577637,8|0,0:0|0:0,0:0:0:0:
323,168,28784,2,0,P|279:121|213:118,1,120.000004577637,8|0,0:0|0:0,0:0:0:0:
334,330,29228,2,0,P|391:338|443:306,1,120.000004577637,8|0,0:0|0:0,0:0:0:0:
314,168,29673,5,8,0:0:0:0:
179,300,29896,1,8,0:0:0:0:
179,300,30007,1,8,0:0:0:0:
179,300,30117,1,8,0:0:0:0:
140,110,30340,1,8,0:0:0:0:
392,40,30562,5,0,0:0:0:0:
355,210,30784,1,0,0:0:0:0:
328,88,31007,1,0,0:0:0:0:
432,240,31229,1,0,0:0:0:0:
264,128,31451,6,0,P|207:144|174:192,1,120.000004577637,8|0,0:0|0:0,0:0:0:0:
232,347,31895,1,8,0:0:0:0:
247,208,32118,1,0,0:0:0:0:
94,240,32340,2,0,P|80:298|106:350,1,120.000004577637,8|0,0:0|0:0,0:0:0:0:
307,307,32784,1,8,0:0:0:0:
210,153,33006,1,0,0:0:0:0:
377,201,33229,5,8,0:0:0:0:
174,272,33451,1,0,0:0:0:0:
174,272,33562,1,0,0:0:0:0:
174,272,33673,1,8,0:0:0:0:
288,88,33895,1,0,0:0:0:0:
352,272,34118,5,8,0:0:0:0:
160,144,34340,1,0,0:0:0:0:
256,208,34562,1,8,0:0:0:0:
80,240,34784,1,0,0:0:0:0:
317,299,35006,6,0,P|266:329|208:320,1,120.000004577637,8|0,0:0|0:0,0:0:0:0:
184,128,35451,2,0,P|125:118|74:148,1,120.000004577637,8|0,0:0|0:0,0:0:0:0:
208,232,35895,5,8,0:0:0:0:
352,160,36118,1,0,0:0:0:0:
317,306,36340,1,8,0:0:0:0:
464,248,36562,1,0,0:0:0:0:
384,88,36784,5,10,0:0:0:0:
181,161,37006,1,0,0:0:0:0:
372,138,37228,1,10,0:0:0:0:
295,310,37451,1,0,0:0:0:0:
412,172,37673,5,10,0:0:0:0:
169,249,37895,1,0,0:0:0:0:
255,93,38118,1,10,0:0:0:0:
397,189,38340,1,0,0:0:0:0:
299,304,38562,6,0,P|242:288|209:240,1,120.000004577637,8|0,0:0|0:0,0:0:0:0:
255,93,39006,1,8,0:0:0:0:
373,225,39229,1,0,0:0:0:0:
128,192,39451,2,0,P|114:134|140:82,1,120.000004577637,8|0,0:0|0:0,0:0:0:0:
292,59,39895,1,8,0:0:0:0:
212,207,40117,1,0,0:0:0:0:
198,44,40340,5,8,0:0:0:0:
322,166,40562,1,0,0:0:0:0:
322,166,40673,1,0,0:0:0:0:
322,166,40784,1,8,0:0:0:0:
437,46,41006,1,0,0:0:0:0:
408,242,41229,2,0,P|356:280|299:277,1,120.000004577637,8|0,0:0|0:0,0:0:0:0:
174,159,41673,1,8,0:0:0:0:
337,207,41895,1,0,0:0:0:0:
196,325,42117,5,8,0:0:0:0:
84,233,42340,1,8,0:0:0:0:
79,203,42451,1,8,0:0:0:0:
74,173,42562,1,8,0:0:0:0:
111,42,42784,1,0,0:0:0:0:
217,172,43006,1,8,0:0:0:0:
212,142,43117,1,8,0:0:0:0:
207,112,43228,1,8,0:0:0:0:
324,52,43451,2,0,P|384:81|405:135,1,120.000004577637,8|0,0:0|0:0,0:0:0:0:
288,176,43895,5,8,0:0:0:0:
136,192,44117,1,8,0:0:0:0:
136,192,44229,1,8,0:0:0:0:
136,192,44340,1,8,0:0:0:0:
297,302,44562,1,0,0:0:0:0:
416,176,44784,1,0,0:0:0:0:
272,120,45006,1,0,0:0:0:0:
369,282,45229,1,0,0:0:0:0:
370,88,45451,1,0,0:0:0:0:
207,245,45673,5,4,0:0:0:0:
256,192,45784,12,0,47451,0:0:0:0:
156,65,47673,6,0,P|92:105|76:169,1,120.000004577637,0|8,0:0|0:0,0:0:0:0:
147,286,48118,1,0,0:0:0:0:
256,192,48340,1,8,0:0:0:0:
276,64,48562,5,0,0:0:0:0:
276,64,48673,2,0,L|344:64,1,60.0000022888184,0|8,0:0|0:0,0:0:0:0:
364,156,48896,1,0,0:0:0:0:
364,156,49007,2,0,L|432:156,1,60.0000022888184
461,232,49229,5,8,0:0:0:0:
271,336,49451,2,0,P|231:272|247:192,1,120.000004577637,0|8,0:0|0:0,0:0:0:0:
215,87,49896,1,0,0:0:0:0:
355,164,50118,1,8,0:0:0:0:
409,319,50340,1,0,0:0:0:0:
409,319,50451,2,0,L|346:321,1,60.0000022888184,0|8,0:0|0:0,0:0:0:0:
216,266,50673,1,0,0:0:0:0:
216,266,50784,2,0,L|284:264,1,60.0000022888184
320,182,51006,5,8,0:0:0:0:
152,176,51229,2,0,P|96:208|96:272,1,120.000004577637,0|8,0:0|0:0,0:0:0:0:
225,346,51673,1,0,0:0:0:0:
372,266,51896,1,8,0:0:0:0:
294,149,52117,1,0,0:0:0:0:
294,149,52228,2,0,L|231:151,1,60.0000022888184,0|8,0:0|0:0,0:0:0:0:
101,84,52450,1,0,0:0:0:0:
101,84,52561,2,0,L|169:82,1,60.0000022888184
259,76,52783,5,8,0:0:0:0:
184,256,53007,2,0,P|104:232|80:184,1,120.000004577637,0|8,0:0|0:0,0:0:0:0:
331,287,53451,1,0,0:0:0:0:
249,130,53673,6,0,P|210:146|184:180,1,80
377,187,53895,2,0,P|416:203|442:237,1,80
249,300,54117,2,0,P|210:284|184:250,1,80
377,358,54340,2,0,P|416:342|442:308,1,80
296,235,54562,5,8,0:0:0:0:
146,343,54784,2,0,P|85:333|47:276,1,120.000004577637,0|8,0:0|0:0,0:0:0:0:
48,168,55229,1,0,0:0:0:0:
193,206,55451,1,8,0:0:0:0:
324,119,55673,1,0,0:0:0:0:
324,119,55784,2,0,L|323:194,1,60.0000022888184,0|8,0:0|0:0,0:0:0:0:
421,167,56006,1,0,0:0:0:0:
421,167,56117,2,0,L|421:248,1,60.0000022888184
419,301,56340,5,8,0:0:0:0:
238,139,56562,2,0,P|142:171|142:219,1,120.000004577637,0|8,0:0|0:0,0:0:0:0:
250,257,57007,1,0,0:0:0:0:
140,345,57229,1,8,0:0:0:0:
324,355,57451,1,0,0:0:0:0:
324,355,57562,2,0,L|323:280,1,60.0000022888184,0|8,0:0|0:0,0:0:0:0:
421,307,57784,1,0,0:0:0:0:
421,307,57895,2,0,L|421:226,1,60.0000022888184
421,167,58118,5,8,0:0:0:0:
236,309,58340,2,0,P|181:292|164:228,1,120.000004577637,0|8,0:0|0:0,0:0:0:0:
255,121,58784,1,0,0:0:0:0:
324,236,59006,1,8,0:0:0:0:
109,310,59229,2,0,P|70:265|86:202,1,120.000004577637,0|8,0:0|0:0,0:0:0:0:
217,93,59673,1,0,0:0:0:0:
328,303,59896,6,0,L|408:263,1,80
144,328,60118,2,0,L|232:328,1,80
273,252,60340,2,0,L|360:234,1,80
88,228,60562,2,0,L|173:250,1,80
218,191,60784,2,0,L|307:188,1,80
39,135,61006,2,0,L|118:172,1,80
185,127,61228,1,0,0:0:0:0:
224,132,61339,1,0,0:0:0:0:
264,138,61450,1,0,0:0:0:0:
351,235,61673,6,0,L|351:331,1,80,8|0,0:0|0:0,0:0:0:0:
168,256,62118,2,0,L|168:336,1,80,8|0,0:0|0:0,0:0:0:0:
357,184,62562,1,8,0:0:0:0:
216,80,62784,1,0,0:0:0:0:
176,240,63006,1,8,0:0:0:0:
316,97,63229,1,0,0:0:0:0:
314,245,63451,6,0,L|257:302,1,80,8|0,0:0|0:0,0:0:0:0:
120,168,63896,1,0,0:0:0:0:
272,96,64118,2,0,L|432:96,2,160
359,177,65228,5,8,0:0:0:0:
120,120,65451,2,0,L|72:200,2,80,0|8|0,0:0|0:0|0:0,0:0:0:0:
248,224,66118,1,8,0:0:0:0:
224,64,66340,1,0,0:0:0:0:
268,249,66562,1,8,0:0:0:0:
326,54,66784,1,0,0:0:0:0:
400,166,67006,6,0,P|432:214|432:238,1,80,8|0,0:0|0:0,0:0:0:0:
240,160,67451,1,8,0:0:0:0:
112,224,67673,2,0,P|105:264|126:295,1,80
304,208,68117,2,0,P|320:167|311:132,1,80,0|8,0:0|0:0,0:0:0:0:
176,80,68562,1,0,0:0:0:0:
128,208,68784,6,0,L|128:296,1,80,8|0,0:0|0:0,0:0:0:0:
48,128,69229,1,8,0:0:0:0:
153,53,69451,1,0,0:0:0:0:
207,167,69673,2,0,P|223:239|279:255,1,120,8|0,0:0|0:0,0:0:0:0:
290,263,70118,1,8,0:0:0:0:
401,257,70340,1,0,0:0:0:0:
368,144,70562,6,0,P|344:96|253:97,1,120,8|0,0:0|0:0,0:0:0:0:
257,94,71007,1,8,0:0:0:0:
184,240,71229,1,0,0:0:0:0:
288,168,71451,1,8,0:0:0:0:
144,176,71673,1,0,0:0:0:0:
288,240,71896,1,8,0:0:0:0:
172,107,72118,1,0,0:0:0:0:
231,298,72340,6,8,P|303:314|375:266,1,160,0|0,0:0|0:0,0:0:0:0:
248,64,73007,2,0,P|184:88|112:200,1,200
130,226,73673,1,0,0:0:0:0:
260,174,73896,1,0,0:0:0:0:
398,208,74118,6,0,L|470:288,2,80,8|0|0,0:0|0:0|0:0,0:0:0:0:
288,272,74784,2,0,L|192:272,1,80,0|8,0:0|0:0,0:0:0:0:
96,168,75229,1,8,0:0:0:0:
96,168,75340,1,8,0:0:0:0:
96,168,75451,1,8,0:0:0:0:
224,72,75673,1,8,0:0:0:0:
424,116,75895,6,0,L|424:23,1,80,8|0,0:0|0:0,0:0:0:0:
308,200,76340,2,0,L|307:110,1,80,8|0,0:0|0:0,0:0:0:0:
259,306,76784,1,8,0:0:0:0:
417,209,77006,1,0,0:0:0:0:
189,252,77228,1,8,0:0:0:0:
351,151,77451,1,0,0:0:0:0:
135,197,77673,6,0,P|111:233|115:277,1,80,8|0,0:0|0:0,0:0:0:0:
281,169,78117,1,8,0:0:0:0:
177,53,78340,2,0,P|101:75|87:155,2,160
280,166,79451,5,8,0:0:0:0:
371,85,79673,2,0,L|427:143,1,80,0|8,0:0|0:0,0:0:0:0:
367,246,80117,1,0,0:0:0:0:
225,260,80340,2,0,L|290:314,1,80,8|0,0:0|0:0,0:0:0:0:
227,125,80784,2,0,P|182:128|150:160,1,80,8|0,0:0|0:0,0:0:0:0:
300,226,81228,5,8,0:0:0:0:
365,88,81451,1,0,0:0:0:0:
400,262,81673,1,8,0:0:0:0:
266,71,81895,2,0,L|194:142,1,80,0|8,0:0|0:0,0:0:0:0:
423,170,82340,2,0,L|476:240,1,80,0|8,0:0|0:0,0:0:0:0:
290,320,82784,1,0,0:0:0:0:
146,307,83006,6,0,P|117:281|116:243,1,80,8|0,0:0|0:0,0:0:0:0:
198,146,83451,1,8,0:0:0:0:
270,241,83673,1,0,0:0:0:0:
295,109,83895,2,0,P|347:128|379:192,1,120,8|0,0:0|0:0,0:0:0:0:
381,254,84340,1,8,0:0:0:0:
201,273,84562,1,0,0:0:0:0:
135,93,84784,6,0,P|82:130|78:195,1,120,8|0,0:0|0:0,0:0:0:0:
107,244,85228,1,8,0:0:0:0:
263,328,85451,1,0,0:0:0:0:
403,210,85673,1,8,0:0:0:0:
221,236,85895,1,0,0:0:0:0:
431,168,86117,1,8,0:0:0:0:
226,109,86340,1,0,0:0:0:0:
452,88,86562,6,0,P|491:123|507:168,1,80,8|0,0:0|0:0,0:0:0:0:
423,263,87006,1,8,0:0:0:0:
328,135,87228,2,0,L|305:232,1,80,0|8,0:0|0:0,0:0:0:0:
270,325,87673,1,0,0:0:0:0:
190,186,87895,1,8,0:0:0:0:
360,74,88117,2,0,P|290:77|268:103,1,80,0|8,0:0|0:0,0:0:0:0:
168,153,89007,5,0,0:0:0:0:
352,145,89229,1,8,0:0:0:0:
288,305,89451,1,0,0:0:0:0:
328,135,89673,1,8,0:0:0:0:
150,192,89896,1,0,0:0:0:0:
387,238,90117,6,0,L|491:273,2,100,8|0|8,0:0|0:0|0:0,0:0:0:0:
280,136,90784,1,0,0:0:0:0:
151,193,91007,1,8,0:0:0:0:
252,303,91228,1,0,0:0:0:0:
387,238,91451,2,0,L|402:124,1,100,8|8,0:0|0:0,0:0:0:0:
309,87,91895,6,0,L|293:199,2,100,8|0|8,0:0|0:0|0:0,0:0:0:0:
448,104,92562,1,0,0:0:0:0:
384,288,92784,1,8,0:0:0:0:
198,154,93007,1,0,0:0:0:0:
411,190,93228,2,0,L|312:220,1,100,8|0,0:0|0:0,0:0:0:0:
325,72,93673,6,0,L|427:50,2,100,8|0|8,0:0|0:0|0:0,0:0:0:0:
163,108,94340,1,0,0:0:0:0:
259,267,94562,1,8,0:0:0:0:
75,197,94784,1,0,0:0:0:0:
272,175,95006,2,0,P|221:177|179:209,1,100,8|0,0:0|0:0,0:0:0:0:
318,331,95451,6,0,P|378:333|405:207,1,200,8|8,0:0|0:0,0:0:0:0:
188,54,96117,1,0,0:0:0:0:
252,214,96340,1,8,0:0:0:0:
268,46,96562,1,0,0:0:0:0:
164,222,96784,1,8,0:0:0:0:
332,96,97007,1,0,0:0:0:0:
103,179,97228,6,0,P|90:228|109:284,1,100,8|0,0:0|0:0,0:0:0:0:
216,322,97673,1,8,0:0:0:0:
337,227,97895,2,0,P|321:179|286:141,1,100,0|8,0:0|0:0,0:0:0:0:
175,68,98340,1,0,0:0:0:0:
262,212,98562,2,0,L|363:184,1,100,8|0,0:0|0:0,0:0:0:0:
407,63,99006,6,0,L|296:96,1,100,8|0,0:0|0:0,0:0:0:0:
186,205,99451,2,0,P|139:169|138:122,1,100,8|0,0:0|0:0,0:0:0:0:
358,185,99895,2,0,P|375:235|340:272,1,100,8|0,0:0|0:0,0:0:0:0:
174,306,100340,1,8,0:0:0:0:
51,222,100562,1,0,0:0:0:0:
80,80,100784,6,0,L|188:108,1,100,8|0,0:0|0:0,0:0:0:0:
417,78,101228,2,0,L|306:109,1,100,8|0,0:0|0:0,0:0:0:0:
208,197,101673,2,0,L|285:273,1,100,8|0,0:0|0:0,0:0:0:0:
486,241,102118,2,0,L|397:155,1,100,8|0,0:0|0:0,0:0:0:0:
310,53,102562,6,0,L|310:181,1,100,8|0,0:0|0:0,0:0:0:0:
168,112,103007,2,0,L|168:224,1,100,8|0,0:0|0:0,0:0:0:0:
414,271,103451,2,0,L|414:171,1,100,8|0,0:0|0:0,0:0:0:0:
256,337,103895,2,0,L|256:217,1,100,8|0,0:0|0:0,0:0:0:0:
256,56,104340,5,10,0:0:0:0:
432,160,104562,1,0,0:0:0:0:
272,280,104784,1,10,0:0:0:0:
296,64,105007,1,0,0:0:0:0:
461,193,105228,1,10,0:0:0:0:
244,249,105451,1,0,0:0:0:0:
443,244,105673,1,10,0:0:0:0:
343,73,105895,1,0,0:0:0:0:
290,277,106117,5,10,0:0:0:0:
383,83,106340,1,0,0:0:0:0:
178,158,106562,2,0,P|160:191|183:254,1,100,8|0,0:0|0:0,0:0:0:0:
372,182,107006,2,0,L|383:78,1,100,8|0,0:0|0:0,0:0:0:0:
195,57,107451,2,0,L|176:162,1,100,8|0,0:0|0:0,0:0:0:0:
356,319,107895,5,10,0:0:0:0:
134,280,108118,1,2,0:0:0:0:
312,184,108340,1,10,0:0:0:0:
160,320,108562,1,2,0:0:0:0:
213,127,108784,1,10,0:0:0:0:
328,253,109007,2,0,P|301:294|253:317,1,100,0|8,0:0|0:0,0:0:0:0:
58,190,109451,2,0,P|98:158|154:158,1,100,0|8,0:0|0:0,0:0:0:0:
112,256,110562,5,2,0:0:0:0:
216,96,110784,1,2,0:0:0:0:
58,119,111006,1,2,0:0:0:0:
254,225,111229,1,2,0:0:0:0:
397,57,111451,6,0,B|343:86|344:173,1,120.000004577637,8|0,0:0|0:0,0:0:0:0:
251,353,111895,2,0,B|305:324|304:237,1,120.000004577637,8|0,0:0|0:0,0:0:0:0:
211,152,112340,2,0,L|152:266,1,120.000004577637,8|0,0:0|0:0,0:0:0:0:
59,179,112784,1,8,0:0:0:0:
185,47,113006,1,0,0:0:0:0:
319,181,113228,5,8,0:0:0:0:
155,258,113451,1,8,0:0:0:0:
169,232,113562,1,0,0:0:0:0:
182,205,113673,1,8,0:0:0:0:
331,63,113895,1,0,0:0:0:0:
276,272,114117,5,8,0:0:0:0:
441,128,114340,1,0,0:0:0:0:
249,171,114562,1,8,0:0:0:0:
451,237,114784,1,0,0:0:0:0:
394,341,115006,6,0,L|337:218,1,120.000004577637,8|0,0:0|0:0,0:0:0:0:
197,51,115451,2,0,L|240:168,1,120.000004577637,8|0,0:0|0:0,0:0:0:0:
146,277,115895,2,0,P|92:311|30:294,1,120.000004577637,8|0,0:0|0:0,0:0:0:0:
110,142,116340,1,8,0:0:0:0:
281,224,116562,1,0,0:0:0:0:
163,353,116784,5,8,0:0:0:0:
215,105,117006,1,8,0:0:0:0:
211,134,117117,1,0,0:0:0:0:
208,164,117228,1,8,0:0:0:0:
41,234,117451,1,0,0:0:0:0:
120,97,117673,5,8,0:0:0:0:
177,278,117895,1,0,0:0:0:0:
338,133,118117,1,8,0:0:0:0:
402,291,118340,1,0,0:0:0:0:
209,156,118562,6,0,L|225:274,1,120.000004577637,8|0,0:0|0:0,0:0:0:0:
132,231,119006,2,0,L|112:357,1,120.000004577637,8|0,0:0|0:0,0:0:0:0:
38,297,119451,2,0,L|28:162,1,120.000004577637,8|0,0:0|0:0,0:0:0:0:
101,52,119895,1,8,0:0:0:0:
278,100,120117,1,0,0:0:0:0:
143,196,120340,5,8,0:0:0:0:
338,231,120562,1,0,0:0:0:0:
240,104,120784,1,8,0:0:0:0:
190,324,121006,2,0,P|247:296|266:241,1,120.000004577637,0|8,0:0|0:0,0:0:0:0:
152,113,121451,1,0,0:0:0:0:
85,223,121673,2,0,P|140:256|204:240,1,120.000004577637,8|0,0:0|0:0,0:0:0:0:
396,123,122117,6,0,L|276:91,1,120.000004577637,8|0,0:0|0:0,0:0:0:0:
132,161,122562,1,8,0:0:0:0:
386,226,122784,2,0,L|261:192,1,120.000004577637,0|8,0:0|0:0,0:0:0:0:
157,69,123228,1,0,0:0:0:0:
164,275,123451,1,8,0:0:0:0:
286,103,123673,1,0,0:0:0:0:
106,180,123895,5,8,0:0:0:0:
318,290,124117,1,8,0:0:0:0:
318,290,124228,1,0,0:0:0:0:
318,290,124340,1,8,0:0:0:0:
406,105,124562,1,0,0:0:0:0:
205,55,124784,2,0,P|180:121|191:175,1,120.000004577637,8|0,0:0|0:0,0:0:0:0:
188,168,125117,1,0,0:0:0:0:
188,168,125228,1,8,0:0:0:0:
409,236,125451,1,8,0:0:0:0:
409,236,125562,1,0,0:0:0:0:
409,236,125673,6,0,P|372:293|312:309,1,120.000004577637,8|0,0:0|0:0,0:0:0:0:
192,157,126117,2,0,P|241:118|304:125,1,120.000004577637,8|0,0:0|0:0,0:0:0:0:
162,345,126562,2,0,P|103:308|83:251,1,120.000004577637,8|0,0:0|0:0,0:0:0:0:
254,283,127006,1,8,0:0:0:0:
128,136,127228,1,0,0:0:0:0:
272,38,127451,5,8,0:0:0:0:
188,184,127673,1,8,0:0:0:0:
216,191,127784,1,0,0:0:0:0:
245,199,127895,1,8,0:0:0:0:
423,134,128117,1,0,0:0:0:0:
356,311,128339,5,8,0:0:0:0:
156,273,128562,1,0,0:0:0:0:
347,178,128784,1,8,0:0:0:0:
121,91,129006,1,0,0:0:0:0:
352,61,129228,6,0,P|309:110|256:118,1,120.000004577637,8|0,0:0|0:0,0:0:0:0:
117,190,129673,2,0,P|160:239|213:247,1,120.000004577637,8|0,0:0|0:0,0:0:0:0:
400,278,130117,2,0,P|357:327|304:335,1,120.000004577637,8|0,0:0|0:0,0:0:0:0:
256,118,130562,1,8,0:0:0:0:
187,275,130784,1,0,0:0:0:0:
105,60,131006,5,8,0:0:0:0:
235,174,131228,1,8,0:0:0:0:
235,174,131340,1,0,0:0:0:0:
235,174,131451,1,8,0:0:0:0:
85,241,131673,1,0,0:0:0:0:
209,41,131895,5,8,0:0:0:0:
348,172,132117,1,8,0:0:0:0:
348,172,132228,1,0,0:0:0:0:
348,172,132340,1,8,0:0:0:0:
185,284,132562,1,0,0:0:0:0:
395,325,132784,6,0,P|452:312|485:264,1,120.000004577637,8|0,0:0|0:0,0:0:0:0:
369,135,133228,2,0,L|253:162,1,120.000004577637,8|0,0:0|0:0,0:0:0:0:
85,214,133673,2,0,P|60:162|78:106,1,120.000004577637,8|0,0:0|0:0,0:0:0:0:
204,284,134117,1,8,0:0:0:0:
320,112,134340,1,0,0:0:0:0:
417,300,134562,5,8,0:0:0:0:
195,212,134784,1,0,0:0:0:0:
372,110,135006,1,8,0:0:0:0:
317,298,135228,2,0,P|265:330|196:312,1,120.000004577637,0|8,0:0|0:0,0:0:0:0:
122,137,135673,2,0,P|188:123|244:143,1,120.000004577637,0|8,0:0|0:0,0:0:0:0:
69,361,136117,2,0,L|59:287,1,60.0000022888184
56,274,136340,5,8,0:0:0:0:
215,233,136562,1,8,0:0:0:0:
221,262,136673,1,0,0:0:0:0:
228,291,136784,1,8,0:0:0:0:
382,272,137006,1,8,0:0:0:0:
388,301,137117,1,0,0:0:0:0:
395,330,137228,1,8,0:0:0:0:
465,168,137451,1,8,0:0:0:0:
465,168,137562,1,0,0:0:0:0:
465,168,137673,2,0,P|421:118|348:102,1,120.000004577637,8|0,0:0|0:0,0:0:0:0:
289,43,138117,5,8,0:0:0:0:
264,145,138340,2,0,L|235:274,1,120.000004577637,0|8,0:0|0:0,0:0:0:0:
86,224,138784,2,0,L|124:345,1,120.000004577637,0|8,0:0|0:0,0:0:0:0:
410,215,139228,2,0,L|366:86,1,120.000004577637,0|8,0:0|0:0,0:0:0:0:
195,51,139673,2,0,L|121:75,1,60.0000022888184
111,90,139895,6,0,P|88:145|139:197,1,120.000004577637,8|0,0:0|0:0,0:0:0:0:
29,346,140340,2,0,L|161:324,1,120.000004577637,8|0,0:0|0:0,0:0:0:0:
263,196,140784,1,8,0:0:0:0:
303,343,141006,1,0,0:0:0:0:
330,330,141117,1,0,0:0:0:0:
357,317,141228,2,0,L|413:286,1,60.0000022888184,8|0,0:0|0:0,0:0:0:0:
464,191,141451,1,0,0:0:0:0:
436,203,141562,1,0,0:0:0:0:
409,216,141673,5,0,0:0:0:0:
245,232,141895,2,0,P|192:201|161:125,1,120.000004577637,0|8,0:0|0:0,0:0:0:0:
376,36,142340,2,0,P|368:99|311:130,1,120.000004577637,0|8,0:0|0:0,0:0:0:0:
168,35,142784,1,0,0:0:0:0:
168,35,142895,1,0,0:0:0:0:
168,35,143006,2,0,L|108:94,1,60.0000022888184,8|0,0:0|0:0,0:0:0:0:
62,145,143228,1,0,0:0:0:0:
82,166,143339,1,0,0:0:0:0:
103,187,143450,5,8,0:0:0:0:
242,303,143673,2,0,L|120:344,1,120.000004577637,0|8,0:0|0:0,0:0:0:0:
282,150,144117,2,0,L|422:175,1,120.000004577637,0|8,0:0|0:0,0:0:0:0:
360,338,144562,1,0,0:0:0:0:
360,338,144673,1,0,0:0:0:0:
360,338,144784,2,0,L|411:288,1,60.0000022888184,8|0,0:0|0:0,0:0:0:0:
336,209,145006,1,0,0:0:0:0:
314,230,145117,1,0,0:0:0:0:
293,251,145228,5,8,0:0:0:0:
150,263,145451,2,0,P|115:214|126:154,1,120.000004577637,0|8,0:0|0:0,0:0:0:0:
40,310,145895,1,0,0:0:0:0:
208,293,146117,2,8,L|122:325,1,80,0|8,0:0|0:0,0:0:0:0:
286,308,146340,2,0,L|227:378,1,80
78,171,146562,2,0,L|140:222,1,80
185,27,146784,2,0,L|172:106,1,80
269,33,147006,5,8,0:0:0:0:
384,117,147228,2,0,P|431:166|426:228,1,120.000004577637,0|8,0:0|0:0,0:0:0:0:
478,350,147673,2,0,P|419:312|367:310,1,120.000004577637,0|8,0:0|0:0,0:0:0:0:
207,336,148117,1,0,0:0:0:0:
207,336,148228,1,0,0:0:0:0:
207,336,148340,2,0,L|127:302,1,60.0000022888184,8|0,0:0|0:0,0:0:0:0:
48,253,148562,1,0,0:0:0:0:
75,241,148673,1,0,0:0:0:0:
103,229,148784,5,8,0:0:0:0:
212,66,149006,2,0,L|264:178,1,120.000004577637,0|8,0:0|0:0,0:0:0:0:
446,272,149451,2,0,L|387:157,1,120.000004577637,0|8,0:0|0:0,0:0:0:0:
274,49,149895,1,0,0:0:0:0:
274,49,150006,1,0,0:0:0:0:
274,49,150117,2,0,P|231:78|226:101,1,60.0000022888184,8|0,0:0|0:0,0:0:0:0:
301,168,150340,1,0,0:0:0:0:
298,197,150451,1,0,0:0:0:0:
283,223,150562,5,8,0:0:0:0:
171,330,150784,2,0,P|122:292|105:233,1,120.000004577637,0|8,0:0|0:0,0:0:0:0:
257,130,151228,1,0,0:0:0:0:
443,269,151451,2,0,P|448:212|411:163,1,120.000004577637,8|0,0:0|0:0,0:0:0:0:
165,154,151895,1,8,0:0:0:0:
278,336,152117,1,0,0:0:0:0:
331,87,152340,6,0,L|293:159,1,80
375,168,152562,2,0,L|353:254,1,80
441,222,152784,2,0,L|443:306,1,80
359,353,153006,2,0,L|270:366,1,80
296,282,153229,2,0,L|211:317,1,80
226,223,153451,2,0,L|141:281,1,80
156,168,153673,2,0,L|101:226,1,80
59,102,153895,1,0,0:0:0:0:
52,141,154006,1,0,0:0:0:0:
45,180,154117,5,0,0:0:0:0:
128,89,161228,5,0,0:0:0:0:
316,110,161562,2,0,P|273:161|278:178,1,90.0000034332277
421,281,162117,1,0,0:0:0:0:
293,317,162451,1,0,0:0:0:0:
293,317,162562,2,0,L|214:284,1,60.0000022888184
130,226,163006,1,0,0:0:0:0:
125,103,163228,5,0,0:0:0:0:
125,103,163340,2,0,L|169:130,1,30.0000011444092
288,181,163673,1,0,0:0:0:0:
386,84,163895,1,0,0:0:0:0:
367,234,164117,1,0,0:0:0:0:
466,141,164340,1,0,0:0:0:0:
309,69,164562,1,0,0:0:0:0:
221,140,164784,6,0,P|212:180|257:242,1,120.000004577637
359,189,165451,2,0,P|385:217|363:293,1,120.000004577637
245,324,166117,1,0,0:0:0:0:
127,275,166340,2,0,P|140:215|155:201,1,60.0000022888184
404,193,167228,5,0,0:0:0:0:
258,270,167450,1,0,0:0:0:0:
264,96,167672,1,0,0:0:0:0:
224,266,167894,1,0,0:0:0:0:
380,162,168117,1,0,0:0:0:0:
151,177,168340,6,0,L|17:187,2,100,8|0|8,0:0|0:0|0:0,0:0:0:0:
332,161,169005,1,0,0:0:0:0:
237,301,169228,1,8,0:0:0:0:
186,100,169451,1,0,0:0:0:0:
366,173,169673,1,8,0:0:0:0:
230,333,169895,1,0,0:0:0:0:
94,274,170117,6,0,L|48:177,2,100,8|0|8,0:0|0:0|0:0,0:0:0:0:
270,246,170783,1,0,0:0:0:0:
239,80,171005,1,8,0:0:0:0:
149,225,171228,1,0,0:0:0:0:
209,60,171450,1,8,0:0:0:0:
311,223,171672,1,0,0:0:0:0:
213,337,171895,6,0,L|110:348,2,100,8|0|8,0:0|0:0|0:0,0:0:0:0:
397,283,172561,1,0,0:0:0:0:
235,185,172783,1,8,0:0:0:0:
427,184,173005,1,0,0:0:0:0:
349,55,173227,1,8,0:0:0:0:
271,215,173451,1,0,0:0:0:0:
370,127,173672,2,0,P|312:53|226:89,1,200,8|8,0:0|0:0,0:0:0:0:
341,309,174339,5,0,0:0:0:0:
277,149,174561,1,8,0:0:0:0:
261,317,174783,1,0,0:0:0:0:
365,141,175005,1,8,0:0:0:0:
197,267,175228,1,0,0:0:0:0:
429,189,175451,6,0,P|442:140|423:84,1,100,8|0,0:0|0:0,0:0:0:0:
296,62,175894,1,8,0:0:0:0:
175,157,176117,2,0,P|191:205|226:243,1,100,0|8,0:0|0:0,0:0:0:0:
338,335,176562,1,0,0:0:0:0:
446,215,176784,2,0,L|345:243,1,100,8|0,0:0|0:0,0:0:0:0:
105,321,177228,6,0,L|216:288,1,100,8|0,0:0|0:0,0:0:0:0:
326,179,177673,2,0,P|373:215|374:262,1,100,8|0,0:0|0:0,0:0:0:0:
154,199,178117,2,0,P|137:149|172:112,1,100,8|0,0:0|0:0,0:0:0:0:
262,237,178561,1,8,0:0:0:0:
377,123,178783,1,0,0:0:0:0:
288,319,179005,6,0,L|180:291,1,100
408,201,179450,2,0,L|519:170,1,100,8|0,0:0|0:0,0:0:0:0:
210,166,179894,2,0,L|133:90,1,100,8|0,0:0|0:0,0:0:0:0:
373,77,180340,2,0,L|462:163,1,100,8|0,0:0|0:0,0:0:0:0:
202,331,180783,6,0,L|230:219,1,100,8|0,0:0|0:0,0:0:0:0:
344,272,181228,2,0,L|370:162,1,100,8|0,0:0|0:0,0:0:0:0:
98,113,181672,2,0,L|70:215,1,100,8|0,0:0|0:0,0:0:0:0:
280,138,182117,2,0,L|254:36,1,100,8|0,0:0|0:0,0:0:0:0:
256,328,182562,5,10,0:0:0:0:
80,224,182783,1,2,0:0:0:0:
240,104,183005,1,10,0:0:0:0:
216,320,183228,1,2,0:0:0:0:
51,191,183451,1,10,0:0:0:0:
268,135,183672,1,2,0:0:0:0:
40,231,183894,1,10,0:0:0:0:
252,317,184117,1,2,0:0:0:0:
199,102,184339,5,8,0:0:0:0:
138,279,184562,2,0,P|192:268|227:230,1,100,8|8,0:0|0:0,0:0:0:0:
298,48,185006,1,0,0:0:0:0:
368,226,185228,1,8,0:0:0:0:
431,63,185451,1,0,0:0:0:0:
260,162,185673,1,8,0:0:0:0:
360,307,185895,1,0,0:0:0:0:
355,69,186117,5,10,0:0:0:0:
162,318,186340,1,2,0:0:0:0:
257,86,186562,1,10,0:0:0:0:
256,299,186784,1,2,0:0:0:0:
191,139,187006,1,10,0:0:0:0:
326,243,187228,1,2,0:0:0:0:
153,219,187451,1,10,0:0:0:0:
362,167,187673,1,2,0:0:0:0:
135,224,187895,6,0,P|155:253|209:280,1,80
380,163,188117,2,0,P|360:134|306:107,1,80
177,133,188340,2,0,P|182:167|220:215,1,80
339,254,188562,2,0,P|333:219|295:171,1,80
261,66,188784,6,0,P|248:99|257:158,1,80
255,321,189006,2,0,P|267:287|258:228,1,80
370,49,189228,2,0,P|342:71|320:127,1,80
146,338,189450,2,0,P|173:315|195:259,1,80
415,304,189895,2,0,L|350:311,4,40
131,86,190562,5,8,0:0:0:0:
148,290,190784,1,0,0:0:0:0:
266,121,191006,1,8,0:0:0:0:
48,195,191228,1,0,0:0:0:0:
268,263,191451,6,0,P|325:247|358:199,1,120.000004577637,8|8,0:0|0:0,0:0:0:0:
358,198,191784,1,0,0:0:0:0:
358,198,191895,1,8,0:0:0:0:
196,97,192118,1,0,0:0:0:0:
157,249,192340,2,0,P|215:217|235:154,1,120.000004577637,8|0,0:0|0:0,0:0:0:0:
141,342,192784,1,8,0:0:0:0:
322,207,193006,1,0,0:0:0:0:
286,300,193228,5,8,0:0:0:0:
165,132,193451,1,8,0:0:0:0:
165,132,193562,1,0,0:0:0:0:
165,132,193673,1,8,0:0:0:0:
386,129,193895,1,0,0:0:0:0:
282,289,194118,6,0,P|290:225|258:177,1,120.000004577637,8|8,0:0|0:0,0:0:0:0:
262,181,194451,1,0,0:0:0:0:
262,181,194562,1,8,0:0:0:0:
109,302,194784,1,0,0:0:0:0:
334,305,195006,2,0,P|270:313|222:281,1,120.000004577637,8|0,0:0|0:0,0:0:0:0:
358,113,195451,2,0,P|417:103|468:133,1,120.000004577637,8|0,0:0|0:0,0:0:0:0:
187,205,195895,2,0,P|178:146|208:95,1,120.000004577637,8|0,0:0|0:0,0:0:0:0:
45,139,196339,1,8,0:0:0:0:
172,20,196562,1,0,0:0:0:0:
254,161,196784,5,8,0:0:0:0:
407,258,197006,1,8,0:0:0:0:
407,258,197118,1,0,0:0:0:0:
407,258,197229,1,8,0:0:0:0:
180,310,197451,1,0,0:0:0:0:
126,161,197673,5,8,0:0:0:0:
190,73,197895,1,0,0:0:0:0:
339,155,198118,1,8,0:0:0:0:
397,78,198340,1,0,0:0:0:0:
235,205,198562,6,0,P|278:246|336:250,1,120.000004577637,8|8,0:0|0:0,0:0:0:0:
335,250,198895,1,0,0:0:0:0:
335,250,199006,1,8,0:0:0:0:
251,121,199229,1,0,0:0:0:0:
330,334,199451,2,0,P|388:317|420:268,1,120.000004577637,8|0,0:0|0:0,0:0:0:0:
402,112,199895,1,8,0:0:0:0:
479,312,200117,1,0,0:0:0:0:
224,319,200340,5,8,0:0:0:0:
302,129,200562,1,8,0:0:0:0:
302,129,200673,1,0,0:0:0:0:
302,129,200784,1,8,0:0:0:0:
398,295,201006,1,0,0:0:0:0:
302,51,201229,2,0,P|243:76|218:127,1,120.000004577637,8|8,0:0|0:0,0:0:0:0:
218,124,201562,1,0,0:0:0:0:
218,124,201673,1,8,0:0:0:0:
299,205,201895,1,0,0:0:0:0:
261,348,202117,6,0,L|164:261,1,120.000004577637,8|0,0:0|0:0,0:0:0:0:
305,108,202562,1,8,0:0:0:0:
348,250,202784,1,0,0:0:0:0:
124,182,203006,2,0,P|168:135|234:132,1,120.000004577637,8|0,0:0|0:0,0:0:0:0:
128,302,203450,2,0,P|71:310|19:278,1,120.000004577637,8|0,0:0|0:0,0:0:0:0:
156,98,203895,5,8,0:0:0:0:
300,273,204118,1,8,0:0:0:0:
300,273,204228,1,0,0:0:0:0:
300,273,204339,1,8,0:0:0:0:
402,86,204562,1,0,0:0:0:0:
256,82,204784,5,8,0:0:0:0:
152,234,205006,1,0,0:0:0:0:
192,34,205229,1,8,0:0:0:0:
229,204,205451,1,0,0:0:0:0:
120,65,205673,6,0,P|66:90|42:143,1,120.000004577637,8|8,0:0|0:0,0:0:0:0:
42,143,206006,1,0,0:0:0:0:
42,143,206117,1,8,0:0:0:0:
154,285,206340,1,0,0:0:0:0:
256,82,206562,2,0,P|270:140|244:192,1,120.000004577637,8|0,0:0|0:0,0:0:0:0:
270,337,207006,1,8,0:0:0:0:
345,139,207228,1,0,0:0:0:0:
158,248,207451,5,8,0:0:0:0:
368,257,207673,1,8,0:0:0:0:
368,257,207784,1,0,0:0:0:0:
368,257,207895,1,8,0:0:0:0:
251,72,208117,1,0,0:0:0:0:
126,250,208340,5,8,0:0:0:0:
289,51,208562,1,0,0:0:0:0:
290,241,208784,1,8,0:0:0:0:
118,147,209006,1,0,0:0:0:0:
225,284,209228,6,0,P|276:314|334:305,1,120.000004577637,8|0,0:0|0:0,0:0:0:0:
467,131,209673,2,0,P|415:102|358:113,1,120.000004577637,8|0,0:0|0:0,0:0:0:0:
334,217,210117,1,8,0:0:0:0:
461,290,210340,1,0,0:0:0:0:
274,207,210562,1,8,0:0:0:0:
371,362,210784,1,0,0:0:0:0:
222,184,211006,5,10,0:0:0:0:
84,53,211228,1,2,0:0:0:0:
45,253,211451,1,10,0:0:0:0:
133,41,211673,1,2,0:0:0:0:
306,134,211895,5,10,0:0:0:0:
132,210,212117,1,2,0:0:0:0:
301,324,212340,1,10,0:0:0:0:
343,104,212562,1,2,0:0:0:0:
209,133,212784,6,0,P|266:149|299:197,1,120.000004577637,8|8,0:0|0:0,0:0:0:0:
298,197,213117,1,0,0:0:0:0:
298,197,213228,1,8,0:0:0:0:
191,305,213451,1,0,0:0:0:0:
408,137,213673,2,0,P|433:189|419:246,1,120.000004577637,8|0,0:0|0:0,0:0:0:0:
250,44,214117,1,8,0:0:0:0:
330,192,214339,1,0,0:0:0:0:
344,29,214562,5,8,0:0:0:0:
228,140,214784,1,8,0:0:0:0:
228,140,214895,1,0,0:0:0:0:
228,140,215006,1,8,0:0:0:0:
105,31,215228,1,0,0:0:0:0:
134,227,215451,2,0,P|186:265|243:262,1,120.000004577637,8|8,0:0|0:0,0:0:0:0:
238,264,215784,1,0,0:0:0:0:
238,264,215895,1,8,0:0:0:0:
346,113,216117,1,0,0:0:0:0:
395,309,216339,5,8,0:0:0:0:
272,199,216562,1,8,0:0:0:0:
242,194,216673,1,0,0:0:0:0:
212,189,216784,1,8,0:0:0:0:
421,155,217006,1,0,0:0:0:0:
281,57,217228,1,8,0:0:0:0:
251,52,217339,1,0,0:0:0:0:
221,47,217450,1,8,0:0:0:0:
157,201,217673,2,0,P|97:172|76:118,1,120.000004577637,8|0,0:0|0:0,0:0:0:0:
107,310,218117,5,8,0:0:0:0:
234,134,218339,1,8,0:0:0:0:
234,134,218451,1,0,0:0:0:0:
234,134,218562,1,8,0:0:0:0:
316,266,218784,1,0,0:0:0:0:
141,179,219006,1,8,0:0:0:0:
318,102,219228,1,0,0:0:0:0:
205,292,219451,1,8,0:0:0:0:
205,86,219673,1,0,0:0:0:0:
377,184,219895,5,12,0:0:0:0:
141,220,230562,6,0,P|86:296|176:227,1,320
208,98,231673,2,0,L|239:142,1,40
299,97,231895,2,0,L|263:46,1,40
347,39,232117,2,0,L|382:83,1,40
439,41,232340,5,0,0:0:0:0:
422,164,232562,2,0,P|415:188|404:209,2,40
283,217,233006,2,0,P|306:258|340:284,1,80
228,279,233451,2,0,P|205:320|171:346,1,80
135,201,233895,1,0,0:0:0:0:
341,89,234117,5,8,0:0:0:0:
468,233,234340,2,0,P|417:253|357:230,1,120.000004577637,0|8,0:0|0:0,0:0:0:0:
193,158,234784,2,0,P|251:166|288:211,1,120.000004577637,0|8,0:0|0:0,0:0:0:0:
229,341,235228,5,0,0:0:0:0:
229,341,235339,2,0,L|170:307,1,60.0000022888184,0|8,0:0|0:0,0:0:0:0:
147,228,235562,1,0,0:0:0:0:
147,228,235673,2,0,L|88:194,1,60.0000022888184
56,117,235895,5,8,0:0:0:0:
336,57,236117,2,0,P|376:121|360:201,1,120.000004577637,0|8,0:0|0:0,0:0:0:0:
262,320,236562,1,0,0:0:0:0:
402,248,236784,1,8,0:0:0:0:
242,60,237006,1,0,0:0:0:0:
242,60,237117,2,0,L|275:113,1,60.0000022888184,0|8,0:0|0:0,0:0:0:0:
292,253,237339,1,0,0:0:0:0:
292,253,237451,2,0,L|256:195,1,60.0000022888184
198,124,237673,5,8,0:0:0:0:
360,208,237896,2,0,P|416:176|416:112,1,120.000004577637,0|8,0:0|0:0,0:0:0:0:
287,38,238340,1,0,0:0:0:0:
434,224,238563,1,8,0:0:0:0:
230,108,238784,1,0,0:0:0:0:
230,108,238895,2,0,L|184:151,1,60.0000022888184,0|8,0:0|0:0,0:0:0:0:
140,290,239117,1,0,0:0:0:0:
140,290,239228,2,0,L|189:243,1,60.0000022888184
257,184,239450,5,8,0:0:0:0:
401,324,239673,2,0,L|425:199,1,120.000004577637,0|8,0:0|0:0,0:0:0:0:
361,38,240118,1,0,0:0:0:0:
296,191,240341,5,8,0:0:0:0:
296,191,240452,2,0,L|262:132,1,60.0000022888184
173,160,240673,1,0,0:0:0:0:
173,160,240784,2,0,L|138:101,1,60.0000022888184,8|0,0:0|0:0,0:0:0:0:
59,114,241006,1,0,0:0:0:0:
336,57,241228,6,0,P|376:121|360:201,1,120.000004577637,8|0,0:0|0:0,0:0:0:0:
297,297,241673,1,8,0:0:0:0:
157,220,241895,1,0,0:0:0:0:
302,131,242117,1,8,0:0:0:0:
231,305,242340,1,8,0:0:0:0:
201,307,242451,1,0,0:0:0:0:
174,296,242562,1,8,0:0:0:0:
177,148,242673,1,0,0:0:0:0:
203,161,242784,1,8,0:0:0:0:
221,184,242895,1,0,0:0:0:0:
91,234,243006,5,8,0:0:0:0:
114,62,243228,2,0,P|178:43|247:57,1,120.000004577637,0|8,0:0|0:0,0:0:0:0:
263,75,243562,2,0,B|303:122|303:122|298:188|297:188|354:218,1,180.000006866455,0|8,0:0|0:0,0:0:0:0:
293,329,244117,1,0,0:0:0:0:
277,303,244228,1,0,0:0:0:0:
263,281,244340,2,0,B|223:234|223:234|228:168|229:168|154:172|107:101,1,240.000009155274,8|8,0:0|0:0,0:0:0:0:
92,239,245006,6,0,P|106:298|156:348,1,120.000004577637,0|8,0:0|0:0,0:0:0:0:
305,236,245451,1,0,0:0:0:0:
200,142,245673,1,8,0:0:0:0:
333,317,245895,2,0,P|372:272|385:214,1,120.000004577637,0|8,0:0|0:0,0:0:0:0:
364,83,246228,2,0,L|324:132,1,60.0000022888184
316,144,246451,1,0,0:0:0:0:
304,160,246562,5,8,0:0:0:0:
212,286,246784,2,0,P|145:250|119:173,1,120.000004577637,0|8,0:0|0:0,0:0:0:0:
153,80,247229,1,0,0:0:0:0:
319,86,247451,1,8,0:0:0:0:
338,108,247562,1,0,0:0:0:0:
342,137,247673,1,0,0:0:0:0:
330,164,247784,1,0,0:0:0:0:
305,179,247895,1,8,0:0:0:0:
242,45,248117,1,0,0:0:0:0:
407,204,248340,6,8,P|346:266|218:135,1,320
102,267,249006,1,0,0:0:0:0:
252,333,249228,2,8,P|335:216|217:134,1,320
50,30,249895,2,0,L|128:44,1,80
161,53,250117,2,8,B|116:137|116:137|49:222|105:290|105:290|207:336,1,320
407,339,250784,2,0,L|328:324,1,80
296,316,251006,2,0,B|341:232|341:232|299:153|259:188|346:69|398:108,1,240,8|0,0:0|0:0,0:0:0:0:
358,80,251451,2,0,P|266:64|187:183,1,240,8|0,0:0|0:0,0:0:0:0:
304,340,251895,6,0,P|345:319|367:286,1,80,10|0,0:0|0:0,0:0:0:0:
207,339,252117,2,0,P|144:285|136:235,1,80,2|0,0:0|0:0,0:0:0:0:
381,212,252339,6,0,P|441:183|451:138,1,80,10|0,0:0|0:0,0:0:0:0:
129,212,252561,2,0,P|69:183|59:135,1,80,2|0,0:0|0:0,0:0:0:0:
100,60,252783,6,0,P|160:40|228:55,1,80,10|0,0:0|0:0,0:0:0:0:
404,60,253006,2,0,P|324:40|276:53,1,80,2|0,0:0|0:0,0:0:0:0:
64,173,253228,6,0,L|146:197,1,80,10|0,0:0|0:0,0:0:0:0:
446,173,253450,2,0,L|359:202,1,80,2|0,0:0|0:0,0:0:0:0:
256,224,253672,1,6,0:0:0:0:
256,40,254117,1,4,0:0:0:0:
136,152,254561,6,0,P|56:196|80:252,1,160
376,152,255006,2,0,P|456:196|432:252,1,160
255,193,255451,1,0,0:0:0:0:
256,192,260562,5,0,0:0:0:0:
256,192,261006,1,0,0:0:0:0:
215,56,261673,5,8,0:0:0:0:
240,247,261895,1,0,0:0:0:0:
183,92,262117,1,8,0:0:0:0:
129,291,262340,1,0,0:0:0:0:
339,226,262562,6,0,P|390:197|407:138,1,120.000004577637,8|0,0:0|0:0,0:0:0:0:
194,54,263006,2,0,P|148:107|160:162,1,120.000004577637,8|0,0:0|0:0,0:0:0:0:
482,194,263451,2,0,B|335:163,1,120.000004577637,8|0,0:0|0:0,0:0:0:0:
170,336,263895,1,8,0:0:0:0:
399,251,264117,1,0,0:0:0:0:
129,142,264339,5,8,0:0:0:0:
301,57,264562,1,8,0:0:0:0:
266,77,264673,1,0,0:0:0:0:
232,98,264784,1,8,0:0:0:0:
387,234,265006,1,8,0:0:0:0:
422,254,265117,1,0,0:0:0:0:
456,275,265228,5,8,0:0:0:0:
281,327,265451,1,0,0:0:0:0:
409,139,265673,1,8,0:0:0:0:
199,116,265895,1,0,0:0:0:0:
58,272,266117,6,0,P|116:288|178:257,1,120.000004577637,8|0,0:0|0:0,0:0:0:0:
251,111,266562,1,8,0:0:0:0:
112,213,266784,1,0,0:0:0:0:
352,285,267006,2,0,P|398:242|396:182,1,120.000004577637,8|0,0:0|0:0,0:0:0:0:
202,135,267451,1,8,0:0:0:0:
262,352,267673,1,0,0:0:0:0:
450,229,267895,5,8,0:0:0:0:
363,57,268117,1,8,0:0:0:0:
323,64,268228,1,0,0:0:0:0:
284,71,268339,1,8,0:0:0:0:
127,207,268562,1,0,0:0:0:0:
231,337,268784,5,8,0:0:0:0:
359,203,269006,1,8,0:0:0:0:
344,158,269117,1,0,0:0:0:0:
306,131,269228,1,8,0:0:0:0:
230,105,269340,1,0,0:0:0:0:
190,95,269451,1,8,0:0:0:0:
168,60,269562,1,0,0:0:0:0:
84,55,269673,6,0,L|61:186,1,120.000004577637,8|0,0:0|0:0,0:0:0:0:
167,353,270117,2,0,L|184:209,1,120.000004577637,8|0,0:0|0:0,0:0:0:0:
322,88,270562,2,0,L|305:212,1,120.000004577637,8|0,0:0|0:0,0:0:0:0:
396,343,271006,1,8,0:0:0:0:
459,152,271228,1,0,0:0:0:0:
279,81,271451,5,8,0:0:0:0:
177,218,271673,2,0,P|239:229|280:275,1,120.000004577637,0|8,0:0|0:0,0:0:0:0:
77,339,272117,1,0,0:0:0:0:
256,184,272340,5,8,0:0:0:0:
34,72,272562,1,0,0:0:0:0:
146,310,272784,1,8,0:0:0:0:
286,89,273006,1,0,0:0:0:0:
432,314,273228,6,0,P|477:237|467:167,1,120.000004577637,8|0,0:0|0:0,0:0:0:0:
214,56,273673,2,0,P|236:142|293:184,1,120.000004577637,8|0,0:0|0:0,0:0:0:0:
328,36,274117,1,8,0:0:0:0:
77,158,274339,1,0,0:0:0:0:
279,334,274562,2,0,P|314:255|279:195,1,120.000004577637,8|8,0:0|0:0,0:0:0:0:
305,226,274895,1,0,0:0:0:0:
305,226,275006,5,8,0:0:0:0:
199,41,275228,1,8,0:0:0:0:
199,41,275339,1,0,0:0:0:0:
199,41,275451,1,8,0:0:0:0:
15,151,275673,1,0,0:0:0:0:
182,283,275895,5,8,0:0:0:0:
348,121,276117,1,8,0:0:0:0:
348,121,276228,1,0,0:0:0:0:
348,121,276340,1,8,0:0:0:0:
115,89,276562,1,0,0:0:0:0:
407,291,276784,6,0,P|464:277|497:229,1,120.000004577637,8|0,0:0|0:0,0:0:0:0:
290,41,277228,2,0,P|238:80|237:135,1,120.000004577637,8|0,0:0|0:0,0:0:0:0:
94,319,277673,2,0,P|141:269|132:206,1,120.000004577637,8|0,0:0|0:0,0:0:0:0:
91,54,278117,1,8,0:0:0:0:
246,242,278340,1,0,0:0:0:0:
352,40,278562,5,8,0:0:0:0:
116,128,278784,1,0,0:0:0:0:
304,271,279006,1,8,0:0:0:0:
250,46,279228,2,0,P|199:79|190:139,1,120.000004577637,0|8,0:0|0:0,0:0:0:0:
127,356,279673,2,0,L|67:246,1,120.000004577637,0|8,0:0|0:0,0:0:0:0:
33,46,280117,1,0,0:0:0:0:
295,38,280340,5,8,0:0:0:0:
163,134,280562,1,8,0:0:0:0:
160,163,280673,1,0,0:0:0:0:
173,190,280784,1,8,0:0:0:0:
349,250,281006,1,8,0:0:0:0:
352,221,281117,1,0,0:0:0:0:
339,194,281228,1,8,0:0:0:0:
217,346,281451,1,8,0:0:0:0:
217,346,281562,1,0,0:0:0:0:
217,346,281673,2,0,P|253:292|250:237,1,120.000004577637,8|0,0:0|0:0,0:0:0:0:
285,39,282117,5,8,0:0:0:0:
245,217,282340,1,0,0:0:0:0:
107,81,282562,1,8,0:0:0:0:
70,319,282784,2,0,P|118:284|126:215,1,120.000004577637
266,49,283228,2,0,P|240:97|283:157,1,120.000004577637
305,166,283562,1,0,0:0:0:0:
326,193,283673,1,0,0:0:0:0:
329,229,283784,1,0,0:0:0:0:
311,260,283895,1,0,0:0:0:0:
256,192,284006,12,0,285673,0:0:0:0:
483,38,285895,6,0,L|351:60,1,120.000004577637,0|8,0:0|0:0,0:0:0:0:
229,174,286340,1,0,0:0:0:0:
387,210,286561,1,8,0:0:0:0:
209,41,286783,1,0,0:0:0:0:
182,54,286894,1,0,0:0:0:0:
155,67,287006,2,0,L|99:98,1,60.0000022888184,8|0,0:0|0:0,0:0:0:0:
48,193,287228,1,0,0:0:0:0:
76,181,287339,1,0,0:0:0:0:
103,168,287451,5,8,0:0:0:0:
267,152,287673,2,0,P|320:183|351:259,1,120.000004577637,0|8,0:0|0:0,0:0:0:0:
136,348,288117,1,0,0:0:0:0:
174,170,288340,1,8,0:0:0:0:
344,349,288561,1,0,0:0:0:0:
344,349,288672,1,0,0:0:0:0:
344,349,288783,2,0,L|404:290,1,60.0000022888184,8|0,0:0|0:0,0:0:0:0:
450,239,289005,1,0,0:0:0:0:
430,218,289116,1,0,0:0:0:0:
409,197,289227,5,8,0:0:0:0:
270,81,289450,2,0,L|392:40,1,120.000004577637,0|8,0:0|0:0,0:0:0:0:
230,234,289895,1,0,0:0:0:0:
35,181,290117,1,8,0:0:0:0:
152,46,290339,1,0,0:0:0:0:
152,46,290450,1,0,0:0:0:0:
152,46,290561,2,0,L|101:96,1,60.0000022888184,8|0,0:0|0:0,0:0:0:0:
176,175,290783,1,0,0:0:0:0:
198,154,290894,1,0,0:0:0:0:
219,133,291005,5,8,0:0:0:0:
362,121,291228,2,0,P|397:170|386:230,1,120.000004577637,0|8,0:0|0:0,0:0:0:0:
472,74,291672,1,0,0:0:0:0:
208,91,291895,2,0,L|122:59,1,80
348,93,292117,2,0,L|289:23,1,80
146,173,292340,2,0,L|62:211,1,80
192,274,292562,2,0,L|138:348,1,80
269,351,292783,5,8,0:0:0:0:
384,267,293005,2,0,P|431:218|426:156,1,120.000004577637,0|8,0:0|0:0,0:0:0:0:
478,34,293450,2,0,P|419:72|367:74,1,120.000004577637,0|8,0:0|0:0,0:0:0:0:
207,48,293894,1,0,0:0:0:0:
207,48,294005,1,0,0:0:0:0:
207,48,294117,2,0,L|127:82,1,60.0000022888184,8|0,0:0|0:0,0:0:0:0:
48,131,294339,1,0,0:0:0:0:
75,143,294450,1,0,0:0:0:0:
103,155,294562,5,8,0:0:0:0:
212,318,294784,2,0,L|264:206,1,120.000004577637,0|8,0:0|0:0,0:0:0:0:
446,112,295228,2,0,L|387:227,1,120.000004577637,0|8,0:0|0:0,0:0:0:0:
274,335,295672,1,0,0:0:0:0:
274,335,295783,1,0,0:0:0:0:
274,335,295894,2,0,P|231:306|226:283,1,60.0000022888184,8|0,0:0|0:0,0:0:0:0:
314,188,296117,1,0,0:0:0:0:
311,159,296228,1,0,0:0:0:0:
296,133,296339,5,8,0:0:0:0:
207,38,296562,2,0,P|158:76|141:135,1,120.000004577637,0|8,0:0|0:0,0:0:0:0:
228,300,297005,1,0,0:0:0:0:
314,126,297228,1,8,0:0:0:0:
77,229,297451,2,0,P|99:288|148:323,1,120.000004577637,0|8,0:0|0:0,0:0:0:0:
216,60,297895,1,0,0:0:0:0:
172,219,298117,6,0,L|245:267,1,80
348,163,298340,2,0,L|274:114,1,80
148,183,298561,2,0,L|183:275,1,80
372,199,298784,2,0,L|335:102,1,80
136,155,299006,2,0,L|103:240,1,80
388,223,299228,2,0,L|409:128,1,80
144,99,299451,2,0,L|54:159,1,80
376,271,299673,2,0,L|466:166,1,80
256,191,299895,1,0,0:0:0:0:
92,212,300784,6,0,L|117:242,2,40
184,193,301117,2,0,L|245:256,1,80
428,240,301784,2,0,P|413:128|280:155,1,280
180,295,302784,2,0,P|299:331|341:220,1,240
395,123,303896,6,0,L|306:150,1,80
184,72,304340,2,0,L|121:121,1,80
108,135,304673,1,0,0:0:0:0:
127,275,305228,5,0,0:0:0:0:
256,341,305562,1,0,0:0:0:0:
383,271,305895,1,0,0:0:0:0:
256,192,306228,1,0,0:0:0:0:
256,192,306340,12,0,310562,0:0:0:0:
