osu file format v14

[General]
AudioFilename: audio.mp3
AudioLeadIn: 0
PreviewTime: 59013
Countdown: 0
SampleSet: Soft
StackLeniency: 0.4
Mode: 0
LetterboxInBreaks: 0
WidescreenStoryboard: 1

[Editor]
Bookmarks: 16244,30361,42975,55607,59797,72346
DistanceSpacing: 1
BeatDivisor: 3
GridSize: 16
TimelineZoom: 2.750003

[Metadata]
Title:One More Sunshine Story
TitleUnicode:One More Sunshine Story
Artist:Takami Chika (CV: Inami Anju)
ArtistUnicode:高海千歌 (CV: 伊波杏樹)
Creator:Kyairie
Version:TsumugiP's Insane
Source:ラブライブ!サンシャイン!!
Tags:Mrgglock Huzz TsumugiP NotABox Love Live! LoveLive! Sunshine!! Aqours japanese pop j-pop jpop anime video game videogame size short ver version School Idol Festival sif First Solo Concert Album 畑 亜貴 Aki Hata EFFY FirstCall
BeatmapID:3601069
BeatmapSetID:1594562

[Difficulty]
HPDrainRate:5
CircleSize:3.7
OverallDifficulty:7
ApproachRate:9
SliderMultiplier:2.1
SliderTickRate:1

[Events]
//Background and Video events
0,0,"mikan.jpg",0,0
//Break Periods
//Storyboard Layer 0 (Background)
//Storyboard Layer 1 (Fail)
//Storyboard Layer 2 (Pass)
//Storyboard Layer 3 (Foreground)
//Storyboard Layer 4 (Overlay)
//Storyboard Sound Samples

[TimingPoints]
-4148,392.156862745098,4,2,1,50,1,0
1342,-142.857142857143,4,2,1,60,0,0
2126,-142.857142857143,4,2,1,70,0,0
2322,-166.666666666667,4,2,1,70,0,0
5459,-125,4,2,1,70,0,0
8401,-100,4,2,1,80,0,0
11538,-86.9565217391304,4,2,1,90,0,0
13106,-111.111111111111,4,2,1,80,0,0
15655,-111.111111111111,4,2,1,70,0,0
15852,-111.111111111111,4,2,1,70,0,0
16244,392.156862745098,4,2,1,60,1,0
16440,-142.857142857143,4,2,1,60,0,0
22518,-200,4,2,1,60,0,0
25655,-100,4,2,1,60,0,0
27224,-90.9090909090909,4,2,1,60,0,0
28793,-83.3333333333333,4,2,1,70,0,0
29969,-111.111111111111,4,2,1,70,0,0
30361,392.156862745098,4,2,1,70,1,0
30557,-125,4,2,1,70,0,0
30949,-100,4,2,1,70,0,0
32125,-125,4,2,1,70,0,0
32517,-100,4,2,1,70,0,0
33498,-125,4,2,1,70,0,0
36635,-200,4,2,1,70,0,0
39772,-111.111111111111,4,2,1,70,0,0
41929,410.958904109589,4,2,1,70,1,8
42134,-111.111111111111,4,2,1,70,0,8
42545,-111.111111111111,4,2,1,60,0,8
42547,441.176470588235,4,2,1,60,1,8
42975,451.127819548872,4,2,1,50,1,8
44178,-100,4,2,1,40,0,8
44780,451.127819548872,4,2,1,50,1,0
44780,-142.857142857143,4,2,1,50,0,0
55607,-142.857142857143,4,2,1,70,0,0
57837,392.156862745098,4,2,1,70,1,8
58229,-111.111111111111,4,2,1,70,0,8
59209,-111.111111111111,4,2,1,80,0,8
59405,-111.111111111111,4,2,1,80,0,8
59797,392.156862745098,4,2,1,90,1,1
59797,-80,4,2,1,90,0,1
71169,-125,4,2,1,90,0,0
72346,-80,4,2,1,90,0,1
83718,-125,4,2,1,90,0,0
84502,-125,4,2,1,80,0,0
84895,-90.9090909090909,4,2,1,80,0,0
86463,-83.3333333333333,4,2,1,80,0,0
88032,392.156862745098,4,2,1,70,1,0
88228,-142.857142857143,4,2,1,70,0,0
91365,-117.647058823529,4,2,1,70,0,0
94306,-90.9090909090909,4,2,1,80,0,0
97443,-90.9090909090909,4,2,1,90,0,0
99012,-90.9090909090909,4,2,1,80,0,0
100581,-90.9090909090909,4,2,1,90,0,0
101496,-90.9090909090909,4,2,1,40,0,0

[Colours]
Combo1 : 212,212,212
Combo2 : 255,157,60

[HitObjects]
28,107,1342,6,0,P|64:93|112:82,1,73.4999977569581,0|0,1:0|0:0,0:0:0:0:
189,67,1636,1,8,2:0:0:0:
189,67,1734,1,8,2:0:0:0:
273,108,1930,1,0,1:0:0:0:
217,253,2126,5,4,1:2:0:0:
116,273,2322,2,0,L|66:282,2,31.4999990386963,8|8|8,2:0|2:0|2:0,0:0:0:0:
217,253,2714,5,0,1:0:0:0:
183,350,2910,2,0,L|165:397,2,31.4999990386963,8|8|8,2:0|2:0|2:0,0:0:0:0:
217,253,3302,5,0,1:0:0:0:
294,347,3499,1,8,2:0:0:0:
299,186,3695,5,4,1:2:0:0:
388,265,3891,2,0,P|390:235|380:213,2,31.4999990386963,8|8|8,2:0|2:0|2:0,0:0:0:0:
481,264,4283,5,0,1:0:0:0:
458,151,4479,2,0,P|438:127|415:118,2,31.4999990386963,8|8|8,2:0|2:0|2:0,0:0:0:0:
405,42,4871,5,0,1:0:0:0:
353,126,5067,1,8,2:0:0:0:
232,5,5263,5,4,1:2:0:0:
137,67,5459,2,0,B|126:95|126:95|129:124,2,42,8|8|8,2:0|2:0|2:0,0:0:0:0:
158,236,5852,5,0,1:0:0:0:
268,189,6048,2,0,B|279:161|279:161|276:132,2,42,8|8|8,2:0|2:0|2:0,0:0:0:0:
330,293,6440,1,0,1:0:0:0:
236,296,6636,1,8,2:0:0:0:
69,327,6832,5,4,1:2:0:0:
23,190,7028,2,0,L|42:252,2,42,8|8|8,2:0|2:0|2:0,0:0:0:0:
158,236,7420,5,0,1:0:0:0:
112,99,7616,2,0,L|131:161,2,42,8|8|8,2:0|2:0|2:0,0:0:0:0:
214,9,8008,5,8,3:0:0:0:
214,40,8106,1,8,3:0:0:0:
231,66,8204,1,4,3:0:0:0:
259,79,8302,1,4,3:0:0:0:
290,75,8401,6,0,P|348:56|418:32,1,105,4|8,1:2|2:0,0:0:0:0:
471,14,8695,1,8,2:0:0:0:
471,14,8793,1,8,2:0:0:0:
512,141,8989,1,0,1:0:0:0:
378,181,9185,5,8,2:0:0:0:
365,157,9283,1,8,2:0:0:0:
373,132,9381,1,8,2:0:0:0:
494,246,9577,5,0,1:0:0:0:
512,141,9773,1,8,2:0:0:0:
353,278,9969,6,0,P|283:265|263:218,1,105,4|8,1:2|2:0,0:0:0:0:
291,164,10263,1,8,2:0:0:0:
291,164,10361,1,8,2:0:0:0:
165,101,10557,1,0,1:0:0:0:
110,221,10753,5,8,2:0:0:0:
97,243,10851,1,8,2:0:0:0:
97,269,10950,1,8,2:0:0:0:
148,384,11146,6,0,L|210:364,1,52.5,0|0,1:0|1:0,0:0:0:0:
282,324,11342,2,0,L|344:344,1,52.5,8|8,2:0|2:0,0:0:0:0:
442,375,11538,6,0,B|419:249|419:249|356:259,1,181.125003454685,4|0,1:0|0:0,0:0:0:0:
289,210,11930,6,0,L|323:17,1,181.125003454685,4|0,1:2|0:0,0:0:0:0:
229,16,12322,6,0,P|145:70|165:155,1,181.125003454685,4|0,1:0|1:0,0:0:0:0:
185,225,12714,6,0,P|186:310|109:349,1,181.125003454685,8|0,1:2|0:0,0:0:0:0:
52,281,13106,6,0,L|37:180,1,94.499997116089,4|0,1:0|0:0,0:0:0:0:
29,109,13401,1,0,1:0:0:0:
29,109,13499,1,0,1:0:0:0:
114,41,13695,1,0,1:0:0:0:
217,106,13891,5,8,1:2:0:0:
199,128,13989,2,0,P|134:155|94:156,1,94.499997116089,0|0,1:0|0:0,0:0:0:0:
123,270,14283,5,8,1:2:0:0:
141,248,14381,2,0,P|206:221|246:220,1,94.499997116089,0|0,1:0|0:0,0:0:0:0:
325,247,14675,5,0,1:0:0:0:
325,247,14871,1,0,1:0:0:0:
409,144,15067,5,4,1:0:0:0:
256,192,15165,12,2,15852,1:0:0:0:
35,126,16244,5,2,1:0:0:0:
102,200,16440,2,0,P|137:198|181:191,1,73.4999977569581,2|2,0:3|1:0,0:0:0:0:
79,292,16832,2,0,P|145:289|226:274,1,146.999995513916,14|2,1:2|0:3,0:0:0:0:
327,266,17420,1,2,1:0:0:0:
388,183,17616,1,2,0:3:0:0:
279,66,17812,5,2,1:0:0:0:
372,111,18008,2,0,L|387:182,1,73.4999977569581,2|0,0:3|1:0,0:0:0:0:
467,83,18400,2,0,L|497:226,1,146.999995513916,14|2,1:2|0:3,0:0:0:0:
412,281,18989,1,2,1:0:0:0:
412,281,19185,1,2,0:3:0:0:
309,259,19381,6,0,P|309:303|344:347,1,73.4999977569581,2|2,1:0|0:3,0:0:0:0:
512,297,19773,2,0,P|512:253|477:209,1,73.4999977569581,2|2,1:0|0:3,0:0:0:0:
387,182,20165,6,0,L|300:161,1,73.4999977569581,2|2,1:0|0:3,0:0:0:0:
257,109,20459,2,0,L|170:130,1,73.4999977569581,2|0,0:1|0:0,0:0:0:0:
123,183,20753,1,2,0:3:0:0:
41,99,20949,5,2,1:0:0:0:
123,183,21145,2,0,P|142:218|148:258,1,73.4999977569581,2|0,0:3|1:0,0:0:0:0:
227,373,21538,2,0,P|234:308|273:223,1,146.999995513916,2|2,0:3|0:3,0:0:0:0:
279,142,22126,2,0,P|239:140|201:126,1,73.4999977569581,2|2,1:0|0:3,0:0:0:0:
109,55,22518,6,0,P|88:31|40:112,1,157.5,6|6,3:2|3:2,0:0:0:0:
104,154,23498,5,2,0:1:0:0:
104,154,23694,1,2,0:1:0:0:
140,236,23891,1,0,0:0:0:0:
247,193,24087,6,0,P|256:181|279:219,2,78.75,6|6|6,3:2|3:2|3:2,0:0:0:0:
216,290,25067,5,2,0:1:0:0:
216,290,25263,1,2,0:1:0:0:
180,372,25459,1,0,0:0:0:0:
59,373,25655,6,0,P|49:320|26:198,1,157.5,6|0,1:2|0:0,0:0:0:0:
52,131,26047,6,0,B|86:138|106:158|106:158|126:226|130:277,1,157.5,2|0,1:0|0:0,0:0:0:0:
198,183,26440,6,0,P|238:142|332:158,1,157.5,2|0,1:0|0:0,0:0:0:0:
396,229,26832,6,0,L|438:57,1,157.5,2|0,1:0|0:0,0:0:0:0:
375,6,27224,6,0,L|249:27,1,115.50000352478,6|0,1:2|0:0,0:0:0:0:
181,38,27518,1,8,2:0:0:0:
181,38,27616,1,8,2:0:0:0:
323,116,27812,6,0,L|197:137,1,115.50000352478,4|0,1:0|0:0,0:0:0:0:
129,148,28106,1,8,2:0:0:0:
129,148,28204,1,8,2:0:0:0:
271,226,28400,5,8,2:0:0:0:
242,230,28498,1,8,2:0:0:0:
214,235,28596,1,8,2:0:0:0:
185,240,28694,1,8,2:0:0:0:
157,244,28793,6,0,B|90:240|75:232|75:232|59:204|52:181,1,125.999996154785,4|0,1:2|0:0,0:0:0:0:
36,114,29087,6,0,B|72:57|87:48|87:48|118:48|143:54,1,125.999996154785,4|0,1:2|0:0,0:0:0:0:
209,74,29381,6,0,B|239:134|239:151|239:151|223:178|206:196,1,125.999996154785,4|0,1:0|0:0,0:0:0:0:
157,244,29773,5,2,1:0:0:0:
145,266,29871,1,0,1:0:0:0:
143,289,29969,2,0,P|168:321|177:286,1,94.499997116089,2|2,1:0|1:0,0:0:0:0:
293,227,30361,5,2,1:0:0:0:
381,303,30557,2,0,P|370:349|357:390,1,84,2|0,0:3|1:0,0:0:0:0:
482,254,30949,2,0,P|469:200|454:153,2,105,14|0|2,3:1|0:0|0:3,0:0:0:0:
381,303,31537,1,2,1:0:0:0:
293,227,31733,1,2,0:3:0:0:
453,152,31929,5,2,1:0:0:0:
353,86,32125,2,0,L|270:70,1,84,2|0,0:3|1:0,0:0:0:0:
100,103,32517,2,0,L|126:-43,2,105,14|0|2,3:1|0:0|0:3,0:0:0:0:
187,179,33106,1,2,1:0:0:0:
187,179,33302,1,2,0:3:0:0:
276,103,33498,6,0,P|317:107|353:87,1,84,2|2,1:0|0:3,0:0:0:0:
500,13,33890,2,0,P|458:8|422:28,1,84,2|2,1:0|0:3,0:0:0:0:
457,181,34282,6,0,L|478:100,1,84,2|2,1:0|0:3,0:0:0:0:
384,102,34576,2,0,L|363:183,1,84,2|0,0:1|0:0,0:0:0:0:
390,270,34870,1,2,0:3:0:0:
364,372,35066,5,2,1:0:0:0:
390,270,35262,2,0,P|341:266|296:296,1,84,2|0,0:3|1:0,0:0:0:0:
189,246,35655,1,2,0:3:0:0:
163,348,35851,6,0,P|212:352|257:322,1,84,0|2,1:0|0:3,0:0:0:0:
214,148,36243,2,0,P|165:144|120:174,1,84,2|2,1:0|0:3,0:0:0:0:
189,54,36635,6,0,B|165:23|157:-17|157:-17|156:25|137:61,1,157.5,6|6,3:2|3:2,0:0:0:0:
41,120,37615,1,2,0:1:0:0:
41,120,37811,1,2,0:1:0:0:
57,221,38008,1,0,0:0:0:0:
159,274,38204,6,0,B|170:259|176:237|176:237|179:259|186:276,2,78.75,6|6|6,3:2|3:2|3:2,0:0:0:0:
267,368,39184,1,2,1:0:0:0:
267,368,39380,1,2,1:0:0:0:
283,267,39576,1,0,0:0:0:0:
437,284,39772,6,0,B|464:299|468:334|468:334|475:283|492:193,1,188.999994232178,6|2,1:0|0:2,0:0:0:0:
276,70,40557,6,0,B|220:73|201:135|201:135|225:177|202:219,1,188.999994232178,6|2,1:0|0:2,0:0:0:0:
145,284,41145,1,0,1:0:0:0:
33,163,41341,6,0,L|136:180,1,94.499997116089,6|0,1:0|0:0,0:0:0:0:
204,214,41635,1,8,2:0:0:0:
204,214,41733,1,8,2:0:0:0:
315,162,41929,1,0,1:0:0:0:
310,47,42134,2,0,L|207:64,1,94.499997116089,8|0,2:0|1:0,0:0:0:0:
40,97,42547,6,0,P|26:130|32:162,2,70,8|4|4,3:0|3:0|3:0,0:0:0:0:
101,30,42975,5,2,3:0:0:0:
256,199,44178,5,8,3:0:0:0:
256,199,44328,1,4,3:0:0:0:
442,40,44780,6,0,P|420:96|461:207,1,146.999995513916,6|0,2:0|0:0,0:0:0:0:
503,290,45531,1,0,0:0:0:0:
486,319,45682,2,0,B|403:350|418:273|323:310,1,146.999995513916,2|2,2:0|2:0,0:0:0:0:
167,221,46434,2,0,B|215:244|242:284|242:284|252:238|302:198,1,195.999994018555,2|0,2:0|0:0,0:0:0:0:
186,117,47336,5,2,2:0:0:0:
162,91,47486,2,0,P|124:90|81:133,1,97.9999970092774,2|0,2:0|0:0,0:0:0:0:
48,135,47937,2,0,P|35:155|45:193,1,48.9999985046387,10|8,2:0|2:0,0:0:0:0:
5,268,48238,1,8,2:0:0:0:
12,301,48389,6,0,B|19:325|58:335|58:335|171:310,1,146.999995513916,2|0,2:0|0:0,0:0:0:0:
299,302,49140,1,0,0:0:0:0:
316,272,49291,2,0,P|374:256|412:300,1,97.9999970092774,2|0,2:0|0:0,0:0:0:0:
432,369,49742,1,2,2:0:0:0:
498,214,50043,6,0,P|446:204|412:300,1,146.999995513916,6|0,1:0|0:0,0:0:0:0:
432,369,50644,1,0,0:0:0:0:
314,283,50945,1,0,0:0:0:0:
308,248,51095,2,0,P|296:195|276:135,1,97.9999970092774,10|8,3:2|3:0,0:0:0:0:
215,88,51546,2,0,P|233:66|274:61,1,48.9999985046387,2|4,1:0|3:0,0:0:0:0:
357,68,51847,1,4,3:0:0:0:
352,101,51998,6,0,P|405:145|444:145,2,110.249996635437,6|2|2,1:0|2:0|2:0,0:0:0:0:
281,24,52900,2,0,P|208:44|158:-13,1,146.999995513916,2|0,2:0|1:0,0:0:0:0:
32,100,53652,6,0,B|5:132|5:132|-2:183|30:236,1,146.999995513916,14|0,2:0|0:0,0:0:0:0:
147,205,54253,2,0,P|120:179|76:173,1,48.9999985046387,2|0,2:0|0:0,0:0:0:0:
101,287,54554,1,0,0:0:0:0:
127,309,54704,2,0,L|239:290,1,97.9999970092774,2|0,2:0|0:0,0:0:0:0:
287,227,55155,2,0,L|399:246,1,97.9999970092774,2|0,1:0|0:0,0:0:0:0:
467,263,55607,5,8,1:0:0:0:
509,23,57837,5,8,2:0:0:0:
495,59,57935,1,8,2:0:0:0:
464,83,58033,1,8,1:0:0:0:
426,88,58131,1,8,1:0:0:0:
390,73,58229,2,0,P|358:124|399:206,1,141.749995674133,12|0,1:0|0:0,0:0:0:0:
453,245,58621,5,12,1:0:0:0:
256,192,58719,12,2,59405,1:3:0:0:
28,47,59797,6,0,P|32:91|56:112,1,65.625,6|0,1:0|0:0,0:0:0:0:
139,79,59993,2,0,P|135:35|111:14,1,65.625,8|0,1:0|0:0,0:0:0:0:
118,174,60189,2,0,L|140:247,1,65.625,0|0,1:0|0:0,0:0:0:0:
101,349,60385,2,0,B|66:360|66:360|38:269,1,131.25,10|0,1:0|1:0,0:0:0:0:
197,220,60777,6,0,P|163:220|132:242,1,65.625,10|0,1:0|0:0,0:0:0:0:
285,184,60973,2,0,P|302:154|298:116,1,65.625,2|0,1:0|0:0,0:0:0:0:
272,278,61169,2,0,P|289:307|323:323,1,65.625,10|0,1:0|0:0,0:0:0:0:
471,373,61365,6,0,L|405:385,1,65.625,6|0,3:2|0:0,0:0:0:0:
484,263,61561,1,0,0:0:0:0:
453,275,61659,2,0,P|418:255|444:160,1,131.25,6|0,3:2|0:0,0:0:0:0:
512,56,61953,6,0,B|491:87|461:95|461:95|318:48,1,196.875,6|0,1:2|0:0,0:0:0:0:
239,0,62346,2,0,P|219:72|152:30,1,131.25,10|0,1:0|1:0,0:0:0:0:
62,177,62738,1,10,1:0:0:0:
52,152,62836,1,2,0:0:0:0:
42,127,62934,6,0,L|59:62,1,65.625,2|0,1:0|0:0,0:0:0:0:
158,5,63130,2,0,L|175:70,1,65.625,10|0,1:0|0:0,0:0:0:0:
155,229,63326,6,0,P|152:195|181:167,1,65.625,2|0,1:0|0:0,0:0:0:0:
276,196,63522,2,0,P|279:230|250:258,1,65.625,10|0,1:0|0:0,0:0:0:0:
181,341,63718,5,2,1:0:0:0:
62,177,63914,1,8,1:0:0:0:
54,349,64110,2,0,B|125:308|116:380|208:327,1,131.25,2|8,1:0|1:0,0:0:0:0:
324,321,64502,6,0,L|301:402,1,65.625,6|0,1:2|0:0,0:0:0:0:
420,343,64698,1,0,0:0:0:0:
422,316,64797,2,0,P|412:263|333:222,1,131.25,6|0,1:2|0:0,0:0:0:0:
277,154,65091,6,0,L|237:292,1,131.25,6|0,1:2|1:0,0:0:0:0:
54,349,65483,1,8,1:0:0:0:
77,361,65581,2,0,P|113:333|92:249,1,131.25,8|0,1:0|0:0,0:0:0:0:
157,185,65875,2,0,P|137:168|97:166,1,65.625,10|0,1:0|0:0,0:0:0:0:
25,88,66071,6,0,P|38:26|98:8,1,131.25,2|8,1:0|1:0,0:0:0:0:
289,14,66463,1,0,1:0:0:0:
197,89,66659,1,10,1:0:0:0:
375,95,66855,6,0,L|394:23,1,65.625,2|0,1:0|0:0,0:0:0:0:
510,59,67051,1,8,1:0:0:0:
503,84,67149,2,0,B|483:165|483:165|464:189|430:187,1,131.25,2|0,1:0|0:0,0:0:0:0:
352,199,67444,2,0,L|335:262,1,65.625,10|0,1:0|0:0,0:0:0:0:
292,369,67640,5,6,1:2:0:0:
428,355,67836,1,8,1:0:0:0:
198,276,68032,5,2,1:0:0:0:
334,262,68228,1,8,1:0:0:0:
198,153,68424,6,0,P|204:118|229:92,3,65.625,6|0|0|0,1:2|1:2|1:2|1:2,0:0:0:0:
119,57,68816,2,0,P|113:92|88:118,3,65.625,10|8|8|8,1:0|1:0|1:0|1:0,0:0:0:0:
58,210,69208,5,6,1:2:0:0:
69,233,69306,2,0,B|96:255|96:255|157:248,1,65.625
198,153,69502,5,4,3:2:0:0:
202,128,69600,2,0,L|217:40,1,65.625
336,83,69797,2,0,L|324:147,1,65.625,4|0,1:0|0:0,0:0:0:0:
327,267,69993,5,0,3:0:0:0:
368,269,70091,1,0,3:0:0:0:
406,249,70189,1,0,3:0:0:0:
424,211,70287,1,0,3:0:0:0:
417,168,70385,1,8,1:0:0:0:
411,125,70483,1,8,1:0:0:0:
430,87,70581,1,0,1:0:0:0:
468,66,70679,1,0,1:0:0:0:
512,68,70777,6,0,P|473:122|503:58,1,196.875,4|0,3:2|0:0,0:0:0:0:
488,89,71169,6,0,B|424:121|444:69|359:99,1,126,4|0,3:2|0:0,0:0:0:0:
273,80,71561,6,0,P|234:83|212:107,1,42,2|0,1:0|0:0,0:0:0:0:
186,20,71757,1,8,1:0:0:0:
186,20,71855,2,0,P|160:49|161:82,1,42,8|2,1:0|1:0,0:0:0:0:
82,39,72051,1,8,1:0:0:0:
82,39,72149,2,0,P|85:78|109:100,1,42,8|0,1:0|0:0,0:0:0:0:
67,219,72346,6,0,L|146:196,1,65.625,6|0,1:0|0:0,0:0:0:0:
201,266,72542,2,0,L|181:345,1,65.625,8|0,1:0|0:0,0:0:0:0:
95,357,72738,2,0,L|35:300,1,65.625,0|0,1:0|0:0,0:0:0:0:
1,148,72934,6,0,P|22:220|80:209,1,131.25,10|0,1:0|1:0,0:0:0:0:
188,70,73326,6,0,P|202:104|208:140,1,65.625,10|0,1:0|0:0,0:0:0:0:
296,176,73522,2,0,P|314:148|328:119,1,65.625,2|0,1:0|0:0,0:0:0:0:
392,252,73718,2,0,P|358:266|322:272,1,65.625,10|0,1:0|0:0,0:0:0:0:
201,349,73914,6,0,L|217:286,1,65.625,6|0,1:2|0:0,0:0:0:0:
64,331,74110,1,0,0:0:0:0:
47,303,74208,2,0,P|64:257|141:253,1,131.25,6|0,1:2|0:0,0:0:0:0:
207,132,74502,6,0,B|164:98|161:47|161:47|149:98|102:121,1,196.875,6|0,1:2|0:0,0:0:0:0:
18,204,74895,2,0,P|100:225|150:262,1,131.25,10|0,1:0|1:0,0:0:0:0:
268,113,75287,1,10,1:0:0:0:
238,123,75385,1,2,1:0:0:0:
207,132,75483,6,0,L|220:213,1,65.625,2|0,1:0|0:0,0:0:0:0:
229,284,75679,2,0,L|240:349,1,65.625,10|0,1:0|0:0,0:0:0:0:
361,383,75875,6,0,L|351:319,1,65.625,2|0,1:0|0:0,0:0:0:0:
340,232,76071,2,0,L|330:168,1,65.625,10|0,1:0|0:0,0:0:0:0:
451,202,76267,5,2,1:0:0:0:
473,354,76463,1,8,1:0:0:0:
229,284,76659,2,0,P|297:233|354:236,1,131.25,2|8,1:0|1:0,0:0:0:0:
472,69,77051,6,0,L|456:4,1,65.625,8|8,1:0|3:0,0:0:0:0:
387,122,77247,1,4,3:0:0:0:
379,89,77346,2,0,B|367:45|367:45|261:68,1,131.25,8|4,1:0|3:0,0:0:0:0:
217,147,77640,2,0,P|172:93|189:21,1,131.25,8|0,1:0|0:0,0:0:0:0:
149,205,78032,6,0,P|92:131|94:23,1,196.875,6|0,1:0|0:0,0:0:0:0:
9,6,78424,2,0,P|1:36|-1:83,1,65.625,10|0,1:0|0:0,0:0:0:0:
25,199,78620,6,0,B|98:162|90:242|160:198,1,131.25,2|8,1:0|1:0,0:0:0:0:
259,282,79012,5,0,1:0:0:0:
151,341,79208,1,10,1:0:0:0:
247,218,79404,6,0,P|248:254|264:291,1,65.625,2|0,1:0|0:0,0:0:0:0:
362,318,79600,1,8,1:0:0:0:
352,286,79698,2,0,P|333:222|326:157,1,131.25,2|0,1:0|0:0,0:0:0:0:
417,179,79993,2,0,P|421:213|437:250,1,65.625,10|0,1:0|0:0,0:0:0:0:
498,108,80189,6,0,L|407:80,1,65.625,6|0,1:2|0:0,0:0:0:0:
320,22,80385,2,0,L|382:2,1,65.625,8|0,1:0|0:0,0:0:0:0:
248,89,80581,6,0,P|228:64|219:33,1,65.625,2|0,1:0|0:0,0:0:0:0:
326,157,80777,2,0,P|284:184|245:183,1,65.625,8|0,1:0|0:0,0:0:0:0:
155,126,80973,6,0,P|124:135|99:156,1,65.625,6|0,1:2|0:0,0:0:0:0:
203,276,81169,2,0,P|194:245|174:220,1,65.625,8|0,1:0|0:0,0:0:0:0:
39,307,81365,6,0,L|126:277,1,65.625,2|0,1:0|1:0,0:0:0:0:
217,384,81561,2,0,L|130:354,1,65.625,0|0,1:0|1:0,0:0:0:0:
203,276,81757,5,14,1:0:0:0:
234,266,81855,2,0,P|277:296|292:335,1,65.625,8|0,1:0|1:0,0:0:0:0:
401,352,82051,5,8,1:0:0:0:
432,362,82149,2,0,P|475:332|490:293,1,65.625,8|0,1:0|1:0,0:0:0:0:
413,213,82346,2,0,P|370:243|355:282,1,65.625,4|0,1:2|0:0,0:0:0:0:
506,218,82542,5,0,1:0:0:0:
512,170,82640,1,0,1:0:0:0:
488,128,82738,1,0,1:0:0:0:
444,109,82836,1,0,1:0:0:0:
397,122,82934,1,8,1:0:0:0:
347,132,83032,1,8,1:0:0:0:
308,100,83130,1,8,1:0:0:0:
308,50,83228,1,8,1:0:0:0:
347,17,83326,5,4,1:0:0:0:
347,17,83718,6,0,L|163:1,1,168,6|2,1:0|0:3,0:0:0:0:
204,108,84306,2,0,L|200:149,1,42,0|0,3:0|3:0,0:0:0:0:
99,80,84502,5,10,1:0:0:0:
96,100,84600,1,8,1:0:0:0:
94,121,84698,1,8,1:0:0:0:
92,142,84797,1,8,1:0:0:0:
90,163,84895,6,0,P|69:193|84:155,1,115.50000352478,6|0,1:0|0:0,0:0:0:0:
201,243,85189,6,0,P|207:279|190:242,1,115.50000352478,4|0,1:0|0:0,0:0:0:0:
327,176,85483,6,0,P|372:207|317:186,1,173.250005287171,4|0,1:0|0:0,0:0:0:0:
263,110,85875,1,8,1:0:0:0:
272,82,85973,1,8,1:0:0:0:
291,61,86071,1,8,1:0:0:0:
318,50,86169,1,8,1:0:0:0:
346,51,86267,1,8,1:0:0:0:
372,63,86365,1,8,1:0:0:0:
388,87,86463,6,0,B|443:119|443:119|448:50,1,125.999996154785,4|0,1:0|0:0,0:0:0:0:
269,102,86757,6,0,B|228:151|228:151|199:88,1,125.999996154785,4|0,1:0|0:0,0:0:0:0:
388,190,87051,6,0,B|455:262|376:357|376:357|254:295|304:199,1,377.999988464356,4|0,1:0|3:0,0:0:0:0:
23,95,88032,5,4,1:2:0:0:
39,185,88228,2,0,L|52:246,2,36.749998878479,8|8|8,2:0|2:0|2:0,0:0:0:0:
107,50,88620,5,0,1:0:0:0:
123,140,88816,2,0,L|136:201,2,36.749998878479,8|8|8,2:0|2:0|2:0,0:0:0:0:
191,5,89208,5,0,1:0:0:0:
213,110,89404,1,8,2:0:0:0:
237,254,89600,5,4,1:2:0:0:
331,172,89796,2,0,P|343:185|348:202,2,36.749998878479,8|8|8,2:0|2:0|2:0,0:0:0:0:
213,110,90188,5,0,1:0:0:0:
328,77,90384,2,0,P|346:78|362:87,2,36.749998878479,8|8|8,2:0|2:0|2:0,0:0:0:0:
213,110,90777,5,0,1:0:0:0:
145,202,90973,1,8,2:0:0:0:
262,318,91169,5,4,1:2:0:0:
159,361,91365,2,0,B|140:345|140:345|118:349,2,44.6250008511543,8|8|8,2:0|2:0|2:0,0:0:0:0:
23,353,91757,5,0,1:0:0:0:
89,247,91953,2,0,B|108:231|108:231|130:235,2,44.6250008511543,8|8|8,2:0|2:0|2:0,0:0:0:0:
233,180,92345,5,0,1:0:0:0:
143,124,92541,1,8,2:0:0:0:
277,17,92737,5,4,1:2:0:0:
365,84,92933,2,0,P|373:110|369:137,2,44.6250008511543,8|8|8,2:0|2:0|2:0,0:0:0:0:
469,59,93326,5,0,1:0:0:0:
483,168,93522,2,0,P|470:192|448:208,2,44.6250008511543,8|8|8,2:0|2:0|2:0,0:0:0:0:
439,306,93914,5,8,3:0:0:0:
412,286,94012,1,8,3:0:0:0:
379,282,94110,1,4,3:0:0:0:
349,297,94208,1,4,3:0:0:0:
331,324,94306,6,0,P|295:362|231:352,1,115.50000352478,4|8,1:2|2:0,0:0:0:0:
181,288,94600,1,8,2:0:0:0:
181,288,94698,1,8,2:0:0:0:
137,167,94894,1,0,1:0:0:0:
279,161,95090,5,8,2:0:0:0:
268,187,95188,1,8,2:0:0:0:
244,202,95286,1,8,2:0:0:0:
137,60,95482,1,0,1:0:0:0:
246,34,95679,1,8,2:0:0:0:
0,83,95875,6,0,L|27:209,1,115.50000352478,4|8,1:2|2:0,0:0:0:0:
43,281,96169,1,8,2:0:0:0:
43,281,96267,1,8,2:0:0:0:
147,363,96463,1,0,1:0:0:0:
234,270,96659,5,8,2:0:0:0:
234,241,96757,1,8,2:0:0:0:
213,220,96855,1,8,2:0:0:0:
142,145,97051,6,0,P|183:123|207:135,1,57.7500017623902,0|0,1:0|1:0,0:0:0:0:
299,169,97247,2,0,P|327:168|348:148,1,57.7500017623902,8|8,2:0|2:0,0:0:0:0:
381,0,97443,6,0,B|376:32|390:64|390:64|432:86|432:86|452:146|434:189,1,173.250005287171,4|0,1:0|0:0,0:0:0:0:
428,272,97835,6,0,B|394:282|369:253|369:253|346:143,1,173.250005287171,4|0,1:2|0:0,0:0:0:0:
295,33,98228,6,0,P|220:6|134:83,1,173.250005287171,4|0,1:0|1:2,0:0:0:0:
65,75,98620,1,8,1:2:0:0:
71,103,98718,1,8,1:2:0:0:
77,131,98816,1,8,1:2:0:0:
19,280,99012,6,0,P|75:238|140:271,1,115.50000352478,4|0,1:0|0:0,0:0:0:0:
173,312,99306,1,0,1:0:0:0:
173,312,99404,1,0,1:0:0:0:
195,153,99600,6,0,P|264:162|286:232,1,115.50000352478,0|0,1:0|0:0,0:0:0:0:
281,284,99894,1,0,1:0:0:0:
281,284,99992,1,0,1:0:0:0:
409,187,100188,5,8,1:2:0:0:
440,215,100286,1,8,3:0:0:0:
451,256,100384,1,4,3:0:0:0:
437,297,100482,1,4,3:0:0:0:
403,322,100581,5,4,1:2:0:0:
403,322,101169,6,0,P|374:300|363:251,1,77.0000023498536,4|4,3:2|3:2,0:0:0:0:
379,109,101430,5,4,3:2:0:0:
256,192,101496,12,0,106855,0:0:0:0:
