osu file format v14

[General]
AudioFilename: audio.mp3
AudioLeadIn: 0
PreviewTime: 59013
Countdown: 0
SampleSet: Soft
StackLeniency: 0.7
Mode: 0
LetterboxInBreaks: 0
WidescreenStoryboard: 1

[Editor]
Bookmarks: 16244,30361,42975,55607,59797,72346,88032
DistanceSpacing: 0.8
BeatDivisor: 3
GridSize: 32
TimelineZoom: 5.35

[Metadata]
Title:One More Sunshine Story
TitleUnicode:One More Sunshine Story
Artist:Takami Chika (CV: Inami Anju)
ArtistUnicode:高海千歌 (CV: 伊波杏樹)
Creator:Kyairie
Version:Radiance
Source:ラブライブ!サンシャイン!!
Tags:Mrgglock Huzz TsumugiP NotABox Love Live! LoveLive! Sunshine!! Aqours japanese pop j-pop jpop anime video game videogame size short ver version School Idol Festival sif First Solo Concert Album 畑 亜貴 Aki Hata EFFY FirstCall
BeatmapID:3402007
BeatmapSetID:1594562

[Difficulty]
HPDrainRate:6
CircleSize:4.3
OverallDifficulty:8
ApproachRate:9.3
SliderMultiplier:1.8
SliderTickRate:1

[Events]
//Background and Video events
0,0,"mikan.jpg",0,0
//Break Periods
//Storyboard Layer 0 (Background)
//Storyboard Layer 1 (Fail)
//Storyboard Layer 2 (Pass)
//Storyboard Layer 3 (Foreground)
//Storyboard Layer 4 (Overlay)
//Storyboard Sound Samples

[TimingPoints]
-4148,392.156862745098,4,2,1,50,1,0
557,-125,4,2,1,50,0,0
1342,-58.8235294117647,4,2,1,60,0,0
2126,-58.8235294117647,4,2,1,70,0,0
2322,-76.9230769230769,4,2,1,70,0,0
5459,-66.6666666666667,4,2,1,70,0,0
8401,-66.6666666666667,4,2,1,80,0,0
9773,-58.8235294117647,4,2,1,80,0,0
11538,-52.6315789473684,4,2,1,90,0,0
13106,-76.9230769230769,4,2,1,80,0,0
15067,-111.111111111111,4,2,1,80,0,0
15655,-111.111111111111,4,2,1,70,0,0
16244,392.156862745098,4,2,1,60,1,0
16244,-90.9090909090909,4,2,1,60,0,0
16832,-52.6315789473684,4,2,1,60,0,0
17224,-90.9090909090909,4,2,1,60,0,0
18401,-52.6315789473684,4,2,1,60,0,0
18793,-90.9090909090909,4,2,1,60,0,0
22518,-200,4,2,1,60,0,0
24087,-90.9090909090909,4,2,1,60,0,0
25655,-76.9230769230769,4,2,1,60,0,0
28793,-71.4285714285714,4,2,1,70,0,0
29381,-66.6666666666667,4,2,1,70,0,0
30361,392.156862745098,4,2,1,70,1,0
30361,-66.6666666666667,4,2,1,70,0,0
30950,-43.4782608695652,4,2,1,70,0,0
31342,-66.6666666666667,4,2,1,70,0,0
32517,-43.4782608695652,4,2,1,70,0,0
32910,-66.6666666666667,4,2,1,70,0,0
36636,-111.111111111111,4,2,1,70,0,0
38204,-66.6666666666667,4,2,1,70,0,0
39772,-76.9230769230769,4,2,1,70,0,0
40557,-90.9090909090909,4,2,1,70,0,0
41342,-111.111111111111,4,2,1,70,0,0
41929,410.958904109589,4,2,1,70,1,8
42545,-100,4,2,1,60,0,8
42547,441.176470588235,4,2,1,60,1,8
42975,451.127819548872,4,2,1,50,1,8
44178,-100,4,2,1,40,0,8
44328,-125,4,2,1,40,0,8
44780,451.127819548872,4,2,1,50,1,0
55607,-100,4,2,1,70,0,0
57837,392.156862745098,4,2,1,70,1,8
58621,-71.4285714285714,4,2,1,70,0,8
59209,-71.4285714285714,4,2,1,80,0,8
59405,-100,4,2,1,80,0,8
59797,392.156862745098,4,2,1,90,1,1
59797,-45.4545454545455,4,2,1,90,0,1
70777,-45.4545454545455,4,2,1,90,0,0
71757,-45.4545454545455,4,2,1,90,0,1
71855,-45.4545454545455,4,2,1,90,0,0
72051,-45.4545454545455,4,2,1,90,0,1
72149,-45.4545454545455,4,2,1,90,0,0
72346,-45.4545454545455,4,2,1,90,0,1
84502,-45.4545454545455,4,2,1,80,0,1
87444,-55.5555555555556,4,2,1,80,0,1
88032,392.156862745098,4,2,1,70,1,0
88228,-76.9230769230769,4,2,1,70,0,0
91365,-66.6666666666667,4,2,1,70,0,0
94306,-66.6666666666667,4,2,1,80,0,0
95679,-58.8235294117647,4,2,1,80,0,0
97444,-52.6315789473684,4,2,1,90,0,0
99012,-76.9230769230769,4,2,1,80,0,0
100581,-76.9230769230769,4,2,1,90,0,0
101496,-76.9230769230769,4,2,1,40,0,0

[Colours]
Combo1 : 212,212,212
Combo2 : 255,157,60

[HitObjects]
440,215,401,5,2,0:3:0:0:
440,215,479,5,2,0:3:0:0:
439,215,557,6,0,B|385:188|331:241|358:255|305:308|251:281,1,216,2|0,0:3|0:0,0:0:0:0:
371,337,1342,6,0,P|341:227|330:149,1,153,0|0,1:0|0:0,0:0:0:0:
388,127,1636,5,8,2:0:0:0:
388,127,1734,1,8,2:0:0:0:
252,281,1930,1,0,1:0:0:0:
434,214,2126,5,4,1:2:0:0:
233,74,2322,2,0,P|205:83|179:97,2,58.5,8|8|8,2:0|2:0|2:0,0:0:0:0:
434,214,2714,5,0,1:0:0:0:
355,47,2910,2,0,P|328:33|301:23,2,58.5,8|8|8,2:0|2:0|2:0,0:0:0:0:
434,214,3302,5,0,1:0:0:0:
233,74,3499,2,0,P|205:83|179:97,1,58.5,8|0,2:0|0:0,0:0:0:0:
355,47,3695,5,4,1:2:0:0:
169,178,3891,2,0,P|122:156|112:117,2,58.5,8|8|8,2:0|2:0|2:0,0:0:0:0:
355,47,4283,5,0,1:0:0:0:
234,240,4479,2,0,P|213:259|185:266,2,58.5,8|8|8,2:0|2:0|2:0,0:0:0:0:
355,47,4871,5,0,1:0:0:0:
169,178,5067,2,0,P|140:172|119:152,1,58.5,8|0,2:0|0:0,0:0:0:0:
224,354,5263,5,4,1:2:0:0:
42,230,5459,2,0,P|30:198|21:163,1,67.5000025749208,8|8,2:0|2:0,0:0:0:0:
102,278,5655,1,8,2:0:0:0:
224,354,5851,5,0,1:0:0:0:
189,113,6048,2,0,P|177:145|168:180,1,67.5,8|8,2:0|2:0,0:0:0:0:
249,65,6244,1,8,2:0:0:0:
224,354,6440,5,0,1:0:0:0:
24,153,6636,2,0,P|32:185|44:217,1,67.5,8|0,2:0|0:0,0:0:0:0:
82,98,6832,5,4,1:2:0:0:
163,294,7028,2,0,P|135:277|95:280,1,67.5,8|8,2:0|2:0,0:0:0:0:
224,354,7224,1,8,2:0:0:0:
82,98,7420,5,0,1:0:0:0:
250,272,7616,1,8,2:0:0:0:
297,286,7714,1,8,2:0:0:0:
342,266,7812,1,8,2:0:0:0:
362,221,7910,1,8,2:0:0:0:
303,167,8008,5,8,3:0:0:0:
284,138,8106,1,8,3:0:0:0:
269,108,8204,1,4,3:0:0:0:
260,76,8302,1,4,3:0:0:0:
288,2,8401,5,4,1:2:0:0:
130,164,8597,1,8,2:0:0:0:
167,174,8695,1,8,2:0:0:0:
203,188,8793,1,8,2:0:0:0:
288,2,8989,5,0,1:0:0:0:
87,93,9185,1,8,2:0:0:0:
124,83,9283,1,8,2:0:0:0:
159,69,9381,1,8,2:0:0:0:
288,2,9577,5,0,1:0:0:0:
158,229,9773,2,0,P|128:178|138:141,1,76.5,8|0,2:0|0:0,0:0:0:0:
260,270,9969,5,4,1:2:0:0:
58,353,10165,1,8,2:0:0:0:
63,316,10263,1,8,2:0:0:0:
90,289,10361,1,8,2:0:0:0:
318,363,10557,6,0,P|331:318|361:242,1,76.5,0|0,1:0|0:0,0:0:0:0:
158,229,10753,2,0,P|170:265|180:301,1,76.5,0|0,1:0|0:0,0:0:0:0:
373,83,10950,5,8,1:2:0:0:
373,83,11048,2,0,P|322:48|295:59,1,76.5,8|0,1:2|0:0,0:0:0:0:
81,145,11244,5,8,1:2:0:0:
81,145,11342,2,0,P|132:110|159:121,1,76.5,8|0,1:2|0:0,0:0:0:0:
299,315,11538,6,0,P|186:341|157:229,1,256.5,4|0,1:0|0:0,0:0:0:0:
304,140,11930,6,0,P|194:193|42:241,1,256.5,4|0,1:2|0:0,0:0:0:0:
356,368,12322,6,0,P|256:330|135:320,1,171,4|0,1:0|0:0,0:0:0:0:
62,372,12616,5,0,1:0:0:0:
62,372,12714,2,0,P|27:346|18:302,1,85.5,8|8,1:2|1:2,0:0:0:0:
201,162,12910,2,0,P|190:202|156:227,1,85.5,8|0,1:2|0:0,0:0:0:0:
50,126,13106,6,0,P|118:103|193:87,1,117,4|0,1:0|0:0,0:0:0:0:
332,61,13401,2,0,P|275:46|220:27,1,117,0|0,1:0|0:0,0:0:0:0:
374,132,13695,1,0,1:0:0:0:
289,273,13891,5,8,1:2:0:0:
289,273,13989,2,0,P|242:201|257:149,1,117,0|0,1:0|0:0,0:0:0:0:
477,119,14283,5,8,1:2:0:0:
477,119,14381,2,0,P|472:176|433:217,1,117,0|0,1:0|0:0,0:0:0:0:
398,50,14675,5,0,1:0:0:0:
398,50,15067,6,0,B|337:19|277:78|307:94|248:153|188:123,1,243,4|2,1:0|0:1,0:0:0:0:
336,188,15851,1,2,1:0:0:0:
336,188,16244,6,0,P|322:130|300:62,1,99,2|2,1:0|0:3,0:0:0:0:
276,243,16636,1,2,1:0:0:0:
486,30,16832,6,0,P|460:136|440:287,1,256.5,14|0,1:2|0:0,0:0:0:0:
495,334,17224,6,0,P|452:358|434:354,1,49.5,2|0,0:3|0:0,0:0:0:0:
367,303,17420,2,0,P|367:253|380:240,1,49.5,2|0,1:0|0:0,0:0:0:0:
459,207,17616,2,0,P|501:232|506:249,1,49.5,2|0,0:3|0:0,0:0:0:0:
309,367,17812,6,0,P|266:324|224:304,1,99,2|2,1:0|0:3,0:0:0:0:
366,255,18204,1,0,1:0:0:0:
92,326,18401,6,0,P|182:330|199:187,1,256.5,14|0,1:2|0:0,0:0:0:0:
132,162,18793,6,0,P|141:139|160:124,1,49.5,2|0,0:3|0:0,0:0:0:0:
137,45,18989,2,0,P|112:48|90:38,1,49.5,2|0,1:0|0:0,0:0:0:0:
34,100,19185,2,0,P|49:119|52:143,1,49.5,2|0,0:3|0:0,0:0:0:0:
0,240,19381,6,0,P|33:226|67:218,1,49.5,2|0,1:0|0:0,0:0:0:0:
143,252,19577,1,2,0:3:0:0:
38,314,19773,6,0,P|71:328|105:336,1,49.5,2|0,1:0|0:0,0:0:0:0:
143,252,19969,1,2,0:3:0:0:
225,356,20165,6,0,P|263:321|310:327,1,99,2|2,1:0|0:3,0:0:0:0:
369,277,20459,2,0,P|404:311|452:308,1,99,2|0,0:1|0:0,0:0:0:0:
366,381,20753,1,2,0:3:0:0:
440,221,20950,6,0,P|455:166|462:124,1,99,2|2,1:0|0:3,0:0:0:0:
512,261,21342,1,0,1:0:0:0:
369,161,21538,2,0,B|320:136|270:185|294:197|244:247|197:223,1,198,2|2,0:3|0:3,0:0:0:0:
355,253,22126,2,0,P|368:301|377:350,1,99,2|2,1:0|0:3,0:0:0:0:
439,113,22518,6,0,P|398:61|335:74,1,135,6|6,3:2|3:2,0:0:0:0:
439,113,23499,5,2,0:1:0:0:
487,23,23695,1,2,0:1:0:0:
336,163,24087,6,0,P|288:159|260:119,1,99,6|0,3:2|0:0,0:0:0:0:
188,72,24381,2,0,P|141:75|113:114,1,99,6|0,3:2|0:0,0:0:0:0:
270,39,24675,1,6,3:2:0:0:
79,8,25067,5,2,0:1:0:0:
112,114,25263,1,2,0:1:0:0:
255,238,25655,6,0,P|172:208|85:196,1,175.5,6|0,1:2|0:0,0:0:0:0:
19,233,26048,2,0,P|51:279|107:274,1,117,2|0,1:0|0:0,0:0:0:0:
203,130,26440,6,0,P|250:59|335:80,1,175.5,2|0,1:0|0:0,0:0:0:0:
393,30,26832,2,0,P|449:56|439:124,1,117,2|0,1:0|0:0,0:0:0:0:
275,220,27224,6,0,P|344:197|399:188,1,117,6|0,1:2|0:0,0:0:0:0:
466,214,27518,1,8,2:0:0:0:
466,214,27616,1,8,2:0:0:0:
309,338,27812,6,0,B|337:364|388:306|365:253|267:214|210:298,1,234,4|8,1:0|2:0,0:0:0:0:
129,135,28401,1,8,2:0:0:0:
106,172,28499,1,8,2:0:0:0:
88,212,28597,1,8,2:0:0:0:
75,254,28695,1,8,2:0:0:0:
68,297,28793,6,0,P|132:352|165:334,1,126,4|0,1:2|0:0,0:0:0:0:
297,154,29087,2,0,P|237:146|205:197,1,126,4|0,1:2|0:0,0:0:0:0:
477,307,29381,6,0,P|385:267|287:241,1,202.5,4|0,1:0|0:0,0:0:0:0:
221,284,29773,2,0,P|240:310|272:319,1,67.5,2|0,1:0|1:0,0:0:0:0:
283,163,29969,2,0,P|250:166|227:189,1,67.5,2|0,1:0|0:0,0:0:0:0:
358,277,30165,2,0,P|371:246|362:215,1,67.5,2|0,1:0|0:0,0:0:0:0:
259,64,30361,6,0,P|325:92|410:113,1,135,2|2,1:0|0:3,0:0:0:0:
206,5,30753,1,0,1:0:0:0:
451,180,30950,6,0,P|296:208|140:253,1,310.5,14|0,3:1|0:0,0:0:0:0:
98,308,31342,6,0,P|123:328|156:327,1,67.5,2|0,0:3|0:0,0:0:0:0:
256,162,31538,2,0,P|225:174|209:203,1,67.5,2|0,1:0|0:0,0:0:0:0:
303,371,31734,2,0,P|307:338|290:310,1,67.5,2|0,0:3|0:0,0:0:0:0:
126,160,31930,6,0,P|118:81|174:53,1,135,2|2,1:0|0:3,0:0:0:0:
287,235,32322,1,0,1:0:0:0:
38,6,32517,6,0,P|187:48|340:75,1,310.5,14|0,3:1|0:0,0:0:0:0:
411,44,32910,6,0,P|394:14|364:1,1,67.5,2|0,0:3|0:0,0:0:0:0:
385,199,33106,2,0,P|418:199|444:179,1,67.5,2|0,1:0|0:0,0:0:0:0:
264,98,33302,2,0,P|246:126|250:159,1,67.5,2|0,0:3|0:0,0:0:0:0:
388,294,33499,6,0,P|325:272|292:266,1,67.5,2|0,1:0|0:0,0:0:0:0:
424,365,33695,1,2,0:3:0:0:
329,144,33891,6,0,P|266:166|233:172,1,67.5,2|0,1:0|0:0,0:0:0:0:
365,73,34087,1,2,0:3:0:0:
211,252,34283,6,0,P|149:189|164:143,1,135,2|2,1:0|0:3,0:0:0:0:
300,279,34577,2,0,P|301:343|246:378,1,135,2|0,0:1|0:0,0:0:0:0:
281,188,34871,1,2,0:3:0:0:
135,310,35067,6,0,P|103:322|2:351,1,135,2|2,1:0|0:3,0:0:0:0:
204,246,35459,1,0,1:0:0:0:
38,123,35655,6,0,B|104:89|171:155|139:171|206:239|270:206,1,270,2|2,0:3|0:3,0:0:0:0:
163,8,36244,2,0,P|117:45|141:112,1,135,2|2,1:0|0:3,0:0:0:0:
368,40,36636,6,0,P|249:63|138:109,1,243,6|6,3:2|3:2,0:0:0:0:
410,179,37616,5,2,0:1:0:0:
445,99,37812,1,2,0:1:0:0:
188,187,38204,6,0,P|265:183|289:226,1,135,6|0,3:2|0:0,0:0:0:0:
352,285,38499,2,0,P|429:288|453:246,1,135,6|0,3:2|0:0,0:0:0:0:
273,313,38793,1,6,3:2:0:0:
136,109,39185,5,2,1:0:0:0:
188,187,39381,1,2,1:0:0:0:
21,368,39772,6,0,P|121:329|254:291,1,234,6|2,1:0|0:2,0:0:0:0:
138,109,40557,6,0,P|238:148|341:178,1,198,6|2,1:0|0:2,0:0:0:0:
162,220,41146,1,0,1:0:0:0:
291,306,41342,6,0,P|321:332|360:328,1,80.9999975280763,6|0,1:0|0:0,0:0:0:0:
349,253,41636,1,8,2:0:0:0:
349,253,41734,1,8,2:0:0:0:
138,216,41929,5,0,1:0:0:0:
208,345,42134,2,0,P|178:371|127:368,1,90,8|0,2:0|1:0,0:0:0:0:
18,195,42545,5,8,3:0:0:0:
54,127,42694,5,4,3:0:0:0:
129,141,42841,5,4,3:0:0:0:
71,250,42976,5,2,3:0:0:0:
71,250,44178,5,8,3:0:0:0:
71,250,44328,2,0,P|127:247|152:293,1,96,4|0,3:0|0:0,0:0:0:0:
56,365,44780,6,0,P|149:324|260:296,1,180,6|0,2:0|0:0,0:0:0:0:
391,325,45532,1,0,0:0:0:0:
391,325,45682,2,0,P|309:290|346:191,1,180,2|2,2:0|2:0,0:0:0:0:
441,150,46434,6,0,B|381:179|322:120|350:106|290:45|234:75,1,240,2|0,2:0|0:0,0:0:0:0:
95,16,47336,1,2,2:0:0:0:
95,16,47487,2,0,P|114:72|130:130,1,120,2|0,2:0|0:0,0:0:0:0:
203,154,47938,2,0,P|210:124|220:96,2,60,10|8|8,2:0|2:0|2:0,0:0:0:0:
226,230,48389,6,0,P|157:167|69:197,1,180,2|0,2:0|0:0,0:0:0:0:
194,334,49141,1,0,0:0:0:0:
194,334,49291,2,0,P|274:298|365:274,1,180,2|2,2:0|2:0,0:0:0:0:
480,140,50043,6,0,P|495:96|406:107,1,180,6|0,1:0|0:0,0:0:0:0:
338,132,50645,2,0,P|265:101|214:89,1,120
162,132,51096,2,0,P|147:99|150:71,2,60,10|8|8,3:2|3:0|3:0,0:0:0:0:
80,41,51547,2,0,P|103:13|130:4,2,60,2|4|4,1:0|3:0|3:0,0:0:0:0:
45,141,51998,5,6,1:0:0:0:
107,224,52336,5,2,2:0:0:0:
219,253,52675,5,2,2:0:0:0:
289,215,52900,2,0,P|353:197|413:290,1,180,2|0,2:0|1:0,0:0:0:0:
278,338,53652,6,0,P|240:194|223:144,1,180,14|0,2:0|0:0,0:0:0:0:
162,123,54254,2,0,P|194:79|256:87,1,120,2|0,2:0|0:0,0:0:0:0:
337,218,54705,6,0,P|359:131|369:101,1,120,2|0,2:0|0:0,0:0:0:0:
440,62,55156,2,0,P|407:18|346:26,1,120,2|0,1:0|0:0,0:0:0:0:
421,195,55607,5,8,1:0:0:0:
421,195,57837,5,8,2:0:0:0:
474,140,57935,1,8,2:0:0:0:
438,72,58033,1,8,1:0:0:0:
363,86,58131,1,8,1:0:0:0:
352,162,58229,1,12,1:0:0:0:
352,162,58621,6,0,B|290:192|228:131|259:115|197:53|135:84,1,252,12|0,1:0|0:0,0:0:0:0:
245,1,59209,5,2,1:3:0:0:
245,1,59307,1,2,0:3:0:0:
245,1,59405,2,0,P|224:78|209:166,1,135,2|0,1:3|0:0,0:0:0:0:
225,217,59797,6,0,P|177:218|147:180,1,98.9999999999999,6|0,1:0|0:0,0:0:0:0:
90,300,59993,2,0,B|-9:258|15:139|57:114|125:126|157:185|102:225,1,297,8|0,1:0|0:0,0:0:0:0:
0,360,60385,6,0,P|103:322|293:289,1,297,10|0,1:0|0:0,0:0:0:0:
318,375,60777,6,0,P|372:349|371:303,1,98.9999999999999,10|0,1:0|0:0,0:0:0:0:
465,234,60973,2,0,P|430:201|384:213,1,98.9999999999999,2|0,1:0|0:0,0:0:0:0:
270,177,61169,2,0,P|259:223|292:257,1,98.9999999999999,10|0,1:0|0:0,0:0:0:0:
509,338,61365,6,0,P|476:213|461:128,1,198,6|0,3:2|0:0,0:0:0:0:
337,33,61659,2,0,P|317:130|291:225,1,198,6|0,3:2|0:0,0:0:0:0:
106,311,61953,6,0,B|139:259|213:222|329:209|384:318|311:375|229:379|224:281,1,396,6|10,1:2|1:0,0:0:0:0:
439,125,62542,1,0,1:0:0:0:
149,76,62738,5,10,1:0:0:0:
143,94,62836,1,2,0:0:0:0:
137,112,62934,2,0,P|144:135|216:152,1,98.9999999999999,2|0,1:0|0:0,0:0:0:0:
353,48,63130,2,0,P|305:50|280:91,1,98.9999999999999,10|0,1:0|0:0,0:0:0:0:
331,276,63326,6,0,P|317:228|299:182,1,98.9999999999999,2|0,1:0|0:0,0:0:0:0:
137,112,63522,2,0,P|123:159|105:207,1,98.9999999999999,10|0,1:0|0:0,0:0:0:0:
1,300,63718,6,0,P|95:297|141:379,1,198,2|8,1:0|1:0,0:0:0:0:
291,240,64012,1,0,0:0:0:0:
291,240,64110,2,0,B|212:216|152:301|192:313|132:398|54:374,1,297,2|0,1:0|0:0,0:0:0:0:
271,332,64502,6,0,P|240:206|209:121,1,198,6|0,1:2|0:0,0:0:0:0:
130,78,64797,2,0,P|99:204|68:289,1,198,6|0,1:2|0:0,0:0:0:0:
200,0,65091,6,0,B|308:-55|421:36|377:138|285:125|283:91,1,297,6|0,1:2|0:0,0:0:0:0:
477,77,65483,5,8,1:0:0:0:
467,106,65581,1,8,1:0:0:0:
472,136,65679,2,0,P|467:205|428:227,1,98.9999999999999,8|0,1:0|0:0,0:0:0:0:
391,109,65875,2,0,P|360:146|366:193,1,98.9999999999999,10|0,1:0|0:0,0:0:0:0:
469,296,66071,6,0,P|373:223|280:250,2,198.000006042481,2|8|0,1:0|1:0|1:0,0:0:0:0:
341,384,66659,2,0,P|299:360|287:311,1,98.9999999999999,10|0,1:0|0:0,0:0:0:0:
202,349,66855,6,0,P|280:252|295:173,1,198,2|8,1:0|1:0,0:0:0:0:
82,107,67149,2,0,P|130:192|134:290,1,198,2|0,1:0|0:0,0:0:0:0:
253,116,67444,1,10,1:0:0:0:
30,346,67640,6,0,P|63:310|111:312,1,99.0000030212403,6|0,1:2|0:0,0:0:0:0:
234,248,67836,2,0,P|201:212|153:214,1,99.0000030212403,8|0,1:0|0:0,0:0:0:0:
62,130,68032,6,0,P|35:75|20:20,1,99.0000030212403,2|0,1:0|0:0,0:0:0:0:
216,3,68228,2,0,P|188:57|171:111,1,99.0000030212403,8|0,1:0|0:0,0:0:0:0:
456,106,68424,6,0,P|435:24|399:17,1,98.9999999999999,6|0,1:2|0:0,0:0:0:0:
303,56,68620,2,0,P|322:137|358:144,1,99.0000030212403,8|0,1:0|0:0,0:0:0:0:
501,278,68816,5,10,1:0:0:0:
501,278,68914,1,8,1:0:0:0:
501,278,69012,2,0,P|410:246|377:238,1,98.9999999999999,8|8,1:0|1:0,0:0:0:0:
191,238,69208,6,0,B|239:262|288:213|264:201|313:152|361:176,1,198,6|0,1:2|0:0,0:0:0:0:
311,378,69502,2,0,P|274:255|254:162,1,198.000006042481,4|0,3:2|0:0,0:0:0:0:
172,29,69797,6,0,B|194:157|83:241|-58:195|-15:34|82:70,1,396.000012084961,4|0,1:0|3:0,0:0:0:0:
195,253,70385,5,8,1:0:0:0:
149,230,70483,1,8,1:0:0:0:
102,214,70581,1,0,1:0:0:0:
54,206,70679,1,0,1:0:0:0:
5,202,70777,5,4,3:2:0:0:
5,202,71169,6,0,B|-33:265|58:354|156:269|135:191|116:142|-3:163|40:24|124:0,1,396.000012084961,4|2,3:2|1:0,0:0:0:0:
245,116,71757,5,8,1:0:0:0:
199,103,71855,1,8,1:0:0:0:
412,5,72051,5,8,1:0:0:0:
384,16,72149,1,8,1:0:0:0:
448,230,72346,6,0,P|478:227|510:172,1,98.9999999999999,6|0,1:0|0:0,0:0:0:0:
362,125,72542,2,0,B|461:167|437:286|394:310|327:299|294:239|349:199,1,297,8|0,1:0|0:0,0:0:0:0:
480,360,72934,6,0,B|407:396|334:323|370:305|297:232|224:268,1,297,10|0,1:0|0:0,0:0:0:0:
182,384,73326,6,0,P|229:385|260:349,1,98.9999999999999,10|0,1:0|0:0,0:0:0:0:
172,204,73522,2,0,P|157:156|147:104,1,98.9999999999999,2|0,1:0|0:0,0:0:0:0:
63,249,73718,2,0,P|53:297|38:344,1,98.9999999999999,10|0,1:0|0:0,0:0:0:0:
1,179,73914,6,0,P|113:169|156:247,1,198,6|0,1:2|0:0,0:0:0:0:
242,0,74208,2,0,P|180:71|88:52,1,198,6|0,1:2|0:0,0:0:0:0:
252,348,74502,6,0,B|353:289|386:113|293:67|177:130|207:265|348:226,1,396.000012084961,6|10,1:2|1:0,0:0:0:0:
64,61,75091,1,0,1:0:0:0:
360,13,75287,5,10,1:0:0:0:
389,21,75385,1,2,1:0:0:0:
415,31,75483,2,0,P|411:77|369:114,1,98.9999999999999,2|0,1:0|0:0,0:0:0:0:
256,199,75679,2,0,P|250:150|215:117,1,98.9999999999999,10|0,1:0|0:0,0:0:0:0:
157,28,75875,6,0,P|111:47|64:61,1,98.9999999999999,2|0,1:0|0:0,0:0:0:0:
0,166,76071,2,0,P|48:179|94:198,1,98.9999999999999,10|0,1:0|0:0,0:0:0:0:
194,251,76267,6,0,P|231:160|304:93,1,198,2|8,1:0|1:0,0:0:0:0:
278,311,76561,1,0,0:0:0:0:
278,311,76659,2,0,B|326:245|267:160|242:193|183:108|232:42,1,297,2|0,1:0|0:0,0:0:0:0:
450,141,77051,5,8,1:0:0:0:
485,206,77149,2,0,P|448:238|400:237,1,98.9999999999999,8|4,3:0|3:0,0:0:0:0:
388,73,77346,5,8,1:0:0:0:
417,40,77444,2,0,P|380:8|332:9,1,98.9999999999999,8|4,3:0|3:0,0:0:0:0:
143,171,77640,5,8,1:0:0:0:
143,171,78032,6,0,B|185:135|174:85|143:36|62:36|-8:76|-2:246|112:294,1,396,6|10,1:0|1:0,0:0:0:0:
191,351,78522,5,0,0:0:0:0:
191,351,78620,2,0,P|100:322|-7:301,2,198,2|8|0,1:0|1:0|1:0,0:0:0:0:
143,171,79208,2,0,P|95:183|49:202,1,98.9999999999999,10|0,1:0|0:0,0:0:0:0:
250,255,79404,6,0,P|167:143|194:68,1,198,2|8,1:0|1:0,0:0:0:0:
400,48,79698,2,0,P|326:110|324:206,1,198,2|0,1:0|0:0,0:0:0:0:
242,13,79993,1,10,1:0:0:0:
444,117,80189,6,0,P|442:165|405:196,1,98.9999999999999,6|0,1:2|0:0,0:0:0:0:
208,324,80385,2,0,P|171:292|169:244,1,98.9999999999999,8|0,1:0|0:0,0:0:0:0:
208,84,80581,6,0,P|228:128|242:176,1,98.9999999999999,2|0,1:0|0:0,0:0:0:0:
392,373,80777,2,0,P|405:325|426:280,1,98.9999999999999,8|0,1:0|0:0,0:0:0:0:
168,244,80973,6,0,P|131:212|82:206,1,98.9999999999999,6|0,1:2|0:0,0:0:0:0:
361,47,81169,2,0,P|398:15|447:9,1,98.9999999999999,8|0,1:0|0:0,0:0:0:0:
306,356,81365,5,2,1:0:0:0:
306,356,81463,1,0,1:0:0:0:
306,356,81561,2,0,P|285:311|272:263,1,98.9999999999999,0|0,1:0|1:0,0:0:0:0:
295,88,81757,5,14,1:0:0:0:
361,47,81855,2,0,P|326:13|278:11,1,98.9999999999999,8|0,1:0|1:0,0:0:0:0:
114,190,82051,5,8,1:0:0:0:
180,231,82149,2,0,P|145:264|97:266,1,98.9999999999999,8|0,1:0|1:0,0:0:0:0:
77,84,82346,6,0,B|150:47|224:120|187:139|261:211|333:176,1,297,4|0,1:2|1:0,0:0:0:0:
199,22,82738,2,0,P|176:66|162:113,1,98.9999999999999,0|0,1:0|1:0,0:0:0:0:
419,210,82934,1,8,1:0:0:0:
451,145,83032,1,8,1:0:0:0:
425,78,83130,1,8,1:0:0:0:
357,54,83228,1,8,1:0:0:0:
295,88,83326,6,0,P|341:247|357:336,1,198,4|0,1:0|1:0,0:0:0:0:
219,9,83718,5,6,1:0:0:0:
256,192,83816,12,0,84404,3:0:0:0:
110,310,84502,5,10,1:0:0:0:
89,284,84600,1,8,1:0:0:0:
58,274,84698,1,8,1:0:0:0:
26,282,84797,1,8,1:0:0:0:
49,356,84895,6,0,P|79:244|98:135,1,198,6|0,1:0|0:0,0:0:0:0:
193,39,85189,2,0,P|211:136|238:231,1,198,4|0,1:0|0:0,0:0:0:0:
394,371,85483,6,0,B|427:381|473:363|481:294|448:245|325:242|296:344,1,297.000009063721,4|0,1:0|0:0,0:0:0:0:
422,254,85875,2,0,P|457:215|438:154,1,98.9999999999999,8|8,1:0|1:0,0:0:0:0:
257,163,86071,5,8,1:0:0:0:
257,163,86169,1,8,1:0:0:0:
257,163,86267,2,0,P|307:175|370:189,1,98.9999999999999,8|8,1:0|1:0,0:0:0:0:
512,108,86463,6,0,P|467:31|368:49,1,198,4|0,1:0|0:0,0:0:0:0:
211,247,86757,2,0,P|302:264|352:184,1,198,4|0,1:0|0:0,0:0:0:0:
113,90,87051,5,4,1:0:0:0:
54,304,87247,1,2,0:3:0:0:
54,304,87346,1,2,0:3:0:0:
54,304,87444,2,0,P|72:264|86:219,1,80.9999999999999,2|0,1:3|0:0,0:0:0:0:
2,174,87640,6,0,B|61:144|121:203|91:218|151:279|211:248,1,243,0|0,3:0|0:0,0:0:0:0:
143,342,88032,5,4,1:2:0:0:
289,216,88228,2,0,P|316:225|342:238,2,58.5,8|8|8,2:0|2:0|2:0,0:0:0:0:
143,342,88620,5,0,1:0:0:0:
232,143,88816,2,0,P|269:126|307:115,2,58.5,8|8|8,2:0|2:0|2:0,0:0:0:0:
143,342,89208,5,0,1:0:0:0:
289,216,89404,2,0,P|316:225|342:238,1,58.5,8|0,2:0|0:0,0:0:0:0:
232,143,89600,5,4,1:2:0:0:
380,316,89796,2,0,P|406:299|419:261,2,58.4999973220826,8|8|8,2:0|2:0|2:0,0:0:0:0:
232,143,90189,5,0,1:0:0:0:
504,267,90384,2,0,P|499:236|470:208,2,58.5,8|8|8,2:0|2:0|2:0,0:0:0:0:
232,143,90777,5,0,1:0:0:0:
380,316,90973,2,0,P|406:299|419:261,1,58.5,8|0,2:0|0:0,0:0:0:0:
439,50,91169,5,4,1:2:0:0:
319,263,91365,2,0,P|303:210|295:171,1,67.5,8|8,2:0|2:0,0:0:0:0:
380,316,91561,1,8,2:0:0:0:
439,50,91757,5,0,1:0:0:0:
204,157,91953,2,0,P|188:210|180:249,1,67.5,8|8,2:0|2:0,0:0:0:0:
267,104,92149,1,8,2:0:0:0:
439,50,92346,5,0,1:0:0:0:
290,214,92541,2,0,P|298:246|308:278,1,67.5,8|0,2:0|0:0,0:0:0:0:
181,66,92738,5,4,1:2:0:0:
367,184,92934,2,0,P|388:158|392:125,1,67.5,8|8,2:0|2:0,0:0:0:0:
290,214,93130,1,8,2:0:0:0:
181,66,93326,5,0,1:0:0:0:
71,179,93522,1,8,2:0:0:0:
115,156,93620,1,8,2:0:0:0:
163,168,93718,1,8,2:0:0:0:
191,209,93816,1,8,2:0:0:0:
178,281,93914,5,8,3:0:0:0:
145,289,94012,1,8,3:0:0:0:
113,300,94110,1,4,3:0:0:0:
81,312,94208,1,4,3:0:0:0:
28,368,94306,5,4,1:2:0:0:
240,224,94502,1,8,2:0:0:0:
214,195,94600,1,8,2:0:0:0:
177,189,94698,1,8,2:0:0:0:
28,368,94895,5,0,1:0:0:0:
161,110,95091,1,8,2:0:0:0:
124,121,95189,1,8,2:0:0:0:
103,152,95287,1,8,2:0:0:0:
28,368,95483,5,0,1:0:0:0:
240,224,95679,2,0,P|275:210|312:201,1,76.5,8|0,2:0|0:0,0:0:0:0:
199,294,95875,5,4,1:2:0:0:
388,128,96071,1,8,2:0:0:0:
425,137,96169,1,8,2:0:0:0:
460,150,96267,1,8,2:0:0:0:
354,360,96463,6,0,P|338:285|319:232,1,76.5,0|0,1:0|0:0,0:0:0:0:
464,233,96659,2,0,P|454:270|448:307,1,76.5,0|0,1:0|0:0,0:0:0:0:
248,153,96855,5,8,2:0:0:0:
248,153,96953,2,0,P|281:122|323:128,1,76.5,8|0,2:0|0:0,0:0:0:0:
488,57,97149,5,8,2:0:0:0:
488,57,97247,2,0,P|455:26|413:32,1,76.5,8|0,2:0|0:0,0:0:0:0:
157,180,97444,6,0,P|124:69|242:56,1,256.5,4|0,1:0|0:0,0:0:0:0:
299,276,97836,6,0,P|183:220|38:195,1,256.5,4|0,1:2|0:0,0:0:0:0:
125,352,98228,6,0,P|197:343|212:253,1,171,4|0,1:0|0:0,0:0:0:0:
88,118,98522,5,0,1:2:0:0:
88,118,98620,2,0,P|67:78|52:33,1,85.5,8|0,1:2|0:0,0:0:0:0:
249,180,98816,2,0,P|234:220|214:258,1,85.5,8|0,1:2|0:0,0:0:0:0:
26,324,99012,6,0,P|81:313|124:351,1,117,4|0,1:0|0:0,0:0:0:0:
83,231,99306,1,0,1:0:0:0:
83,231,99404,1,0,1:0:0:0:
204,384,99600,6,0,P|224:328|252:275,1,117,0|0,1:0|0:0,0:0:0:0:
333,200,99895,1,0,1:0:0:0:
333,200,99993,1,0,1:0:0:0:
162,90,100189,5,8,1:2:0:0:
162,90,100287,1,8,3:0:0:0:
162,90,100385,2,0,P|172:118|186:144,1,58.5,4|4,3:0|3:0,0:0:0:0:
402,240,100581,5,4,1:2:0:0:
402,240,101169,5,4,3:2:0:0:
256,192,101300,5,4,3:2:0:0:
100,160,101430,5,4,3:2:0:0:
256,192,101496,12,0,106855,0:0:0:0:
