osu file format v14

[General]
AudioFilename: audio.mp3
AudioLeadIn: 0
PreviewTime: 59013
Countdown: 0
SampleSet: Soft
StackLeniency: 0.7
Mode: 0
LetterboxInBreaks: 0
WidescreenStoryboard: 1

[Editor]
Bookmarks: 55607,88032,97443
DistanceSpacing: 1
BeatDivisor: 4
GridSize: 32
TimelineZoom: 3.450002

[Metadata]
Title:One More Sunshine Story
TitleUnicode:One More Sunshine Story
Artist:Takami Chika (CV: Inami Anju)
ArtistUnicode:高海千歌 (CV: 伊波杏樹)
Creator:Kyairie
Version:Kyailock's Normal
Source:ラブライブ!サンシャイン!!
Tags:Mrgglock Huzz TsumugiP NotABox Love Live! LoveLive! Sunshine!! Aqours japanese pop j-pop jpop anime video game videogame size short ver version School Idol Festival sif First Solo Concert Album 畑 亜貴 Aki Hata EFFY FirstCall
BeatmapID:3592413
BeatmapSetID:1594562

[Difficulty]
HPDrainRate:3
CircleSize:3.5
OverallDifficulty:4.5
ApproachRate:5.5
SliderMultiplier:0.999999999999999
SliderTickRate:1

[Events]
//Background and Video events
0,0,"mikan.jpg",0,0
//Break Periods
2,55807,56712
//Storyboard Layer 0 (Background)
//Storyboard Layer 1 (Fail)
//Storyboard Layer 2 (Pass)
//Storyboard Layer 3 (Foreground)
//Storyboard Layer 4 (Overlay)
//Storyboard Sound Samples

[TimingPoints]
-4148,392.156862745098,4,2,1,50,1,0
1342,-111.111111111111,4,2,1,60,0,0
2127,-111.111111111111,4,2,1,70,0,0
8401,-100,4,2,1,80,0,0
11538,-100,4,2,1,90,0,0
13107,-100,4,2,1,80,0,0
15655,-100,4,2,1,70,0,0
16244,392.156862745098,4,2,1,60,1,0
16244,-111.111111111111,4,2,1,60,0,0
28793,-111.111111111111,4,2,1,70,0,0
30361,392.156862745098,4,2,1,70,1,0
41929,410.958904109589,4,2,1,70,1,8
42547,441.176470588235,4,2,1,60,1,8
42975,451.127819548872,4,2,1,50,1,8
44178,-100,4,2,1,40,0,8
44329,-100,4,2,1,40,0,8
44780,451.127819548872,4,2,1,50,1,0
44780,-111.111111111111,4,2,1,50,0,0
55607,-111.111111111111,4,2,1,70,0,0
57837,392.156862745098,4,2,1,70,1,8
59209,-100,4,2,1,80,0,8
59405,-100,4,2,1,80,0,8
59797,392.156862745098,4,2,1,90,1,1
59797,-90.9090909090909,4,2,1,90,0,1
70777,-100,4,2,1,90,0,0
72346,-90.9090909090909,4,2,1,90,0,1
83326,-100,4,2,1,90,0,1
84502,-100,4,2,1,80,0,1
88032,392.156862745098,4,2,1,70,1,0
88032,-111.111111111111,4,2,1,70,0,0
94306,-100,4,2,1,80,0,0
97444,-100,4,2,1,90,0,0
99012,-100,4,2,1,80,0,0
100580,-100,4,2,1,90,0,0
101496,-100,4,2,1,40,0,0

[Colours]
Combo1 : 212,212,212
Combo2 : 255,157,60

[HitObjects]
391,258,1342,6,0,B|391:259|331:253,1,44.999998626709,0|0,1:0|0:0,0:0:0:0:
301,249,1734,1,8,2:0:0:0:
225,299,2127,6,0,P|186:310|124:288,1,89.999997253418,4|8,1:2|2:0,0:0:0:0:
73,236,2911,1,8,2:0:0:0:
73,236,3107,2,0,L|85:129,1,89.999997253418,8|8,2:0|2:0,0:0:0:0:
123,126,3695,2,0,L|111:19,1,89.999997253418,4|8,1:2|2:0,0:0:0:0:
199,10,4479,1,8,2:0:0:0:
199,10,4675,2,0,P|257:21|286:10,1,89.999997253418,8|8,2:0|2:0,0:0:0:0:
324,31,5264,6,0,B|304:73|304:73|323:130,1,89.999997253418,4|8,1:2|2:0,0:0:0:0:
360,193,6048,1,8,2:0:0:0:
360,193,6244,2,0,L|350:284,1,89.999997253418,8|8,2:0|2:0,0:0:0:0:
341,326,6833,2,0,P|386:338|439:322,1,89.999997253418,4|8,1:2|2:0,0:0:0:0:
496,269,7617,1,8,2:0:0:0:
496,269,7813,2,0,L|486:163,1,89.999997253418,8|4,2:0|3:0,0:0:0:0:
458,138,8401,6,0,L|464:83,1,50,4|8,1:2|2:0,0:0:0:0:
471,39,8793,1,8,2:0:0:0:
382,5,9185,1,8,2:0:0:0:
382,5,9381,2,0,P|329:13|294:45,1,99.9999999999999,8|8,2:0|2:0,0:0:0:0:
268,85,9970,2,0,L|207:78,1,50,4|8,1:2|2:0,0:0:0:0:
169,69,10362,1,8,2:0:0:0:
93,134,10754,1,8,2:0:0:0:
93,134,10950,2,0,B|111:174|111:174|92:233,1,99.9999999999999,8|8,2:0|2:0,0:0:0:0:
72,272,11538,6,0,P|127:259|173:283,1,99.9999999999999,4|4,1:0|1:2,0:0:0:0:
263,296,12323,2,0,L|257:229,1,50,4|0,1:0|0:0,0:0:0:0:
255,196,12715,1,8,1:2:0:0:
337,139,13107,1,4,1:0:0:0:
256,192,13303,12,4,15068,1:0:0:0:
423,126,16244,6,0,L|428:215,1,89.999997253418,2|2,1:0|1:0,0:0:0:0:
432,260,16832,1,14,1:2:0:0:
366,321,17224,1,2,0:3:0:0:
366,321,17421,2,0,L|315:315,1,44.999998626709,2|2,1:0|0:3,0:0:0:0:
291,282,17813,2,0,B|242:259|247:295|186:278,1,89.999997253418,2|0,1:0|1:0,0:0:0:0:
163,261,18401,1,14,1:2:0:0:
85,307,18793,2,0,L|88:351,2,44.999998626709,2|2|2,0:3|1:0|0:3,0:0:0:0:
53,275,19381,6,0,B|66:245|66:245|53:174,1,89.999997253418,2|2,1:0|1:0,0:0:0:0:
69,99,20165,2,0,L|-16:89,2,67.4999979400635,2|2|2,1:0|0:1|0:3,0:0:0:0:
109,78,20950,1,2,1:0:0:0:
109,78,21146,1,2,0:3:0:0:
173,15,21538,2,0,P|223:31|267:11,1,89.999997253418,2|2,0:3|0:3,0:0:0:0:
298,1,22127,1,2,1:0:0:0:
340,79,22518,6,0,L|333:175,1,89.999997253418,6|0,3:2|0:0,0:0:0:0:
330,213,23107,1,6,3:2:0:0:
167,290,23891,1,0,0:0:0:0:
167,290,24087,2,0,L|86:280,2,67.4999979400635,6|6|6,3:2|3:2|3:2,0:0:0:0:
232,351,25067,1,2,0:1:0:0:
232,351,25263,2,0,P|256:354|282:348,1,44.999998626709,2|0,0:1|0:0,0:0:0:0:
315,328,25656,6,0,B|329:304|329:304|310:226,1,89.999997253418,6|2,1:2|1:0,0:0:0:0:
387,190,26440,2,0,B|373:166|373:166|391:88,1,89.999997253418,2|2,1:0|1:0,0:0:0:0:
412,19,27225,2,0,L|313:24,1,89.999997253418,6|8,1:2|2:0,0:0:0:0:
281,4,27813,2,0,L|191:-1,1,89.999997253418,4|8,1:0|2:0,0:0:0:0:
150,17,28401,1,8,2:0:0:0:
93,86,28793,6,0,B|65:96|65:96|25:87,2,67.4999979400635,4|4|4,1:2|1:2|1:0,0:0:0:0:
142,161,29774,1,2,1:0:0:0:
142,161,29970,2,0,L|146:205,1,44.999998626709,2|2,1:0|1:0,0:0:0:0:
118,247,30362,6,0,P|73:234|11:257,1,99.9999999999999,2|0,1:0|1:0,0:0:0:0:
4,294,30950,1,14,3:1:0:0:
61,375,31342,1,2,0:3:0:0:
61,375,31538,2,0,L|120:369,1,50,2|2,1:0|0:3,0:0:0:0:
150,339,31930,2,0,L|253:351,1,99.9999999999999,2|0,1:0|1:0,0:0:0:0:
289,380,32517,1,14,3:1:0:0:
384,349,32910,1,2,0:3:0:0:
384,349,33106,2,0,L|379:284,1,50,2|2,1:0|0:3,0:0:0:0:
376,249,33498,5,2,1:0:0:0:
435,168,33890,1,2,1:0:0:0:
391,78,34282,2,0,L|478:72,2,74.9999999999999,2|2|2,1:0|0:1|0:3,0:0:0:0:
352,55,35066,1,2,1:0:0:0:
352,55,35262,2,0,P|316:67|240:47,1,99.9999999999999,2|2,0:3|0:3,0:0:0:0:
212,31,35851,1,0,1:0:0:0:
156,113,36243,1,2,1:0:0:0:
210,196,36635,6,0,L|201:298,1,99.9999999999999,6|0,3:2|0:0,0:0:0:0:
196,345,37223,1,6,3:2:0:0:
27,236,38008,1,0,0:0:0:0:
27,236,38204,2,0,B|36:268|36:268|25:310,2,74.9999999999999,6|6|6,3:2|3:2|3:2,0:0:0:0:
72,147,39184,1,2,1:0:0:0:
72,147,39380,2,0,L|66:76,1,50,2|0,1:0|0:0,0:0:0:0:
64,47,39772,6,0,P|114:48|156:16,1,99.9999999999999,6|2,1:0|0:2,0:0:0:0:
251,36,40557,2,0,L|255:86,1,50,6|0,1:0|0:0,0:0:0:0:
258,135,40949,1,2,0:2:0:0:
207,221,41341,2,0,L|196:323,1,99.9999999999999,6|8,1:0|2:0,0:0:0:0:
222,360,41929,2,0,P|275:375|320:357,1,99.9999999999999,0|0,1:0|1:0,0:0:0:0:
346,324,42547,5,8,3:0:0:0:
302,239,42975,1,2,3:0:0:0:
387,186,43427,1,0,0:0:0:0:
362,88,43878,1,0,0:0:0:0:
261,81,44329,1,4,3:0:0:0:
223,175,44780,6,0,L|126:189,1,89.999997253418,6|0,2:0|0:0,0:0:0:0:
124,277,45682,2,0,P|77:302|32:298,1,89.999997253418,2|2,2:0|2:0,0:0:0:0:
0,258,46434,1,2,2:0:0:0:
175,212,47336,1,2,2:0:0:0:
175,212,47487,2,0,P|168:149|141:119,1,89.999997253418,2|10,2:0|2:0,0:0:0:0:
122,44,48389,6,0,L|225:54,1,89.999997253418,2|0,2:0|0:0,0:0:0:0:
301,46,49291,2,0,P|317:84|302:136,1,89.999997253418,2|2,2:0|2:0,0:0:0:0:
281,184,50043,2,0,B|330:181|330:181|349:197|349:197|400:195,1,119.999996337891,6|0,1:0|0:0,0:0:0:0:
484,188,51096,2,0,P|504:154|496:94,1,89.999997253418,10|2,3:2|1:0,0:0:0:0:
436,41,51998,6,0,L|350:46,2,67.4999979400635,6|2|2,1:0|2:0|2:0,0:0:0:0:
456,0,52900,1,2,2:0:0:0:
510,139,53652,2,0,L|501:270,1,119.999996337891,14|2,2:0|2:0,0:0:0:0:
429,312,54705,2,0,P|392:326|340:310,1,89.999997253418,2|2,2:0|1:0,0:0:0:0:
301,234,55607,5,8,1:0:0:0:
301,234,57837,6,0,L|310:168,1,50,8|8,2:0|1:0,0:0:0:0:
337,144,58229,1,12,1:0:0:0:
261,78,58621,2,0,B|193:94|193:94|154:73,1,99.9999999999999,12|0,1:0|0:0,0:0:0:0:
75,38,59405,1,2,1:3:0:0:
10,127,59797,6,0,P|47:161|44:232,1,110.000003356934,6|0,1:0|1:0,0:0:0:0:
29,268,60385,1,10,1:0:0:0:
118,341,60777,1,10,1:0:0:0:
118,341,60973,2,0,L|199:334,1,55.0000016784668,2|10,1:0|1:0,0:0:0:0:
216,303,61365,5,6,3:2:0:0:
291,336,61659,1,6,3:2:0:0:
366,303,61953,2,0,L|352:182,1,110.000003356934,6|10,1:2|1:0,0:0:0:0:
346,138,62542,1,0,1:0:0:0:
297,39,62934,6,0,L|351:45,1,55.0000016784668,2|10,1:0|1:0,0:0:0:0:
394,10,63326,2,0,L|467:1,1,55.0000016784668,2|10,1:0|1:0,0:0:0:0:
481,47,63718,2,0,P|504:92|481:159,1,110.000003356934,2|2,1:0|1:0,0:0:0:0:
444,247,64502,5,6,1:2:0:0:
370,208,64797,1,6,1:2:0:0:
306,260,65091,2,0,P|267:264|249:257,1,55.0000016784668,6|0,1:2|1:0,0:0:0:0:
227,209,65483,2,0,L|217:94,1,110.000003356934,8|10,1:0|1:0,0:0:0:0:
178,60,66071,5,2,1:0:0:0:
71,86,66463,2,0,L|58:152,1,55.0000016784668,0|10,1:0|1:0,0:0:0:0:
26,183,66855,1,2,1:0:0:0:
52,260,67149,1,2,1:0:0:0:
27,341,67444,1,10,1:0:0:0:
27,341,67640,6,0,L|85:348,1,55.0000016784668,6|8,1:2|1:0,0:0:0:0:
130,373,68032,2,0,L|184:366,1,55.0000016784668,2|8,1:0|1:0,0:0:0:0:
226,330,68424,2,0,P|231:303|250:278,1,55.0000016784668,6|8,1:2|1:0,0:0:0:0:
295,255,68816,1,10,1:0:0:0:
386,194,69208,6,0,B|450:207|450:207|464:222,2,82.5000025177002,6|4|4,1:2|3:2|1:0,0:0:0:0:
382,138,69993,2,0,P|358:125|316:126,1,55.0000016784668,0|0,3:0|3:0,0:0:0:0:
275,122,70385,1,8,1:0:0:0:
204,192,70777,2,0,P|180:205|138:204,1,50,4|0,3:2|0:0,0:0:0:0:
124,170,71169,2,0,L|139:63,1,99.9999999999999,4|2,3:2|1:0,0:0:0:0:
215,7,71953,2,0,L|274:16,1,50,2|8,1:0|1:0,0:0:0:0:
309,46,72346,6,0,P|337:84|402:81,1,110.000003356934,6|0,1:0|1:0,0:0:0:0:
429,41,72934,1,10,1:0:0:0:
492,128,73326,1,10,1:0:0:0:
492,128,73522,2,0,L|501:185,1,55.0000016784668,2|10,1:0|1:0,0:0:0:0:
476,231,73914,5,6,1:2:0:0:
398,204,74208,1,6,1:2:0:0:
335,257,74502,2,0,P|325:326|294:361,1,110.000003356934,6|10,1:2|1:0,0:0:0:0:
253,383,75091,1,0,1:0:0:0:
209,281,75483,6,0,P|181:284|157:296,1,55.0000016784668,2|10,1:0|1:0,0:0:0:0:
109,324,75875,2,0,P|67:308|34:314,1,55.0000016784668,2|10,1:0|1:0,0:0:0:0:
3,315,76267,2,0,L|17:188,1,110.000003356934,2|2,1:0|1:0,0:0:0:0:
74,113,77051,5,8,1:0:0:0:
148,149,77346,1,8,1:0:0:0:
218,105,77640,2,0,L|277:115,1,55.0000016784668,8|0,1:0|0:0,0:0:0:0:
325,127,78032,2,0,P|376:167|375:223,1,110.000003356934,6|10,1:0|1:0,0:0:0:0:
372,262,78620,5,2,1:0:0:0:
321,359,79012,2,0,L|262:346,1,55.0000016784668,0|10,1:0|1:0,0:0:0:0:
220,317,79404,1,2,1:0:0:0:
143,347,79698,1,2,1:0:0:0:
73,302,79993,1,10,1:0:0:0:
73,302,80189,2,0,P|64:260|46:233,1,55.0000016784668,6|8,1:2|1:0,0:0:0:0:
89,203,80581,2,0,P|98:161|116:134,1,55.0000016784668,2|8,1:0|1:0,0:0:0:0:
147,118,80973,2,0,L|139:53,1,55.0000016784668,6|8,1:2|1:0,0:0:0:0:
132,9,81365,1,2,1:0:0:0:
238,55,81757,6,0,B|303:44|303:44|318:25,2,82.5000025177002,14|8|4,1:0|1:0|1:2,0:0:0:0:
248,109,82542,2,0,P|274:129|283:156,1,55.0000016784668,0|0,1:0|1:0,0:0:0:0:
282,203,82934,1,8,1:0:0:0:
228,289,83326,2,0,L|178:297,1,50,4|0,1:0|1:0,0:0:0:0:
138,267,83718,2,0,L|158:164,1,99.9999999999999,6|2,1:0|0:3,0:0:0:0:
130,72,84502,2,0,P|100:59|65:61,1,50,10|8,1:0|1:0,0:0:0:0:
34,70,84895,6,0,B|26:13|26:13|6:-3,2,74.9999999999999,6|4|4,1:0|1:0|1:0,0:0:0:0:
73,161,85875,2,0,P|45:182|43:259,1,99.9999999999999,8|8,1:0|1:0,0:0:0:0:
58,287,86463,1,4,1:0:0:0:
136,262,86757,1,4,1:0:0:0:
209,300,87051,2,0,L|311:315,1,99.9999999999999,4|2,1:0|1:3,0:0:0:0:
357,322,87640,1,0,3:0:0:0:
439,287,88032,6,0,P|428:249|374:209,1,89.999997253418,4|8,1:2|2:0,0:0:0:0:
322,167,88816,1,8,2:0:0:0:
322,167,89012,2,0,L|220:175,1,89.999997253418,8|8,2:0|2:0,0:0:0:0:
200,142,89600,2,0,P|210:92|251:62,1,89.999997253418,4|8,1:2|2:0,0:0:0:0:
327,41,90385,1,8,2:0:0:0:
327,41,90581,2,0,P|371:56|423:31,1,89.999997253418,8|8,2:0|2:0,0:0:0:0:
450,63,91169,6,0,L|460:154,1,89.999997253418,4|8,1:2|2:0,0:0:0:0:
472,245,91953,1,8,2:0:0:0:
472,245,92149,2,0,P|428:260|376:235,1,89.999997253418,8|8,2:0|2:0,0:0:0:0:
355,215,92738,2,0,L|248:223,1,89.999997253418,4|8,1:2|2:0,0:0:0:0:
201,285,93522,1,8,2:0:0:0:
201,285,93718,2,0,P|158:271|117:286,1,89.999997253418,8|4,2:0|3:0,0:0:0:0:
73,310,94306,6,0,L|68:251,1,50,4|8,1:2|2:0,0:0:0:0:
66,210,94698,1,8,2:0:0:0:
5,130,95091,1,8,2:0:0:0:
5,130,95286,2,0,P|6:71|46:27,1,99.9999999999999,8|8,2:0|2:0,0:0:0:0:
69,9,95875,2,0,L|122:15,1,50,4|8,1:2|2:0,0:0:0:0:
168,20,96267,1,8,2:0:0:0:
246,82,96659,1,8,2:0:0:0:
246,82,96855,2,0,P|274:133|261:191,1,99.9999999999999,8|8,2:0|2:0,0:0:0:0:
245,216,97444,6,0,L|262:320,1,99.9999999999999,4|4,1:0|1:2,0:0:0:0:
356,283,98228,2,0,L|365:218,1,50,4|0,1:0|0:0,0:0:0:0:
369,183,98620,1,8,1:2:0:0:
309,102,99012,6,0,B|206:122|206:122|163:183|163:183|36:207|36:207|92:188|101:140,1,400,4|4,1:0|1:2,0:0:0:0:
38,9,101169,2,0,L|5:3,2,33.3333333333333,4|4|4,3:2|3:2|3:2,0:0:0:0:
256,192,101561,12,0,106855,0:0:0:0:
