osu file format v14

[General]
AudioFilename: audio.mp3
AudioLeadIn: 0
PreviewTime: 59013
Countdown: 0
SampleSet: Soft
StackLeniency: 0.7
Mode: 0
LetterboxInBreaks: 0
WidescreenStoryboard: 1

[Editor]
Bookmarks: 16244,30361,42975,55907,59797,72346
DistanceSpacing: 1.1
BeatDivisor: 6
GridSize: 16
TimelineZoom: 3.350002

[Metadata]
Title:One More Sunshine Story
TitleUnicode:One More Sunshine Story
Artist:Takami Chika (CV: Inami Anju)
ArtistUnicode:高海千歌 (CV: 伊波杏樹)
Creator:Kyairie
Version:Huzz's Hard
Source:ラブライブ!サンシャイン!!
Tags:Mrgglock Huzz TsumugiP NotABox Love Live! LoveLive! Sunshine!! Aqours japanese pop j-pop jpop anime video game videogame size short ver version School Idol Festival sif First Solo Concert Album 畑 亜貴 Aki Hata EFFY FirstCall
BeatmapID:3592973
BeatmapSetID:1594562

[Difficulty]
HPDrainRate:4
CircleSize:4
OverallDifficulty:6
ApproachRate:8
SliderMultiplier:1.2
SliderTickRate:1

[Events]
//Background and Video events
0,0,"mikan.jpg",0,0
//Break Periods
2,55807,57087
//Storyboard Layer 0 (Background)
//Storyboard Layer 1 (Fail)
//Storyboard Layer 2 (Pass)
//Storyboard Layer 3 (Foreground)
//Storyboard Layer 4 (Overlay)
//Storyboard Sound Samples

[TimingPoints]
-4148,392.156862745098,4,2,1,50,1,0
557,-125,4,2,1,50,0,0
1342,-100,4,2,1,60,0,0
2126,-100,4,2,1,70,0,0
5459,-90.9090909090909,4,2,1,70,0,0
8401,-76.9230769230769,4,2,1,80,0,0
11538,-71.4285714285714,4,2,1,90,0,0
13106,-76.9230769230769,4,2,1,80,0,0
15068,-100,4,2,1,80,0,0
15655,-100,4,2,1,70,0,0
16244,392.156862745098,4,2,1,60,1,0
16244,-111.111111111111,4,2,1,60,0,0
16832,-83.3333333333333,4,2,1,60,0,0
17812,-111.111111111111,4,2,1,60,0,0
18400,-83.3333333333333,4,2,1,60,0,0
19381,-100,4,2,1,60,0,0
22518,-90.9090909090909,4,2,1,60,0,0
23694,-100,4,2,1,60,0,0
24087,-90.9090909090909,4,2,1,60,0,0
25655,-83.3333333333333,4,2,1,60,0,0
28793,-76.9230769230769,4,2,1,70,0,0
29773,-100,4,2,1,70,0,0
30361,392.156862745098,4,2,1,70,1,0
30361,-90.9090909090909,4,2,1,70,0,0
30949,-76.9230769230769,4,2,1,70,0,0
31929,-90.9090909090909,4,2,1,70,0,0
32517,-76.9230769230769,4,2,1,70,0,0
33498,-90.9090909090909,4,2,1,70,0,0
36243,-100,4,2,1,70,0,0
36635,-83.3333333333333,4,2,1,70,0,0
37811,-100,4,2,1,70,0,0
38204,-83.3333333333333,4,2,1,70,0,0
39380,-100,4,2,1,70,0,0
39772,-111.111111111111,4,2,1,70,0,0
41341,-83.3333333333333,4,2,1,70,0,0
41929,410.958904109589,4,2,1,70,1,8
41929,-90.9090909090909,4,2,1,70,0,8
42547,441.176470588235,4,2,1,60,1,8
42975,451.127819548872,4,2,1,50,1,8
44178,-100,4,2,1,40,0,8
44780,451.127819548872,4,2,1,50,1,0
44780,-111.111111111111,4,2,1,50,0,0
50043,-83.3333333333333,4,2,1,50,0,0
51095,-111.111111111111,4,2,1,50,0,0
51998,-83.3333333333333,4,2,1,50,0,0
52900,-100,4,2,1,50,0,0
53652,-83.3333333333333,4,2,1,50,0,0
54253,-100,4,2,1,50,0,0
54704,-111.111111111111,4,2,1,50,0,0
55155,-76.9230769230769,4,2,1,50,0,0
55607,-76.9230769230769,4,2,1,70,0,0
57837,392.156862745098,4,2,1,70,1,8
57837,-90.9090909090909,4,2,1,70,0,8
58229,-76.9230769230769,4,2,1,70,0,8
59013,-100,4,2,1,70,0,8
59209,-100,4,2,1,80,0,8
59405,-111.111111111111,4,2,1,80,0,8
59797,392.156862745098,4,2,1,90,1,1
59797,-71.4285714285714,4,2,1,90,0,1
68032,-66.6666666666667,4,2,1,90,0,1
69208,-71.4285714285714,4,2,1,90,0,1
71169,-71.4285714285714,4,2,1,90,0,0
71953,-76.9230769230769,4,2,1,90,0,0
72346,-66.6666666666667,4,2,1,90,0,1
72934,-71.4285714285714,4,2,1,90,0,1
80189,-66.6666666666667,4,2,1,90,0,1
82542,-71.4285714285714,4,2,1,90,0,1
83718,-71.4285714285714,4,2,1,90,0,0
84502,-71.4285714285714,4,2,1,80,0,0
88032,392.156862745098,4,2,1,70,1,0
91365,-90.9090909090909,4,2,1,70,0,0
94306,-76.9230769230769,4,2,1,80,0,0
97443,-71.4285714285714,4,2,1,90,0,0
99012,-76.9230769230769,4,2,1,80,0,0
100581,-76.9230769230769,4,2,1,90,0,0
101496,-76.9230769230769,4,2,1,40,0,0

[Colours]
Combo1 : 212,212,212
Combo2 : 255,157,60

[HitObjects]
98,89,557,6,0,P|159:48|237:83,1,144,2|0,0:3|0:0,0:0:0:0:
290,124,1342,2,0,P|348:136|406:152,1,120,0|8,1:0|2:0,0:0:0:0:
486,111,1931,1,0,1:0:0:0:
417,52,2127,5,4,1:2:0:0:
417,52,2323,2,0,L|372:74,2,30,8|8|8,2:0|2:0|2:0,0:0:0:0:
486,111,2715,1,0,1:0:0:0:
486,111,2911,2,0,L|531:133,2,30,8|8|8,2:0|2:0|2:0,0:0:0:0:
416,166,3303,1,0,1:0:0:0:
416,166,3499,2,0,P|377:185|345:203,1,60,8|4,2:0|1:2,0:0:0:0:
252,239,3891,6,0,L|204:222,2,30,8|8|8,2:0|2:0|2:0,0:0:0:0:
331,290,4283,1,0,1:0:0:0:
331,290,4479,2,0,L|379:273,2,30,8|8|8,2:0|2:0|2:0,0:0:0:0:
257,341,4872,1,0,1:0:0:0:
257,341,5068,2,0,P|225:329|199:321,1,60,8|4,2:0|1:2,0:0:0:0:
86,309,5459,6,0,P|79:327|68:346,2,33,8|8|8,2:0|2:0|2:0,0:0:0:0:
53,195,5852,1,0,1:0:0:0:
53,195,6048,2,0,P|41:179|29:160,2,33,8|8|8,2:0|2:0|2:0,0:0:0:0:
165,227,6440,1,0,1:0:0:0:
165,227,6636,2,0,P|199:223|230:220,1,66,8|4,2:0|1:2,0:0:0:0:
306,128,7028,6,0,P|295:110|277:87,2,33,8|8|8,2:0|2:0|2:0,0:0:0:0:
411,185,7421,1,0,1:0:0:0:
411,185,7617,2,0,P|431:184|461:180,2,33,8|8|8,2:0|2:0|2:0,0:0:0:0:
316,244,8008,1,8,3:0:0:0:
316,244,8205,1,4,3:0:0:0:
371,337,8401,5,4,1:2:0:0:
279,384,8597,1,8,2:0:0:0:
279,384,8695,1,8,2:0:0:0:
279,384,8793,2,0,P|239:371|186:357,1,78,8|0,2:0|1:0,0:0:0:0:
169,268,9185,1,8,2:0:0:0:
169,268,9283,1,8,2:0:0:0:
169,268,9381,2,0,P|200:239|238:200,1,78,8|0,2:0|1:0,0:0:0:0:
247,123,9774,1,8,2:0:0:0:
173,64,9970,5,4,1:2:0:0:
110,134,10166,1,8,2:0:0:0:
110,134,10264,1,8,2:0:0:0:
110,134,10362,2,0,P|73:147|35:140,1,78,8|0,2:0|1:0,0:0:0:0:
4,26,10754,1,8,2:0:0:0:
4,26,10851,1,8,2:0:0:0:
4,26,10950,2,0,P|40:12|78:19,1,78,8|0,2:0|1:0,0:0:0:0:
173,64,11342,1,8,2:0:0:0:
110,134,11538,6,0,P|92:211|83:268,1,126,4|0,1:0|0:0,0:0:0:0:
109,295,11930,2,0,P|168:322|232:279,1,126,4|0,1:2|0:0,0:0:0:0:
241,256,12323,2,0,P|296:241|359:298,1,126,4|0,1:0|1:0,0:0:0:0:
356,322,12715,2,0,P|423:334|470:281,1,126,8|0,1:2|0:0,0:0:0:0:
493,268,13106,6,0,P|484:325|479:384,2,117,4|0|0,1:0|1:0|1:0,0:0:0:0:
446,189,13891,1,8,1:2:0:0:
446,189,13989,1,0,1:0:0:0:
446,189,14087,1,0,1:0:0:0:
503,119,14283,2,0,P|484:80|466:43,1,78,8|0,1:2|1:0,0:0:0:0:
381,7,14675,5,0,1:0:0:0:
247,160,15068,2,0,P|199:183|127:151,1,120,4|0,1:0|0:0,0:0:0:0:
60,110,15656,2,0,P|27:121|-1:132,2,60,2|2|2,0:1|1:0|0:1,0:0:0:0:
129,22,16244,6,0,P|181:34|234:47,1,108,2|2,1:0|1:0,0:0:0:0:
329,121,16832,2,0,P|281:123|254:222,1,144,14|2,1:2|0:3,0:0:0:0:
321,265,17421,1,2,1:0:0:0:
321,265,17617,1,2,0:3:0:0:
414,242,17812,6,0,P|423:189|437:129,1,108,2|0,1:0|1:0,0:0:0:0:
411,25,18401,2,0,P|364:63|270:33,1,144,14|2,1:2|0:3,0:0:0:0:
201,0,18989,1,2,1:0:0:0:
201,0,19185,1,2,0:3:0:0:
120,54,19381,6,0,P|127:84|134:112,1,60,2|2,1:0|0:3,0:0:0:0:
49,151,19773,2,0,P|39:187|35:213,1,60,2|2,1:0|0:3,0:0:0:0:
106,264,20166,2,0,P|150:241|205:255,2,90,2|2|2,1:0|0:1|0:3,0:0:0:0:
43,322,20950,1,2,1:0:0:0:
112,369,21146,2,0,L|193:391,1,60,2|0,0:3|1:0,0:0:0:0:
230,325,21538,2,0,L|355:278,1,120,2|2,0:3|0:3,0:0:0:0:
383,213,22126,1,2,1:0:0:0:
507,307,22519,6,0,P|490:240|470:170,1,132,6|0,3:2|0:0,0:0:0:0:
503,106,23107,1,6,3:2:0:0:
383,213,23499,5,2,0:1:0:0:
363,135,23695,2,0,P|355:105|348:76,1,60,2|0,0:1|0:0,0:0:0:0:
285,23,24087,2,0,P|229:16|193:54,2,99,6|6|6,3:2|3:2|3:2,0:0:0:0:
193,179,25068,5,2,0:1:0:0:
113,152,25264,2,0,P|78:141|39:131,1,66,2|0,0:1|0:0,0:0:0:0:
0,267,25656,6,0,P|52:254|105:243,1,108,6|0,1:2|0:0,0:0:0:0:
144,268,26048,2,0,P|91:279|38:291,1,108,2|0,1:0|0:0,0:0:0:0:
39,338,26440,2,0,P|76:372|147:356,1,108,2|0,1:0|0:0,0:0:0:0:
172,348,26832,2,0,P|228:332|271:360,1,108,2|0,1:0|0:0,0:0:0:0:
309,383,27225,6,0,P|312:342|321:281,1,72,6|0,1:2|0:0,0:0:0:0:
331,282,27519,1,8,2:0:0:0:
331,282,27617,1,8,2:0:0:0:
259,212,27812,2,0,P|188:226|118:243,1,144,4|8,1:0|2:0,0:0:0:0:
20,188,28401,1,8,2:0:0:0:
60,110,28597,1,8,2:0:0:0:
60,110,28695,1,8,2:0:0:0:
59,110,28793,6,0,P|113:91|164:116,2,117,4|4|4,1:2|1:2|1:0,0:0:0:0:
242,226,29774,2,0,L|297:203,2,60,2|2|2,1:0|1:0|1:0,0:0:0:0:
198,325,30362,6,0,P|144:360|81:347,1,132,2|0,1:0|1:0,0:0:0:0:
157,227,30950,2,0,P|236:254|315:284,1,156,14|2,3:1|0:3,0:0:0:0:
389,343,31538,1,2,1:0:0:0:
469,324,31734,1,2,0:3:0:0:
509,246,31930,6,0,P|517:184|466:129,1,132,2|0,1:0|1:0,0:0:0:0:
353,60,32517,2,0,P|372:135|390:211,1,156,14|2,3:1|0:3,0:0:0:0:
314,279,33107,1,2,1:0:0:0:
236,254,33303,1,2,0:3:0:0:
160,307,33499,6,0,P|128:315|96:324,1,66,2|2,1:0|0:3,0:0:0:0:
19,247,33891,2,0,P|50:238|82:229,1,66,2|2,1:0|0:3,0:0:0:0:
160,160,34283,2,0,P|179:107|153:54,2,99,2|2|2,1:0|0:1|0:3,0:0:0:0:
81,200,35066,1,2,1:0:0:0:
19,135,35262,2,0,P|9:101|-3:63,1,66,2|0,0:3|1:0,0:0:0:0:
91,12,35656,2,0,P|163:32|235:54,1,132,2|2,0:3|0:3,0:0:0:0:
340,4,36244,2,0,P|364:44|346:96,1,90,2|0,1:0|0:0,0:0:0:0:
331,109,36636,6,0,B|376:84|376:84|468:113,1,144,6|0,3:2|0:0,0:0:0:0:
512,180,37223,1,6,3:2:0:0:
244,252,37615,5,2,0:1:0:0:
320,209,37811,2,0,L|391:171,1,60,2|0,0:1|0:0,0:0:0:0:
408,293,38205,2,0,P|460:305|512:320,2,108,6|6|6,3:2|3:2|3:2,0:0:0:0:
244,252,39185,5,2,1:0:0:0:
168,295,39380,2,0,L|97:333,1,60,2|0,1:0|0:0,0:0:0:0:
8,276,39772,6,0,P|-1:218|98:180,1,162,6|0,1:0|0:0,0:0:0:0:
178,162,40558,2,0,L|206:47,1,108,6|2,1:0|0:2,0:0:0:0:
124,0,41146,1,0,1:0:0:0:
35,68,41342,6,0,P|50:106|61:138,1,72,6|0,1:0|0:0,0:0:0:0:
78,172,41636,1,8,2:0:0:0:
78,172,41734,1,8,2:0:0:0:
138,246,41930,2,0,P|125:276|114:307,2,66,0|8|0,1:0|2:0|1:0,0:0:0:0:
230,178,42547,6,0,L|302:201,2,40,8|4|4,3:0|3:0|3:0,0:0:0:0:
178,162,42975,1,2,3:0:0:0:
285,35,43426,6,0,B|321:19|321:19|407:54,1,120
505,122,44178,1,8,3:0:0:0:
505,122,44328,2,0,P|453:142|414:159,1,80,4|0,3:0|0:0,0:0:0:0:
392,178,44780,6,0,P|377:229|417:285,2,108,6|0|2,2:0|0:0|2:0,0:0:0:0:
512,286,46133,1,2,2:0:0:0:
455,384,46434,2,0,P|392:368|303:347,1,143.999995605469,2|0,2:0|0:0,0:0:0:0:
216,384,47336,1,2,2:0:0:0:
216,384,47487,2,0,P|223:348|231:313,1,72.0000000000001,2|0,2:0|0:0,0:0:0:0:
218,273,47938,2,0,P|198:256|167:235,2,36,10|8|8,2:0|2:0|2:0,0:0:0:0:
249,239,48389,6,0,P|307:221|359:203,2,108,2|0|2,2:0|0:0|2:0,0:0:0:0:
101,202,49742,1,2,2:0:0:0:
192,103,50043,6,0,P|190:34|67:8,1,191.999994140625,6|0,1:0|0:0,0:0:0:0:
2,80,51096,2,0,P|-3:112|16:152,1,72.0000000000001,10|8,3:2|3:0,0:0:0:0:
49,175,51547,2,0,P|54:207|35:247,1,72.0000000000001,2|4,1:0|3:0,0:0:0:0:
5,283,51998,6,0,B|51:272|51:272|68:276|68:276|114:265,2,108,6|2|2,1:0|2:0|2:0,0:0:0:0:
85,365,52900,2,0,P|136:374|184:384,1,80,2|0,2:0|0:0,0:0:0:0:
215,373,53351,1,0,1:0:0:0:
110,266,53652,6,0,P|110:191|173:150,1,144,14|0,2:0|0:0,0:0:0:0:
206,179,54254,2,0,P|254:191|294:204,1,80,2|0,2:0|0:0,0:0:0:0:
326,229,54705,2,0,P|364:217|401:206,1,72.0000000000001,2|0,2:0|0:0,0:0:0:0:
446,210,55156,6,0,P|470:157|383:74,1,156,2|8,1:0|1:0,0:0:0:0:
192,180,57837,6,0,L|181:215,3,33,8|8|8|8,2:0|2:0|1:0|1:0,0:0:0:0:
191,265,58229,2,0,P|228:291|313:261,1,117,12|0,1:0|0:0,0:0:0:0:
329,246,58621,1,12,1:0:0:0:
212,74,59013,6,0,P|177:84|140:96,1,60,0|2,0:0|1:3,0:0:0:0:
291,152,59405,2,0,P|333:162|382:176,1,81.0000000000001,2|0,1:3|0:0,0:0:0:0:
404,163,59797,6,0,P|450:106|405:15,1,168,6|0,1:0|1:0,0:0:0:0:
290,0,60385,2,0,P|308:48|325:105,1,84,10|0,1:0|1:0,0:0:0:0:
263,181,60777,1,10,1:0:0:0:
166,165,60973,1,2,1:0:0:0:
92,230,61169,1,10,1:0:0:0:
9,168,61365,6,0,P|16:128|27:77,1,84,6|0,3:2|0:0,0:0:0:0:
40,41,61659,2,0,P|81:18|131:29,1,84,6|0,3:2|0:0,0:0:0:0:
154,48,61953,2,0,B|199:76|199:76|333:41,1,168,6|10,1:2|1:0,0:0:0:0:
401,0,62542,1,0,1:0:0:0:
478,73,62738,1,10,1:0:0:0:
478,73,62836,1,2,0:0:0:0:
478,73,62934,6,0,P|468:123|461:169,1,84,2|10,1:0|1:0,0:0:0:0:
351,226,63326,2,0,P|361:176|368:130,1,84,2|10,1:0|1:0,0:0:0:0:
310,46,63718,2,0,P|270:33|231:46,1,84,2|8,1:0|1:0,0:0:0:0:
148,176,64110,2,0,P|211:197|272:151,1,126,2|0,1:0|0:0,0:0:0:0:
271,133,64502,6,0,P|258:193|247:263,2,126,6|6|6,1:2|1:2|1:2,0:0:0:0:
204,53,65287,1,0,1:0:0:0:
128,109,65483,1,8,1:0:0:0:
128,109,65581,1,8,1:0:0:0:
128,109,65679,1,8,1:0:0:0:
50,51,65875,1,10,1:0:0:0:
0,133,66071,6,0,P|19:186|32:232,1,84,2|8,1:0|1:0,0:0:0:0:
120,301,66463,2,0,P|101:354|88:400,1,84,0|10,1:0|1:0,0:0:0:0:
0,234,66855,2,0,P|64:214|135:196,2,126,2|2|10,1:0|1:0|1:0,0:0:0:0:
134,329,67640,6,0,P|177:336|241:351,1,84,6|8,1:2|1:0,0:0:0:0:
371,251,68032,2,0,P|376:190|353:163,1,90,2|8,1:0|1:0,0:0:0:0:
272,234,68424,2,0,P|288:282|306:339,1,90,6|8,1:2|1:0,0:0:0:0:
406,384,68816,1,10,1:0:0:0:
427,377,68914,1,8,1:0:0:0:
449,371,69012,1,8,1:0:0:0:
470,364,69110,1,8,1:0:0:0:
492,358,69208,6,0,P|501:293|516:217,2,126,6|4|4,1:2|3:2|1:0,0:0:0:0:
397,281,69993,2,0,L|352:235,2,42,0|0|0,3:0|3:0|3:0,0:0:0:0:
315,334,70385,2,0,L|270:355,3,42,8|8|0|0,1:0|1:0|1:0|1:0,0:0:0:0:
238,367,70777,6,0,P|207:332|214:283,1,84,4|0,3:2|0:0,0:0:0:0:
265,184,71169,1,4,3:2:0:0:
125,42,71561,5,2,1:0:0:0:
215,7,71757,1,8,1:0:0:0:
215,7,71855,1,8,1:0:0:0:
215,7,71953,2,0,P|207:56|200:108,1,78,2|8,1:0|1:0,0:0:0:0:
265,184,72346,6,0,P|350:158|438:133,1,180,6|0,1:0|1:0,0:0:0:0:
512,215,72934,2,0,P|471:227|431:239,1,84,10|0,1:0|1:0,0:0:0:0:
361,315,73326,1,10,1:0:0:0:
273,286,73522,1,2,1:0:0:0:
205,349,73718,1,10,1:0:0:0:
117,302,73914,6,0,P|89:261|97:216,1,84,6|0,1:2|0:0,0:0:0:0:
119,192,74208,2,0,L|212:170,1,84,6|0,1:2|0:0,0:0:0:0:
236,143,74502,2,0,P|254:82|172:8,1,168,6|10,1:2|1:0,0:0:0:0:
113,72,75091,1,0,1:0:0:0:
11,40,75287,1,10,1:0:0:0:
11,40,75385,1,2,1:0:0:0:
11,40,75483,6,0,P|25:90|33:132,1,84,2|10,1:0|1:0,0:0:0:0:
119,192,75875,2,0,P|127:150|139:110,1,84,2|10,1:0|1:0,0:0:0:0:
12,252,76267,2,0,P|45:276|86:275,1,84,2|8,1:0|1:0,0:0:0:0:
214,197,76659,2,0,P|276:187|332:249,1,126,2|0,1:0|0:0,0:0:0:0:
325,260,77051,6,0,P|313:305|304:358,1,83.9999974365235,8|4,1:0|3:0,0:0:0:0:
349,372,77346,2,0,P|360:326|370:274,1,83.9999974365235,8|4,1:0|3:0,0:0:0:0:
415,275,77640,1,8,1:0:0:0:
185,384,78032,6,0,P|161:301|133:213,1,168,6|10,1:0|1:0,0:0:0:0:
217,103,78620,2,0,B|283:117|283:117|313:140|313:140|380:155,1,168,2|0,1:0|1:0,0:0:0:0:
449,96,79208,1,10,1:0:0:0:
512,167,79404,2,0,P|522:238|481:280,2,126,2|2|10,1:0|1:0|1:0,0:0:0:0:
373,153,80189,6,0,P|389:205|400:260,1,90,6|8,1:2|1:0,0:0:0:0:
260,99,80581,2,0,P|297:59|339:22,1,90,2|8,1:0|1:0,0:0:0:0:
267,221,80973,2,0,P|213:208|160:190,1,90,6|8,1:2|1:0,0:0:0:0:
91,277,81365,1,2,1:0:0:0:
81,297,81463,1,0,1:0:0:0:
80,319,81561,1,0,1:0:0:0:
87,341,81659,1,0,1:0:0:0:
100,358,81757,6,0,P|162:341|255:318,2,135,14|8|4,1:0|1:0|1:2,0:0:0:0:
49,271,82542,2,0,P|27:262|4:254,2,42,0|0|0,1:0|1:0|1:0,0:0:0:0:
131,191,82934,2,0,P|128:171|121:148,3,42,8|8|8|8,1:0|1:0|1:0|1:0,0:0:0:0:
109,102,83326,2,0,P|144:74|184:77,1,84,4|0,1:0|1:0,0:0:0:0:
284,122,83718,1,6,1:0:0:0:
448,0,84110,6,0,P|458:45|466:84,1,84,2|0,0:3|3:0,0:0:0:0:
389,154,84502,2,0,P|378:108|371:70,1,84,10|8,1:0|1:0,0:0:0:0:
359,32,84797,1,8,1:0:0:0:
359,32,84895,6,0,P|299:17|245:48,2,126,6|4|4,1:0|1:0|1:0,0:0:0:0:
484,113,85679,2,0,P|473:160|464:222,1,84,2|8,0:0|1:0,0:0:0:0:
386,265,86071,2,0,L|330:283,3,42,8|8|8|8,1:0|1:0|1:0|1:0,0:0:0:0:
302,253,86463,6,0,P|252:239|189:224,1,84,4|0,1:0|0:0,0:0:0:0:
175,226,86757,2,0,P|145:267|158:318,1,84,4|0,1:0|0:0,0:0:0:0:
167,340,87051,2,0,P|82:361|1:386,1,168,4|2,1:0|1:3,0:0:0:0:
18,289,87640,2,0,P|62:277|106:264,1,84,0|0,3:0|0:0,0:0:0:0:
38,193,88032,5,4,1:2:0:0:
38,193,88228,2,0,P|30:179|22:167,2,30,8|8|8,2:0|2:0|2:0,0:0:0:0:
121,136,88620,1,0,1:0:0:0:
120,136,88816,2,0,P|127:122|135:110,2,30,8|8|8,2:0|2:0|2:0,0:0:0:0:
44,82,89208,1,0,1:0:0:0:
44,82,89404,2,0,P|27:54|10:29,1,60,8|4,2:0|1:2,0:0:0:0:
142,28,89797,6,0,L|151:0,2,30,8|8|8,2:0|2:0|2:0,0:0:0:0:
226,81,90189,1,0,1:0:0:0:
226,81,90385,2,0,L|262:92,2,30,8|8|8,2:0|2:0|2:0,0:0:0:0:
148,127,90777,1,0,1:0:0:0:
148,127,90973,2,0,P|114:137|91:146,1,60,8|4,2:0|1:2,0:0:0:0:
227,215,91365,6,0,P|249:222|273:232,2,33,8|8|8,2:0|2:0|2:0,0:0:0:0:
115,271,91757,1,0,1:0:0:0:
115,271,91953,2,0,P|110:248|106:222,2,33,8|8|8,2:0|2:0|2:0,0:0:0:0:
218,341,92346,1,0,1:0:0:0:
218,341,92542,2,0,P|200:356|164:389,1,66,8|4,2:0|1:2,0:0:0:0:
327,332,92934,6,0,P|322:316|316:300,2,33,8|8|8,2:0|2:0|2:0,0:0:0:0:
428,252,93326,1,0,1:0:0:0:
428,252,93522,2,0,P|411:248|395:245,2,33,8|8|8,2:0|2:0|2:0,0:0:0:0:
370,147,93914,1,8,3:0:0:0:
370,147,94110,1,4,3:0:0:0:
293,209,94306,5,4,1:2:0:0:
204,166,94502,1,8,2:0:0:0:
204,166,94600,1,8,2:0:0:0:
204,166,94698,2,0,P|187:127|200:77,1,78,8|0,2:0|1:0,0:0:0:0:
275,0,95091,1,8,2:0:0:0:
275,0,95189,1,8,2:0:0:0:
275,0,95287,2,0,P|289:52|299:92,1,78,8|0,2:0|1:0,0:0:0:0:
370,147,95679,1,8,2:0:0:0:
454,103,95875,5,4,1:2:0:0:
512,185,96071,1,8,2:0:0:0:
512,185,96169,1,8,2:0:0:0:
512,185,96267,2,0,P|469:195|419:209,1,78,8|0,2:0|1:0,0:0:0:0:
388,295,96659,1,8,2:0:0:0:
388,295,96757,1,8,2:0:0:0:
388,295,96855,2,0,P|418:327|455:363,1,78,8|0,2:0|1:0,0:0:0:0:
509,280,97247,1,8,2:0:0:0:
427,208,97444,6,0,P|361:193|309:229,1,126,4|0,1:0|0:0,0:0:0:0:
290,261,97836,2,0,P|233:283|178:254,1,126,4|0,1:2|0:0,0:0:0:0:
157,213,98228,2,0,L|122:83,1,126,4|0,1:0|1:2,0:0:0:0:
141,48,98620,2,0,L|157:-1,2,42,8|8|8,1:2|1:2|1:2,0:0:0:0:
225,100,99012,6,0,L|259:-5,1,78,4|0,1:0|0:0,0:0:0:0:
260,3,99306,1,0,1:0:0:0:
260,3,99404,1,0,1:0:0:0:
333,74,99600,2,0,L|299:179,1,78,0|0,1:0|0:0,0:0:0:0:
306,175,99895,1,0,1:0:0:0:
306,175,99993,1,0,1:0:0:0:
404,165,100189,2,0,L|420:116,2,39,8|8|4,1:2|3:0|3:0,0:0:0:0:
464,272,100581,5,4,1:2:0:0:
215,177,101169,6,0,P|184:191|158:207,2,52,4|4|4,3:2|3:2|3:2,0:0:0:0:
256,192,101561,12,0,106855,0:0:0:0:
