osu file format v14

[General]
AudioFilename: audio.mp3
AudioLeadIn: 0
PreviewTime: 83401
Countdown: 0
SampleSet: Normal
StackLeniency: 0.7
Mode: 1
LetterboxInBreaks: 0
WidescreenStoryboard: 0

[Editor]
DistanceSpacing: 0.8
BeatDivisor: 8
GridSize: 32
TimelineZoom: 2.1

[Metadata]
Title:Redeemer
TitleUnicode:Redeemer
Artist:Takamachi Walk
ArtistUnicode:高町Walk
Creator:Jerry
Version:Salvation
Source:東方心綺楼 ~ Hopeless Masquerade.
Tags:neonat wasi waspyon Un3h noa noaon Xandu Ruuya Permanence 東方Project ZUN Team Shanghai Alice doujin Touhou Shinkirou 13.5 Hata no Kokoro 亡失のエモーション The Lost Emotion 秦 こころ metal metalcore english stardust last dream
BeatmapID:2476682
BeatmapSetID:1188522

[Difficulty]
HPDrainRate:6
CircleSize:5
OverallDifficulty:6
ApproachRate:5
SliderMultiplier:1.4
SliderTickRate:1

[Events]
//Background and Video events
0,0,"BG.jpg",0,100
//Break Periods
//Storyboard Layer 0 (Background)
//Storyboard Layer 1 (Fail)
//Storyboard Layer 2 (Pass)
//Storyboard Layer 3 (Foreground)
//Storyboard Layer 4 (Overlay)
//Storyboard Sound Samples

[TimingPoints]
1330,441.176470588235,4,1,0,30,1,0
1330,-194.232987312588,4,1,0,30,0,0
3044,428.571428571429,4,1,0,30,1,0
3044,-200,4,1,0,30,0,0
4758,441.176470588235,4,1,0,30,1,0
4758,-194.232987312588,4,1,0,30,0,0
6472,428.571428571429,4,1,0,30,1,0
6472,-200,4,1,0,30,0,0
8186,441.176470588235,4,1,0,30,1,0
8186,-194.232987312588,4,1,0,30,0,0
9900,441.176470588235,4,1,0,30,1,0
9900,-194.232987312588,4,1,0,30,0,0
11614,441.176470588235,4,1,0,30,1,0
11614,-194.232987312588,4,1,0,30,0,0
13330,428.571428571429,4,1,0,50,1,0
13330,-133.333333333333,4,1,0,50,0,0
15044,428.571428571429,4,1,0,50,1,0
15044,-133.333333333333,4,1,0,50,0,0
27633,-133.333333333333,4,1,0,80,0,0
27741,-129.032258064516,4,1,0,80,0,0
27848,-125,4,1,0,80,0,0
28169,-114.285714285714,4,1,0,80,0,0
28491,-105.263157894737,4,1,0,80,0,0
28705,-100,4,1,0,80,0,0
56241,-133.333333333333,4,1,0,80,0,0
69848,-83.3333333333333,4,1,0,80,0,0
83562,-100,4,1,0,80,0,0
83615,-100,4,1,0,80,0,1
111044,-100,4,1,0,80,0,0
111100,-133.333333333333,4,1,0,80,0,0
114419,-100,4,1,0,80,0,0
114472,428.571428571429,4,1,0,80,1,0
141312,-109.89010989011,4,1,0,80,0,0
141634,-123.456790123457,4,1,0,80,0,0
141848,-133.333333333333,4,1,0,80,0,0
155562,-83.3333333333333,4,1,0,80,0,0
169062,-92.424260629021,4,1,0,80,0,0
169277,-100,4,1,0,80,0,0
169329,-100,4,1,0,80,0,1
196757,-100,4,1,0,80,0,0
200134,-83.3333333333333,4,1,0,80,0,0
200186,428.571428571429,4,1,0,80,1,0
200186,-83.3333333333333,4,1,0,80,0,0
207848,-66.6666666666667,4,1,0,80,0,0
207955,-83.3333333333333,4,1,0,80,0,0
211277,-66.6666666666667,4,1,0,80,0,0
211384,-83.3333333333333,4,1,0,80,0,0
213848,-133.333333333333,4,1,0,80,0,0
214008,-133.333333333333,4,1,0,30,0,0
220651,-133.333333333333,4,1,0,50,0,0
224134,-100,4,1,0,80,0,0
227614,-100,4,1,0,80,0,1
241328,-100,4,1,0,80,0,0
268920,-100,4,1,0,30,0,0

[HitObjects]
256,192,1330,5,8,0:0:0:0:
256,192,1660,1,8,0:0:0:0:
256,192,1991,1,0,0:0:0:0:
256,192,3901,1,0,0:0:0:0:
256,192,4758,1,8,0:0:0:0:
256,192,5088,1,8,0:0:0:0:
256,192,5419,1,0,0:0:0:0:
256,192,7329,1,8,0:0:0:0:
256,192,7650,1,0,0:0:0:0:
256,192,7972,1,8,0:0:0:0:
256,192,8186,1,8,0:0:0:0:
256,192,8516,1,8,0:0:0:0:
256,192,8847,1,0,0:0:0:0:
256,192,10782,1,8,0:0:0:0:
256,192,11223,1,0,0:0:0:0:
256,192,11614,1,8,0:0:0:0:
256,192,12275,1,0,0:0:0:0:
256,192,13330,1,8,0:0:0:0:
256,192,13758,1,0,0:0:0:0:
256,192,13972,1,0,0:0:0:0:
256,192,14080,1,0,0:0:0:0:
256,192,14187,1,8,0:0:0:0:
256,192,14508,1,0,0:0:0:0:
256,192,14830,1,8,0:0:0:0:
256,192,15044,1,12,0:0:0:0:
256,192,15365,1,8,0:0:0:0:
256,192,15686,1,0,0:0:0:0:
256,192,15901,1,8,0:0:0:0:
256,192,16758,1,8,0:0:0:0:
256,192,17615,1,0,0:0:0:0:
256,192,18472,1,8,0:0:0:0:
256,192,18794,1,8,0:0:0:0:
256,192,19115,1,0,0:0:0:0:
256,192,19329,1,8,0:0:0:0:
256,192,20186,1,8,0:0:0:0:
256,192,20829,1,0,0:0:0:0:
256,192,20936,1,0,0:0:0:0:
256,192,21044,1,8,0:0:0:0:
256,192,21365,1,0,0:0:0:0:
256,192,21686,1,8,0:0:0:0:
256,192,21901,1,12,0:0:0:0:
256,192,22222,1,8,0:0:0:0:
256,192,22544,1,0,0:0:0:0:
256,192,22758,1,8,0:0:0:0:
256,192,23615,1,8,0:0:0:0:
256,192,24472,1,8,0:0:0:0:
256,192,24954,1,0,0:0:0:0:
256,192,25329,1,8,0:0:0:0:
256,192,25651,1,0,0:0:0:0:
256,192,25972,1,0,0:0:0:0:
256,192,26186,1,8,0:0:0:0:
256,192,27044,1,0,0:0:0:0:
256,192,27686,1,0,0:0:0:0:
256,192,27794,1,0,0:0:0:0:
256,192,27901,1,8,0:0:0:0:
256,192,28222,1,0,0:0:0:0:
256,192,28544,1,0,0:0:0:0:
256,192,28758,1,4,0:0:0:0:
256,192,29401,1,0,0:0:0:0:
256,192,29615,1,8,0:0:0:0:
256,192,29936,1,0,0:0:0:0:
256,192,30258,1,0,0:0:0:0:
256,192,30472,1,8,0:0:0:0:
256,192,30794,1,0,0:0:0:0:
256,192,31115,1,0,0:0:0:0:
256,192,31222,1,0,0:0:0:0:
256,192,31329,1,8,0:0:0:0:
256,192,31651,1,0,0:0:0:0:
256,192,31972,1,0,0:0:0:0:
256,192,32186,1,8,0:0:0:0:
256,192,32401,1,0,0:0:0:0:
256,192,32508,1,8,0:0:0:0:
256,192,32722,1,0,0:0:0:0:
256,192,32829,1,8,0:0:0:0:
256,192,33044,1,8,0:0:0:0:
256,192,33258,1,8,0:0:0:0:
256,192,33365,1,0,0:0:0:0:
256,192,33579,1,8,0:0:0:0:
256,192,33686,1,0,0:0:0:0:
256,192,33901,1,8,0:0:0:0:
256,192,34115,1,0,0:0:0:0:
256,192,34222,1,8,0:0:0:0:
256,192,34436,1,0,0:0:0:0:
256,192,34544,1,8,0:0:0:0:
256,192,34651,1,8,0:0:0:0:
256,192,34758,1,0,0:0:0:0:
256,192,35079,1,12,0:0:0:0:
256,192,35401,1,0,0:0:0:0:
256,192,35615,1,12,0:0:0:0:
256,192,36258,1,0,0:0:0:0:
256,192,36472,1,8,0:0:0:0:
256,192,36794,1,0,0:0:0:0:
256,192,37115,1,0,0:0:0:0:
256,192,37329,1,8,0:0:0:0:
256,192,37651,1,0,0:0:0:0:
256,192,37972,1,0,0:0:0:0:
256,192,38079,1,0,0:0:0:0:
256,192,38186,1,8,0:0:0:0:
256,192,38508,1,0,0:0:0:0:
256,192,38829,1,8,0:0:0:0:
256,192,39044,1,0,0:0:0:0:
256,192,39365,1,0,0:0:0:0:
256,192,39686,1,0,0:0:0:0:
256,192,39901,1,8,0:0:0:0:
256,192,40222,1,0,0:0:0:0:
256,192,40544,1,0,0:0:0:0:
256,192,40758,1,8,0:0:0:0:
256,192,41079,1,0,0:0:0:0:
256,192,41401,1,8,0:0:0:0:
256,192,41508,1,0,0:0:0:0:
256,192,41615,1,8,0:0:0:0:
256,192,41829,1,0,0:0:0:0:
256,192,41936,1,8,0:0:0:0:
256,192,42151,1,8,0:0:0:0:
256,192,42258,1,0,0:0:0:0:
256,192,42472,1,4,0:0:0:0:
256,192,43115,1,0,0:0:0:0:
256,192,43329,1,8,0:0:0:0:
256,192,43651,1,0,0:0:0:0:
256,192,43972,1,0,0:0:0:0:
256,192,44186,1,8,0:0:0:0:
256,192,44508,1,0,0:0:0:0:
256,192,44829,1,0,0:0:0:0:
256,192,44936,1,0,0:0:0:0:
256,192,45044,1,8,0:0:0:0:
256,192,45365,1,0,0:0:0:0:
256,192,45686,1,0,0:0:0:0:
256,192,45901,1,8,0:0:0:0:
256,192,46115,1,0,0:0:0:0:
256,192,46222,1,8,0:0:0:0:
256,192,46436,1,0,0:0:0:0:
256,192,46544,1,8,0:0:0:0:
256,192,46758,1,8,0:0:0:0:
256,192,46972,1,8,0:0:0:0:
256,192,47079,1,0,0:0:0:0:
256,192,47294,1,8,0:0:0:0:
256,192,47401,1,0,0:0:0:0:
256,192,47615,1,8,0:0:0:0:
256,192,47829,1,0,0:0:0:0:
256,192,47936,1,8,0:0:0:0:
256,192,48151,1,0,0:0:0:0:
256,192,48258,1,8,0:0:0:0:
256,192,48365,1,8,0:0:0:0:
256,192,48472,1,0,0:0:0:0:
256,192,48794,1,12,0:0:0:0:
256,192,49115,1,0,0:0:0:0:
256,192,49329,1,12,0:0:0:0:
256,192,49972,1,0,0:0:0:0:
256,192,50186,1,8,0:0:0:0:
256,192,50508,1,0,0:0:0:0:
256,192,50829,1,0,0:0:0:0:
256,192,51044,1,8,0:0:0:0:
256,192,51365,1,0,0:0:0:0:
256,192,51686,1,0,0:0:0:0:
256,192,51794,1,0,0:0:0:0:
256,192,51901,1,8,0:0:0:0:
256,192,52222,1,0,0:0:0:0:
256,192,52544,1,8,0:0:0:0:
256,192,52758,1,0,0:0:0:0:
256,192,53079,1,0,0:0:0:0:
256,192,53401,1,0,0:0:0:0:
256,192,53615,1,8,0:0:0:0:
256,192,53936,1,0,0:0:0:0:
256,192,54258,1,8,0:0:0:0:
256,192,54365,1,0,0:0:0:0:
256,192,54472,1,8,0:0:0:0:
256,192,54794,1,0,0:0:0:0:
256,192,55115,5,0,0:0:0:0:
256,192,55222,1,8,0:0:0:0:
256,192,55329,1,8,0:0:0:0:
254,198,55544,1,0,0:0:0:0:
254,198,55651,1,8,0:0:0:0:
256,192,55865,1,8,0:0:0:0:
256,192,55972,1,0,0:0:0:0:
256,192,56186,5,4,0:0:0:0:
256,192,57686,1,0,0:0:0:0:
256,192,57794,1,0,0:0:0:0:
256,192,57901,1,8,0:0:0:0:
256,192,59615,1,0,0:0:0:0:
256,192,61115,1,0,0:0:0:0:
256,192,61222,1,0,0:0:0:0:
256,192,61329,1,8,0:0:0:0:
256,192,61972,1,0,0:0:0:0:
256,192,62615,1,8,0:0:0:0:
256,192,63044,1,0,0:0:0:0:
256,192,63365,1,0,0:0:0:0:
256,192,63686,1,0,0:0:0:0:
256,192,63794,1,0,0:0:0:0:
256,192,63901,1,8,0:0:0:0:
256,192,64544,1,0,0:0:0:0:
256,192,64758,1,0,0:0:0:0:
256,192,65079,1,0,0:0:0:0:
256,192,65401,1,0,0:0:0:0:
256,192,65615,1,8,0:0:0:0:
256,192,66044,1,8,0:0:0:0:
256,192,66472,1,0,0:0:0:0:
256,192,66794,1,0,0:0:0:0:
256,192,67115,1,0,0:0:0:0:
256,192,67222,1,0,0:0:0:0:
256,192,67329,1,8,0:0:0:0:
256,192,67758,1,8,0:0:0:0:
256,192,67972,1,0,0:0:0:0:
256,192,68186,1,0,0:0:0:0:
256,192,68508,1,0,0:0:0:0:
256,192,68615,1,8,0:0:0:0:
256,192,68829,1,0,0:0:0:0:
256,192,68936,1,0,0:0:0:0:
256,192,69044,1,8,0:0:0:0:
256,192,69151,1,8,0:0:0:0:
256,192,69258,1,0,0:0:0:0:
256,192,69365,1,0,0:0:0:0:
256,192,69472,1,8,0:0:0:0:
256,192,69686,1,8,0:0:0:0:
256,192,69901,1,4,0:0:0:0:
256,192,70115,1,8,0:0:0:0:
256,192,70222,1,0,0:0:0:0:
256,192,70436,1,8,0:0:0:0:
256,192,70544,1,0,0:0:0:0:
256,192,70651,1,8,0:0:0:0:
256,192,70758,1,0,0:0:0:0:
256,192,70972,1,8,0:0:0:0:
256,192,71079,1,8,0:0:0:0:
256,192,71294,1,8,0:0:0:0:
256,192,71401,1,8,0:0:0:0:
256,192,71508,1,8,0:0:0:0:
256,192,71615,1,0,0:0:0:0:
256,192,71829,1,8,0:0:0:0:
256,192,71936,1,0,0:0:0:0:
256,192,72151,1,8,0:0:0:0:
256,192,72258,1,0,0:0:0:0:
256,192,72365,1,0,0:0:0:0:
256,192,72472,1,8,0:0:0:0:
256,192,72901,1,8,0:0:0:0:
256,192,73115,1,8,0:0:0:0:
256,192,73329,1,0,0:0:0:0:
256,192,73544,1,8,0:0:0:0:
256,192,73651,1,8,0:0:0:0:
256,192,73865,1,8,0:0:0:0:
256,192,73972,1,0,0:0:0:0:
256,192,74186,1,0,0:0:0:0:
256,192,74401,1,8,0:0:0:0:
256,192,74508,1,0,0:0:0:0:
256,192,74722,1,0,0:0:0:0:
256,192,74829,1,8,0:0:0:0:
256,192,75044,1,0,0:0:0:0:
256,192,75258,1,8,0:0:0:0:
256,192,75365,1,8,0:0:0:0:
256,192,75579,1,8,0:0:0:0:
256,192,75686,1,8,0:0:0:0:
256,192,75794,1,8,0:0:0:0:
256,192,75901,1,0,0:0:0:0:
256,192,76222,1,8,0:0:0:0:
256,192,76544,1,8,0:0:0:0:
256,192,76758,1,4,0:0:0:0:
256,192,76972,1,8,0:0:0:0:
256,192,77079,1,0,0:0:0:0:
256,192,77294,1,0,0:0:0:0:
256,192,77401,1,8,0:0:0:0:
256,192,77615,1,0,0:0:0:0:
256,192,77829,1,8,0:0:0:0:
256,192,77936,1,8,0:0:0:0:
256,192,78151,1,0,0:0:0:0:
256,192,78258,1,8,0:0:0:0:
256,192,78365,1,8,0:0:0:0:
256,192,78472,1,0,0:0:0:0:
256,192,78686,1,8,0:0:0:0:
256,192,78794,1,0,0:0:0:0:
256,192,79008,1,0,0:0:0:0:
256,192,79115,1,8,0:0:0:0:
256,192,79329,1,0,0:0:0:0:
256,192,79544,1,8,0:0:0:0:
256,192,79651,1,8,0:0:0:0:
256,192,79865,1,8,0:0:0:0:
256,192,79972,1,8,0:0:0:0:
256,192,80079,1,8,0:0:0:0:
256,192,80186,1,0,0:0:0:0:
256,192,80508,1,0,0:0:0:0:
256,192,80829,1,0,0:0:0:0:
256,192,80936,1,0,0:0:0:0:
256,192,81044,1,8,0:0:0:0:
256,192,81472,1,8,0:0:0:0:
256,192,81579,1,0,0:0:0:0:
256,192,81686,1,8,0:0:0:0:
256,192,81794,1,8,0:0:0:0:
256,192,81901,1,0,0:0:0:0:
256,192,82115,1,8,0:0:0:0:
256,192,82222,1,0,0:0:0:0:
256,192,82436,1,8,0:0:0:0:
256,192,82544,1,8,0:0:0:0:
256,192,82651,1,0,0:0:0:0:
256,192,82758,1,8,0:0:0:0:
256,192,83615,1,12,0:0:0:0:
256,192,83936,1,0,0:0:0:0:
256,192,84258,1,8,0:0:0:0:
256,192,84365,1,0,0:0:0:0:
256,192,84472,1,8,0:0:0:0:
256,192,84686,1,8,0:0:0:0:
256,192,84794,1,0,0:0:0:0:
256,192,85008,1,0,0:0:0:0:
256,192,85115,1,0,0:0:0:0:
256,192,85329,1,8,0:0:0:0:
256,192,85651,1,8,0:0:0:0:
256,192,85972,1,0,0:0:0:0:
256,192,86079,1,0,0:0:0:0:
256,192,86186,1,8,0:0:0:0:
256,192,86401,1,0,0:0:0:0:
256,192,86508,1,8,0:0:0:0:
256,192,86722,1,0,0:0:0:0:
256,192,86829,1,8,0:0:0:0:
256,192,86936,1,8,0:0:0:0:
256,192,87044,1,0,0:0:0:0:
256,192,87258,1,8,0:0:0:0:
256,192,87365,1,0,0:0:0:0:
256,192,87579,1,8,0:0:0:0:
256,192,87686,1,0,0:0:0:0:
256,192,87794,1,0,0:0:0:0:
256,192,87901,1,8,0:0:0:0:
256,192,88115,1,0,0:0:0:0:
256,192,88222,1,8,0:0:0:0:
256,192,88436,1,0,0:0:0:0:
256,192,88544,1,8,0:0:0:0:
256,192,88651,1,0,0:0:0:0:
256,192,88758,1,8,0:0:0:0:
256,192,89079,1,0,0:0:0:0:
256,192,89401,1,0,0:0:0:0:
256,192,89508,1,0,0:0:0:0:
256,192,89615,1,8,0:0:0:0:
256,192,89829,1,8,0:0:0:0:
256,192,89936,1,0,0:0:0:0:
256,192,90044,1,8,0:0:0:0:
256,192,90151,1,8,0:0:0:0:
256,192,90258,1,0,0:0:0:0:
260,193,90472,1,12,0:0:0:0:
260,193,90794,1,0,0:0:0:0:
260,193,91115,1,8,0:0:0:0:
260,193,91222,1,0,0:0:0:0:
260,193,91329,1,8,0:0:0:0:
260,193,91544,1,8,0:0:0:0:
260,193,91651,1,0,0:0:0:0:
260,193,91865,1,0,0:0:0:0:
260,193,91972,1,0,0:0:0:0:
260,193,92186,1,8,0:0:0:0:
260,193,92508,1,8,0:0:0:0:
260,193,92829,1,8,0:0:0:0:
260,193,92936,1,8,0:0:0:0:
260,193,93044,1,0,0:0:0:0:
260,193,93258,1,0,0:0:0:0:
260,193,93365,1,8,0:0:0:0:
260,193,93579,1,0,0:0:0:0:
260,193,93686,1,8,0:0:0:0:
260,193,93794,1,8,0:0:0:0:
260,193,93901,1,0,0:0:0:0:
260,193,94222,1,0,0:0:0:0:
260,193,94544,1,0,0:0:0:0:
260,193,94651,1,0,0:0:0:0:
260,193,94758,1,8,0:0:0:0:
260,193,95079,1,8,0:0:0:0:
260,193,95401,1,8,0:0:0:0:
260,193,95615,1,0,0:0:0:0:
260,193,95936,1,0,0:0:0:0:
260,193,96258,1,0,0:0:0:0:
260,193,96472,1,8,0:0:0:0:
260,193,96686,1,0,0:0:0:0:
260,193,96794,1,0,0:0:0:0:
260,193,96901,1,8,0:0:0:0:
260,193,97008,1,8,0:0:0:0:
260,193,97115,1,0,0:0:0:0:
260,193,97329,1,12,0:0:0:0:
260,193,97544,1,0,0:0:0:0:
260,193,97651,1,8,0:0:0:0:
260,193,97865,1,0,0:0:0:0:
260,193,97972,1,8,0:0:0:0:
260,193,98186,1,8,0:0:0:0:
260,193,98401,1,8,0:0:0:0:
260,193,98508,1,0,0:0:0:0:
260,193,98722,1,8,0:0:0:0:
260,193,98829,1,0,0:0:0:0:
260,193,99044,1,0,0:0:0:0:
260,193,99365,1,8,0:0:0:0:
260,193,99686,1,0,0:0:0:0:
260,193,99794,1,0,0:0:0:0:
260,193,99901,1,8,0:0:0:0:
260,193,100115,1,0,0:0:0:0:
260,193,100222,1,8,0:0:0:0:
260,193,100329,1,0,0:0:0:0:
260,193,100436,1,8,0:0:0:0:
260,193,100544,1,8,0:0:0:0:
260,193,100758,1,0,0:0:0:0:
260,193,100972,1,0,0:0:0:0:
260,193,101079,1,8,0:0:0:0:
260,193,101294,1,0,0:0:0:0:
260,193,101401,1,8,0:0:0:0:
260,193,101615,1,8,0:0:0:0:
260,193,101829,1,8,0:0:0:0:
260,193,101936,1,0,0:0:0:0:
260,193,102151,1,8,0:0:0:0:
260,193,102258,1,0,0:0:0:0:
260,193,102472,1,0,0:0:0:0:
260,193,102794,1,8,0:0:0:0:
260,193,103115,1,0,0:0:0:0:
260,193,103222,1,0,0:0:0:0:
260,193,103329,1,8,0:0:0:0:
260,193,103544,1,0,0:0:0:0:
260,193,103651,1,0,0:0:0:0:
260,193,103758,1,8,0:0:0:0:
260,193,103865,1,0,0:0:0:0:
260,193,103972,1,8,0:0:0:0:
260,193,104186,1,12,0:0:0:0:
260,193,104401,1,0,0:0:0:0:
260,193,104508,1,8,0:0:0:0:
260,193,104722,1,0,0:0:0:0:
260,193,104829,1,8,0:0:0:0:
260,193,105044,1,8,0:0:0:0:
260,193,105258,1,8,0:0:0:0:
260,193,105365,1,0,0:0:0:0:
260,193,105579,1,0,0:0:0:0:
260,193,105686,1,0,0:0:0:0:
260,193,105794,1,8,0:0:0:0:
260,193,105901,1,8,0:0:0:0:
260,193,106222,1,0,0:0:0:0:
260,193,106544,1,0,0:0:0:0:
260,193,106651,1,0,0:0:0:0:
260,193,106758,1,8,0:0:0:0:
260,193,106972,1,0,0:0:0:0:
260,193,107079,1,8,0:0:0:0:
260,193,107294,1,8,0:0:0:0:
260,193,107401,1,0,0:0:0:0:
260,193,107508,1,0,0:0:0:0:
260,193,107615,1,8,0:0:0:0:
260,193,107829,1,0,0:0:0:0:
260,193,107936,1,8,0:0:0:0:
260,193,108151,1,0,0:0:0:0:
260,193,108258,1,8,0:0:0:0:
260,193,108472,1,8,0:0:0:0:
260,193,108686,1,8,0:0:0:0:
260,193,108794,1,0,0:0:0:0:
260,193,109008,1,8,0:0:0:0:
260,193,109115,1,0,0:0:0:0:
260,193,109329,1,8,0:0:0:0:
260,193,109651,1,0,0:0:0:0:
260,193,109972,5,0,0:0:0:0:
260,193,110186,1,0,0:0:0:0:
260,193,110294,1,8,0:0:0:0:
260,193,110508,1,0,0:0:0:0:
260,193,110615,1,8,0:0:0:0:
260,193,110722,1,8,0:0:0:0:
260,193,110829,1,0,0:0:0:0:
256,192,111044,5,8,0:0:0:0:
256,192,111686,1,0,0:0:0:0:
256,192,111901,1,8,0:0:0:0:
256,192,112544,1,0,0:0:0:0:
256,192,112758,1,0,0:0:0:0:
256,192,113079,1,0,0:0:0:0:
256,192,113401,1,0,0:0:0:0:
256,192,113508,1,0,0:0:0:0:
256,192,113615,1,8,0:0:0:0:
256,192,114472,1,0,0:0:0:0:
256,192,114579,1,0,0:0:0:0:
256,192,114686,1,0,0:0:0:0:
256,192,114793,1,0,0:0:0:0:
256,192,114900,1,0,0:0:0:0:
256,192,115329,1,8,0:0:0:0:
256,192,115543,1,0,0:0:0:0:
256,192,115650,1,8,0:0:0:0:
256,192,115864,1,8,0:0:0:0:
256,192,115972,1,0,0:0:0:0:
256,192,116400,1,8,0:0:0:0:
256,192,116614,1,8,0:0:0:0:
256,192,116829,1,0,0:0:0:0:
256,192,116936,1,0,0:0:0:0:
256,192,117043,1,8,0:0:0:0:
256,192,117257,1,0,0:0:0:0:
256,192,117364,1,8,0:0:0:0:
256,192,117579,1,8,0:0:0:0:
256,192,117686,1,8,0:0:0:0:
256,192,117793,1,8,0:0:0:0:
256,192,117900,1,0,0:0:0:0:
256,192,118222,1,8,0:0:0:0:
256,192,118543,1,8,0:0:0:0:
256,192,118757,1,0,0:0:0:0:
256,192,119079,1,8,0:0:0:0:
256,192,119400,1,8,0:0:0:0:
256,192,119614,1,0,0:0:0:0:
256,192,119936,1,8,0:0:0:0:
256,192,120257,1,8,0:0:0:0:
256,192,120364,1,8,0:0:0:0:
256,192,120472,1,0,0:0:0:0:
256,192,120793,1,8,0:0:0:0:
256,192,121114,1,8,0:0:0:0:
256,192,121329,1,0,0:0:0:0:
256,192,121436,1,0,0:0:0:0:
256,192,121543,1,0,0:0:0:0:
256,192,121650,1,0,0:0:0:0:
256,192,121757,1,8,0:0:0:0:
256,192,122186,1,8,0:0:0:0:
256,192,122400,1,0,0:0:0:0:
256,192,122507,1,8,0:0:0:0:
256,192,122722,1,8,0:0:0:0:
256,192,122829,1,0,0:0:0:0:
256,192,122936,1,0,0:0:0:0:
256,192,123043,1,8,0:0:0:0:
256,192,123257,1,0,0:0:0:0:
256,192,123364,1,0,0:0:0:0:
256,192,123472,1,8,0:0:0:0:
256,192,123686,1,8,0:0:0:0:
256,192,123793,1,8,0:0:0:0:
256,192,123900,1,0,0:0:0:0:
256,192,124114,1,8,0:0:0:0:
256,192,124329,1,8,0:0:0:0:
256,192,124543,1,0,0:0:0:0:
256,192,124757,1,0,0:0:0:0:
256,192,125079,1,0,0:0:0:0:
256,192,125400,1,0,0:0:0:0:
256,192,125507,1,0,0:0:0:0:
256,192,125614,1,8,0:0:0:0:
256,192,125936,1,8,0:0:0:0:
256,192,126257,1,8,0:0:0:0:
256,192,126472,1,0,0:0:0:0:
256,192,126579,1,8,0:0:0:0:
256,192,126686,1,0,0:0:0:0:
256,192,126900,1,8,0:0:0:0:
256,192,127114,1,8,0:0:0:0:
256,192,127222,1,0,0:0:0:0:
256,192,127329,1,8,0:0:0:0:
256,192,127543,1,0,0:0:0:0:
256,192,127757,1,8,0:0:0:0:
256,192,127864,1,0,0:0:0:0:
256,192,127972,1,8,0:0:0:0:
256,192,128079,1,8,0:0:0:0:
256,192,128186,1,0,0:0:0:0:
256,192,128614,1,0,0:0:0:0:
256,192,128829,1,0,0:0:0:0:
256,192,129043,1,8,0:0:0:0:
256,192,129257,1,0,0:0:0:0:
256,192,129364,1,0,0:0:0:0:
256,192,129472,1,8,0:0:0:0:
256,192,129686,1,0,0:0:0:0:
256,192,129900,1,8,0:0:0:0:
256,192,130007,1,8,0:0:0:0:
256,192,130114,1,0,0:0:0:0:
256,192,130329,1,8,0:0:0:0:
256,192,130543,1,0,0:0:0:0:
256,192,130650,1,8,0:0:0:0:
256,192,130757,1,8,0:0:0:0:
256,192,130972,1,0,0:0:0:0:
256,192,131186,1,8,0:0:0:0:
256,192,131400,1,8,0:0:0:0:
256,192,131614,1,0,0:0:0:0:
256,192,131936,1,8,0:0:0:0:
256,192,132043,1,0,0:0:0:0:
256,192,132257,1,8,0:0:0:0:
256,192,132472,1,8,0:0:0:0:
256,192,132793,1,8,0:0:0:0:
256,192,132900,1,0,0:0:0:0:
256,192,133114,1,8,0:0:0:0:
256,192,133329,1,0,0:0:0:0:
256,192,133650,1,8,0:0:0:0:
256,192,133757,1,0,0:0:0:0:
256,192,133972,1,8,0:0:0:0:
256,192,134079,1,0,0:0:0:0:
256,192,134186,1,8,0:0:0:0:
256,192,134400,1,0,0:0:0:0:
256,192,134614,1,8,0:0:0:0:
256,192,134829,1,8,0:0:0:0:
256,192,135043,1,0,0:0:0:0:
256,192,135472,1,0,0:0:0:0:
256,192,135686,1,0,0:0:0:0:
256,192,135900,1,8,0:0:0:0:
256,192,136114,1,0,0:0:0:0:
256,192,136222,1,0,0:0:0:0:
256,192,136329,1,8,0:0:0:0:
256,192,136543,1,8,0:0:0:0:
256,192,136757,1,0,0:0:0:0:
256,192,136972,1,8,0:0:0:0:
256,192,137079,1,0,0:0:0:0:
256,192,137186,1,8,0:0:0:0:
256,192,137400,1,8,0:0:0:0:
256,192,137507,1,8,0:0:0:0:
256,192,137614,1,0,0:0:0:0:
256,192,137829,1,8,0:0:0:0:
256,192,137936,1,8,0:0:0:0:
256,192,138043,1,8,0:0:0:0:
256,192,138257,1,8,0:0:0:0:
256,192,138472,1,0,0:0:0:0:
256,192,138579,1,8,0:0:0:0:
256,192,138793,1,8,0:0:0:0:
256,192,138900,1,0,0:0:0:0:
256,192,139114,1,8,0:0:0:0:
256,192,139329,1,0,0:0:0:0:
256,192,139436,1,8,0:0:0:0:
256,192,139650,1,8,0:0:0:0:
256,192,139757,1,8,0:0:0:0:
256,192,139972,1,8,0:0:0:0:
256,192,140186,1,0,0:0:0:0:
256,192,140293,1,8,0:0:0:0:
256,192,140507,1,8,0:0:0:0:
256,192,140614,1,0,0:0:0:0:
256,192,140829,1,0,0:0:0:0:
256,192,140936,1,0,0:0:0:0:
256,192,141043,1,8,0:0:0:0:
256,192,141364,1,8,0:0:0:0:
256,192,141686,1,0,0:0:0:0:
256,192,141900,1,4,0:0:0:0:
256,192,142222,1,0,0:0:0:0:
256,192,142543,1,0,0:0:0:0:
256,192,142757,1,8,0:0:0:0:
256,192,143400,1,8,0:0:0:0:
256,192,143507,1,0,0:0:0:0:
256,192,143614,1,8,0:0:0:0:
256,192,143936,1,0,0:0:0:0:
256,192,144257,1,0,0:0:0:0:
256,192,144472,1,8,0:0:0:0:
256,192,144686,1,0,0:0:0:0:
256,192,144793,1,8,0:0:0:0:
256,192,145007,1,8,0:0:0:0:
256,192,145114,1,0,0:0:0:0:
256,192,145329,1,0,0:0:0:0:
256,192,145650,1,0,0:0:0:0:
256,192,145972,1,0,0:0:0:0:
256,192,146186,1,8,0:0:0:0:
256,192,146829,1,8,0:0:0:0:
256,192,147043,1,0,0:0:0:0:
256,192,147364,1,0,0:0:0:0:
256,192,147686,1,0,0:0:0:0:
256,192,147900,1,8,0:0:0:0:
256,192,148114,1,0,0:0:0:0:
256,192,148222,1,8,0:0:0:0:
256,192,148436,1,8,0:0:0:0:
256,192,148543,1,0,0:0:0:0:
256,192,148757,1,12,0:0:0:0:
259,183,149079,1,0,0:0:0:0:
259,183,149400,1,0,0:0:0:0:
259,183,149614,1,8,0:0:0:0:
259,183,150257,1,8,0:0:0:0:
259,183,150472,1,8,0:0:0:0:
259,183,150793,1,0,0:0:0:0:
259,183,151114,1,0,0:0:0:0:
259,183,151329,1,8,0:0:0:0:
259,183,151543,1,0,0:0:0:0:
259,183,151650,1,0,0:0:0:0:
259,183,151757,1,8,0:0:0:0:
259,183,151972,1,8,0:0:0:0:
259,183,152079,1,8,0:0:0:0:
259,183,152186,1,0,0:0:0:0:
259,183,152507,1,0,0:0:0:0:
259,183,152829,1,0,0:0:0:0:
259,183,153043,1,8,0:0:0:0:
259,183,153257,1,8,0:0:0:0:
259,183,153472,1,0,0:0:0:0:
259,183,153579,1,0,0:0:0:0:
259,183,153686,1,8,0:0:0:0:
259,183,153793,1,8,0:0:0:0:
259,183,153900,1,0,0:0:0:0:
261,177,154222,1,0,0:0:0:0:
261,177,154543,1,0,0:0:0:0:
261,177,154757,1,8,0:0:0:0:
261,177,154972,1,0,0:0:0:0:
261,177,155079,1,0,0:0:0:0:
261,177,155186,1,8,0:0:0:0:
261,177,155400,1,8,0:0:0:0:
261,177,155614,1,4,0:0:0:0:
261,177,155829,1,0,0:0:0:0:
261,177,155936,1,8,0:0:0:0:
261,177,156043,1,0,0:0:0:0:
261,177,156257,1,0,0:0:0:0:
261,177,156472,1,8,0:0:0:0:
261,177,156579,1,0,0:0:0:0:
261,177,156793,1,0,0:0:0:0:
261,177,156900,1,8,0:0:0:0:
261,177,157114,1,0,0:0:0:0:
261,177,157222,1,0,0:0:0:0:
261,177,157329,1,8,0:0:0:0:
261,177,157436,1,8,0:0:0:0:
261,177,157650,1,0,0:0:0:0:
261,177,157757,1,8,0:0:0:0:
261,177,157864,1,0,0:0:0:0:
261,177,158079,1,0,0:0:0:0:
261,177,158186,1,8,0:0:0:0:
261,177,158614,1,0,0:0:0:0:
261,177,158722,1,0,0:0:0:0:
261,177,158829,1,8,0:0:0:0:
261,177,158936,1,8,0:0:0:0:
261,177,159043,1,0,0:0:0:0:
263,175,159257,1,8,0:0:0:0:
263,175,159364,1,0,0:0:0:0:
261,177,159579,1,0,0:0:0:0:
261,177,159686,1,8,0:0:0:0:
261,177,159793,1,0,0:0:0:0:
261,177,159900,1,8,0:0:0:0:
263,175,160114,1,8,0:0:0:0:
263,175,160222,1,0,0:0:0:0:
261,177,160436,1,0,0:0:0:0:
261,177,160543,1,8,0:0:0:0:
261,177,160757,1,8,0:0:0:0:
261,177,160864,1,0,0:0:0:0:
263,175,161079,1,8,0:0:0:0:
263,175,161186,1,0,0:0:0:0:
261,177,161400,1,0,0:0:0:0:
261,177,161507,1,8,0:0:0:0:
261,177,161614,1,8,0:0:0:0:
261,177,162472,1,4,0:0:0:0:
261,177,162686,1,8,0:0:0:0:
261,177,162793,1,0,0:0:0:0:
261,177,163007,1,8,0:0:0:0:
261,177,163114,1,0,0:0:0:0:
261,177,163329,1,0,0:0:0:0:
261,177,163436,1,8,0:0:0:0:
261,177,163650,1,0,0:0:0:0:
261,177,163757,1,8,0:0:0:0:
261,177,163972,1,8,0:0:0:0:
261,177,164079,1,0,0:0:0:0:
261,177,164186,1,8,0:0:0:0:
261,177,164293,1,0,0:0:0:0:
261,177,164507,1,0,0:0:0:0:
261,177,164614,1,8,0:0:0:0:
261,177,164829,1,0,0:0:0:0:
261,177,164936,1,8,0:0:0:0:
261,177,165043,1,8,0:0:0:0:
261,177,165257,1,8,0:0:0:0:
261,177,165364,1,0,0:0:0:0:
261,177,165579,1,8,0:0:0:0:
261,177,165686,1,0,0:0:0:0:
261,177,165900,1,0,0:0:0:0:
261,177,166114,1,8,0:0:0:0:
261,177,166222,1,0,0:0:0:0:
261,177,166436,1,8,0:0:0:0:
261,177,166543,1,0,0:0:0:0:
261,177,166757,1,8,0:0:0:0:
261,171,167186,1,8,0:0:0:0:
256,192,167400,1,0,0:0:0:0:
256,192,167507,1,0,0:0:0:0:
256,192,167614,1,8,0:0:0:0:
256,192,167722,1,8,0:0:0:0:
256,192,167829,1,8,0:0:0:0:
258,192,168043,1,8,0:0:0:0:
256,192,168150,1,0,0:0:0:0:
256,192,168364,1,0,0:0:0:0:
256,192,168472,1,8,0:0:0:0:
256,192,168793,1,8,0:0:0:0:
256,192,169114,1,0,0:0:0:0:
256,192,169329,5,4,0:0:0:0:
256,192,169543,1,8,0:0:0:0:
256,192,169650,1,0,0:0:0:0:
256,192,169864,1,8,0:0:0:0:
256,192,169972,1,0,0:0:0:0:
256,192,170186,1,0,0:0:0:0:
256,192,170400,1,8,0:0:0:0:
256,192,170507,1,8,0:0:0:0:
256,192,170722,1,8,0:0:0:0:
256,192,170829,1,8,0:0:0:0:
256,192,170936,1,0,0:0:0:0:
256,192,171043,1,8,0:0:0:0:
256,192,171364,1,8,0:0:0:0:
256,192,171686,1,8,0:0:0:0:
256,192,171900,1,0,0:0:0:0:
256,192,172007,1,8,0:0:0:0:
256,192,172222,1,8,0:0:0:0:
256,192,172329,1,0,0:0:0:0:
256,192,172543,1,8,0:0:0:0:
256,192,172757,1,0,0:0:0:0:
256,192,172972,1,8,0:0:0:0:
256,192,173079,1,0,0:0:0:0:
256,192,173293,1,0,0:0:0:0:
256,192,173400,1,8,0:0:0:0:
256,192,173507,1,8,0:0:0:0:
256,192,173614,1,0,0:0:0:0:
256,192,173829,1,8,0:0:0:0:
256,192,173936,1,0,0:0:0:0:
256,192,174150,1,8,0:0:0:0:
256,192,174257,1,0,0:0:0:0:
256,192,174364,1,8,0:0:0:0:
256,192,174472,1,0,0:0:0:0:
256,192,174686,1,8,0:0:0:0:
256,192,174793,1,8,0:0:0:0:
256,192,175007,1,8,0:0:0:0:
256,192,175114,1,8,0:0:0:0:
256,192,175222,1,0,0:0:0:0:
256,192,175329,1,8,0:0:0:0:
256,192,175543,1,8,0:0:0:0:
256,192,175757,1,8,0:0:0:0:
256,192,175864,1,0,0:0:0:0:
256,192,175972,1,8,0:0:0:0:
256,192,176079,1,8,0:0:0:0:
256,192,176186,1,0,0:0:0:0:
256,192,176507,1,8,0:0:0:0:
256,192,176614,1,8,0:0:0:0:
256,192,176829,1,8,0:0:0:0:
256,192,177043,1,0,0:0:0:0:
256,192,177150,1,8,0:0:0:0:
256,192,177257,1,0,0:0:0:0:
256,192,177472,1,8,0:0:0:0:
256,192,177686,1,0,0:0:0:0:
256,192,177900,1,0,0:0:0:0:
256,192,178222,1,8,0:0:0:0:
256,192,178329,1,0,0:0:0:0:
256,192,178543,1,8,0:0:0:0:
256,192,178757,1,0,0:0:0:0:
256,192,178864,1,8,0:0:0:0:
256,192,178972,1,0,0:0:0:0:
256,192,179186,1,8,0:0:0:0:
256,192,179400,1,0,0:0:0:0:
256,192,179614,1,0,0:0:0:0:
256,192,179722,1,8,0:0:0:0:
256,192,179936,1,8,0:0:0:0:
256,192,180043,1,8,0:0:0:0:
256,192,180257,1,8,0:0:0:0:
256,192,180364,1,8,0:0:0:0:
256,192,180472,1,0,0:0:0:0:
256,192,180579,1,8,0:0:0:0:
256,192,180793,1,8,0:0:0:0:
256,192,180900,1,0,0:0:0:0:
256,192,181114,1,8,0:0:0:0:
256,192,181222,1,0,0:0:0:0:
256,192,181329,1,8,0:0:0:0:
256,192,181543,1,0,0:0:0:0:
256,192,181650,1,8,0:0:0:0:
256,192,181864,1,8,0:0:0:0:
256,192,181972,1,0,0:0:0:0:
256,192,182079,1,0,0:0:0:0:
256,192,182186,1,8,0:0:0:0:
256,192,182400,1,0,0:0:0:0:
256,192,182614,1,8,0:0:0:0:
256,192,182722,1,8,0:0:0:0:
256,192,182829,1,8,0:0:0:0:
256,192,182936,1,8,0:0:0:0:
256,192,183043,1,0,0:0:0:0:
256,192,183364,1,8,0:0:0:0:
256,192,183472,1,0,0:0:0:0:
256,192,183686,1,8,0:0:0:0:
256,192,183900,1,0,0:0:0:0:
256,192,184007,1,8,0:0:0:0:
256,192,184114,1,8,0:0:0:0:
256,192,184329,1,8,0:0:0:0:
256,192,184543,1,0,0:0:0:0:
256,192,184757,1,0,0:0:0:0:
256,192,185079,1,8,0:0:0:0:
256,192,185186,1,0,0:0:0:0:
256,192,185400,1,8,0:0:0:0:
256,192,185614,1,0,0:0:0:0:
256,192,185722,1,8,0:0:0:0:
256,192,185829,1,0,0:0:0:0:
256,192,186043,1,8,0:0:0:0:
256,192,186257,1,8,0:0:0:0:
256,192,186472,1,0,0:0:0:0:
256,192,186686,1,8,0:0:0:0:
256,192,186793,1,8,0:0:0:0:
256,192,187007,1,8,0:0:0:0:
256,192,187114,1,8,0:0:0:0:
256,192,187222,1,8,0:0:0:0:
256,192,187329,1,0,0:0:0:0:
256,192,187543,1,8,0:0:0:0:
256,192,187650,1,0,0:0:0:0:
256,192,187864,1,0,0:0:0:0:
256,192,187972,1,8,0:0:0:0:
256,192,188079,1,8,0:0:0:0:
256,192,188186,1,0,0:0:0:0:
256,192,188400,1,8,0:0:0:0:
256,192,188507,1,0,0:0:0:0:
256,192,188722,1,8,0:0:0:0:
256,192,188829,1,0,0:0:0:0:
256,192,188936,1,8,0:0:0:0:
256,192,189043,1,0,0:0:0:0:
256,192,189257,1,8,0:0:0:0:
256,192,189472,1,8,0:0:0:0:
256,192,189579,1,8,0:0:0:0:
256,192,189686,1,0,0:0:0:0:
256,192,189793,1,8,0:0:0:0:
256,192,189900,1,0,0:0:0:0:
256,192,190222,1,8,0:0:0:0:
256,192,190329,1,8,0:0:0:0:
256,192,190543,1,8,0:0:0:0:
256,192,190757,1,0,0:0:0:0:
256,192,190864,1,8,0:0:0:0:
256,192,190972,1,0,0:0:0:0:
256,192,191186,1,8,0:0:0:0:
256,192,191400,1,0,0:0:0:0:
256,192,191614,1,0,0:0:0:0:
256,192,191936,1,8,0:0:0:0:
256,192,192043,1,8,0:0:0:0:
256,192,192257,1,8,0:0:0:0:
256,192,192472,1,0,0:0:0:0:
256,192,192579,1,8,0:0:0:0:
256,192,192686,1,8,0:0:0:0:
256,192,192900,1,8,0:0:0:0:
256,192,193114,1,0,0:0:0:0:
256,192,193329,1,0,0:0:0:0:
256,192,193436,1,8,0:0:0:0:
256,192,193650,1,8,0:0:0:0:
256,192,193757,1,0,0:0:0:0:
256,192,193972,1,8,0:0:0:0:
256,192,194079,1,8,0:0:0:0:
256,192,194186,1,0,0:0:0:0:
256,192,194293,1,8,0:0:0:0:
256,192,194507,1,8,0:0:0:0:
256,192,194614,1,0,0:0:0:0:
256,192,194829,1,0,0:0:0:0:
256,192,194936,1,8,0:0:0:0:
256,192,195043,1,0,0:0:0:0:
256,192,195150,1,8,0:0:0:0:
256,192,195364,1,8,0:0:0:0:
256,192,195472,1,0,0:0:0:0:
256,192,195686,1,8,0:0:0:0:
256,192,195793,1,0,0:0:0:0:
256,192,195900,1,8,0:0:0:0:
256,192,196222,1,0,0:0:0:0:
256,192,196543,1,8,0:0:0:0:
256,192,196650,1,8,0:0:0:0:
256,192,196757,1,4,0:0:0:0:
256,192,200186,1,12,0:0:0:0:
256,192,200400,1,8,0:0:0:0:
256,192,200507,1,0,0:0:0:0:
256,192,200721,1,8,0:0:0:0:
256,192,200828,1,0,0:0:0:0:
256,192,201043,1,8,0:0:0:0:
256,192,201257,1,0,0:0:0:0:
256,192,201364,1,8,0:0:0:0:
256,192,201578,1,0,0:0:0:0:
256,192,201686,1,8,0:0:0:0:
256,192,202114,1,0,0:0:0:0:
256,192,202221,1,8,0:0:0:0:
256,192,202436,1,0,0:0:0:0:
256,192,202543,1,8,0:0:0:0:
256,192,202757,1,8,0:0:0:0:
256,192,202971,1,0,0:0:0:0:
256,192,203078,1,8,0:0:0:0:
256,192,203186,1,8,0:0:0:0:
256,192,203293,1,0,0:0:0:0:
256,192,203400,1,8,0:0:0:0:
259,187,203614,1,8,0:0:0:0:
256,192,203828,1,8,0:0:0:0:
256,192,203936,1,0,0:0:0:0:
259,198,204150,1,8,0:0:0:0:
259,198,204257,1,0,0:0:0:0:
259,197,204471,1,8,0:0:0:0:
256,192,204686,1,0,0:0:0:0:
256,192,204793,1,8,0:0:0:0:
259,198,205007,1,0,0:0:0:0:
259,198,205114,1,8,0:0:0:0:
259,198,205543,1,0,0:0:0:0:
259,198,205650,1,8,0:0:0:0:
259,198,205864,1,8,0:0:0:0:
259,198,205971,1,0,0:0:0:0:
259,198,206186,1,8,0:0:0:0:
259,198,206507,1,8,0:0:0:0:
259,198,206828,1,8,0:0:0:0:
259,198,206936,1,0,0:0:0:0:
259,198,207043,1,8,0:0:0:0:
259,198,207257,1,0,0:0:0:0:
256,192,207364,1,8,0:0:0:0:
259,198,207578,1,8,0:0:0:0:
259,198,207686,1,0,0:0:0:0:
259,198,207900,1,12,0:0:0:0:
256,192,208757,1,0,0:0:0:0:
256,192,208971,1,8,0:0:0:0:
256,192,209078,1,0,0:0:0:0:
256,192,209293,1,8,0:0:0:0:
256,192,209400,1,0,0:0:0:0:
256,192,209614,1,8,0:0:0:0:
256,192,209828,1,0,0:0:0:0:
256,192,209936,1,8,0:0:0:0:
256,192,210150,1,0,0:0:0:0:
256,192,210257,1,8,0:0:0:0:
256,192,210471,1,8,0:0:0:0:
256,192,210686,1,0,0:0:0:0:
256,192,210793,1,8,0:0:0:0:
256,192,211007,1,8,0:0:0:0:
256,192,211114,1,0,0:0:0:0:
256,192,211328,1,12,0:0:0:0:
256,192,212186,1,0,0:0:0:0:
256,192,212400,1,8,0:0:0:0:
256,192,212507,1,0,0:0:0:0:
256,192,212721,1,8,0:0:0:0:
256,192,212828,1,0,0:0:0:0:
256,192,213043,1,8,0:0:0:0:
256,192,213900,5,4,0:0:0:0:
256,192,216900,1,8,0:0:0:0:
256,192,217328,1,0,0:0:0:0:
256,192,217650,1,0,0:0:0:0:
256,192,217971,1,8,0:0:0:0:
256,192,219900,1,8,0:0:0:0:
256,192,220221,1,0,0:0:0:0:
256,192,220543,1,8,0:0:0:0:
256,192,220757,1,4,0:0:0:0:
256,192,221078,1,0,0:0:0:0:
256,192,221400,1,0,0:0:0:0:
256,192,221507,1,0,0:0:0:0:
256,192,221614,1,8,0:0:0:0:
256,192,222257,1,0,0:0:0:0:
256,192,222471,1,0,0:0:0:0:
256,192,222793,1,0,0:0:0:0:
256,192,223114,1,0,0:0:0:0:
256,192,223328,1,8,0:0:0:0:
256,192,223757,1,0,0:0:0:0:
256,192,224186,1,8,0:0:0:0:
256,192,224507,1,8,0:0:0:0:
256,192,224828,1,0,0:0:0:0:
256,192,225043,1,8,0:0:0:0:
256,192,225364,1,8,0:0:0:0:
256,192,225686,1,8,0:0:0:0:
256,192,225900,1,0,0:0:0:0:
256,192,226221,1,0,0:0:0:0:
256,192,226543,1,0,0:0:0:0:
256,192,226650,1,0,0:0:0:0:
256,192,226757,1,8,0:0:0:0:
256,192,227078,1,8,0:0:0:0:
256,192,227400,1,8,0:0:0:0:
256,192,227614,1,4,0:0:0:0:
256,192,227828,1,8,0:0:0:0:
256,192,227936,1,8,0:0:0:0:
256,192,228150,1,8,0:0:0:0:
256,192,228257,1,0,0:0:0:0:
256,192,228471,1,0,0:0:0:0:
256,192,228686,1,8,0:0:0:0:
256,192,228793,1,8,0:0:0:0:
256,192,229007,1,0,0:0:0:0:
256,192,229114,1,8,0:0:0:0:
256,192,229328,1,0,0:0:0:0:
256,192,229650,1,8,0:0:0:0:
256,192,229757,1,8,0:0:0:0:
256,192,229971,1,8,0:0:0:0:
256,192,230186,1,0,0:0:0:0:
256,192,230293,1,8,0:0:0:0:
256,192,230400,1,0,0:0:0:0:
256,192,230507,1,0,0:0:0:0:
256,192,230614,1,8,0:0:0:0:
256,192,230828,1,0,0:0:0:0:
256,192,231043,1,0,0:0:0:0:
256,192,231150,1,8,0:0:0:0:
256,192,231364,1,8,0:0:0:0:
256,192,231471,1,0,0:0:0:0:
256,192,231686,1,8,0:0:0:0:
256,192,231793,1,8,0:0:0:0:
256,192,231900,1,0,0:0:0:0:
256,192,232007,1,8,0:0:0:0:
256,192,232221,1,8,0:0:0:0:
256,192,232328,1,0,0:0:0:0:
256,192,232543,1,8,0:0:0:0:
256,192,232650,1,0,0:0:0:0:
256,192,232757,1,0,0:0:0:0:
256,192,232864,1,8,0:0:0:0:
256,192,233078,1,8,0:0:0:0:
256,192,233186,1,0,0:0:0:0:
256,192,233400,1,8,0:0:0:0:
256,192,233614,1,0,0:0:0:0:
256,192,233721,1,8,0:0:0:0:
256,192,233828,1,8,0:0:0:0:
256,192,234043,1,8,0:0:0:0:
256,192,234257,1,8,0:0:0:0:
256,192,234364,1,8,0:0:0:0:
256,192,234471,1,0,0:0:0:0:
256,192,234793,1,8,0:0:0:0:
256,192,234900,1,0,0:0:0:0:
256,192,235114,1,8,0:0:0:0:
256,192,235328,1,0,0:0:0:0:
256,192,235436,1,8,0:0:0:0:
256,192,235543,1,8,0:0:0:0:
256,192,235757,1,0,0:0:0:0:
256,192,235971,1,8,0:0:0:0:
256,192,236078,1,0,0:0:0:0:
256,192,236186,1,8,0:0:0:0:
256,192,236507,1,0,0:0:0:0:
256,192,236614,1,8,0:0:0:0:
256,192,236828,1,8,0:0:0:0:
256,192,237043,1,0,0:0:0:0:
256,192,237150,1,8,0:0:0:0:
256,192,237257,1,0,0:0:0:0:
256,192,237364,1,0,0:0:0:0:
256,192,237471,1,8,0:0:0:0:
256,192,237686,1,8,0:0:0:0:
256,192,237900,1,0,0:0:0:0:
256,192,238007,1,8,0:0:0:0:
256,192,238221,1,8,0:0:0:0:
256,192,238328,1,0,0:0:0:0:
256,192,238543,1,8,0:0:0:0:
256,192,238650,1,8,0:0:0:0:
256,192,238757,1,0,0:0:0:0:
256,192,238864,1,8,0:0:0:0:
256,192,239078,1,8,0:0:0:0:
256,192,239186,1,0,0:0:0:0:
256,192,239400,1,8,0:0:0:0:
256,192,239507,1,0,0:0:0:0:
256,192,239614,1,0,0:0:0:0:
256,192,239721,1,8,0:0:0:0:
256,192,239936,1,8,0:0:0:0:
256,192,240043,1,0,0:0:0:0:
256,192,240257,1,8,0:0:0:0:
256,192,240471,1,0,0:0:0:0:
256,192,240578,1,0,0:0:0:0:
256,192,240686,1,8,0:0:0:0:
256,192,240793,1,8,0:0:0:0:
256,192,240900,1,8,0:0:0:0:
256,192,241007,1,8,0:0:0:0:
256,192,241114,1,0,0:0:0:0:
256,192,241221,1,0,0:0:0:0:
256,192,241328,1,8,0:0:0:0:
256,192,241650,1,0,0:0:0:0:
256,192,241971,1,0,0:0:0:0:
256,192,242186,1,8,0:0:0:0:
256,192,242400,1,0,0:0:0:0:
256,192,242507,1,8,0:0:0:0:
256,192,242614,1,0,0:0:0:0:
256,192,242828,1,8,0:0:0:0:
256,192,243257,1,0,0:0:0:0:
256,192,243364,1,8,0:0:0:0:
256,192,243471,1,8,0:0:0:0:
256,192,243686,1,0,0:0:0:0:
256,192,243900,1,8,0:0:0:0:
256,192,244114,1,8,0:0:0:0:
256,192,244221,1,0,0:0:0:0:
256,192,244328,1,8,0:0:0:0:
256,192,244543,1,8,0:0:0:0:
256,192,244757,1,0,0:0:0:0:
256,192,245078,1,0,0:0:0:0:
256,192,245400,1,0,0:0:0:0:
256,192,245614,1,8,0:0:0:0:
253,185,245828,1,0,0:0:0:0:
256,192,245936,1,8,0:0:0:0:
256,192,246043,1,8,0:0:0:0:
256,192,246257,1,0,0:0:0:0:
253,185,246686,1,8,0:0:0:0:
253,185,246793,1,0,0:0:0:0:
256,192,246900,1,8,0:0:0:0:
256,192,247114,1,0,0:0:0:0:
257,193,247328,1,8,0:0:0:0:
257,193,247543,1,0,0:0:0:0:
257,193,247650,1,0,0:0:0:0:
257,193,247757,1,8,0:0:0:0:
256,192,247864,1,8,0:0:0:0:
256,192,247971,1,0,0:0:0:0:
257,193,248186,1,4,0:0:0:0:
257,193,248507,1,0,0:0:0:0:
256,192,248828,1,0,0:0:0:0:
257,193,249043,1,8,0:0:0:0:
257,193,249257,1,0,0:0:0:0:
257,193,249364,1,8,0:0:0:0:
257,193,249471,1,0,0:0:0:0:
256,192,249686,1,8,0:0:0:0:
257,193,250114,1,0,0:0:0:0:
257,193,250221,1,8,0:0:0:0:
257,193,250328,1,8,0:0:0:0:
256,192,250543,1,0,0:0:0:0:
257,193,250757,1,8,0:0:0:0:
257,193,250971,1,8,0:0:0:0:
257,193,251078,1,0,0:0:0:0:
257,193,251186,1,8,0:0:0:0:
256,192,251400,1,8,0:0:0:0:
255,187,251614,1,0,0:0:0:0:
255,187,251936,1,0,0:0:0:0:
256,192,252257,1,0,0:0:0:0:
256,192,252471,1,8,0:0:0:0:
259,191,252686,1,0,0:0:0:0:
259,191,252793,1,8,0:0:0:0:
259,191,252900,1,8,0:0:0:0:
256,192,253114,1,0,0:0:0:0:
259,191,253543,1,8,0:0:0:0:
259,191,253650,1,0,0:0:0:0:
259,191,253757,1,8,0:0:0:0:
256,192,253971,1,0,0:0:0:0:
259,191,254186,1,8,0:0:0:0:
259,191,254293,1,0,0:0:0:0:
259,191,254400,1,8,0:0:0:0:
259,191,254614,1,8,0:0:0:0:
259,191,254721,1,0,0:0:0:0:
256,192,254828,1,0,0:0:0:0:
259,191,255043,1,4,0:0:0:0:
259,191,255364,1,0,0:0:0:0:
259,191,255686,1,0,0:0:0:0:
259,191,255900,1,8,0:0:0:0:
259,191,256114,1,0,0:0:0:0:
259,191,256221,1,8,0:0:0:0:
259,191,256328,1,0,0:0:0:0:
259,191,256543,1,8,0:0:0:0:
259,191,256971,1,0,0:0:0:0:
259,191,257078,1,8,0:0:0:0:
259,191,257186,1,8,0:0:0:0:
259,191,257400,1,0,0:0:0:0:
259,191,257614,1,8,0:0:0:0:
259,191,257828,1,8,0:0:0:0:
259,191,257936,1,0,0:0:0:0:
259,191,258043,1,8,0:0:0:0:
259,191,258257,1,8,0:0:0:0:
259,191,258471,1,0,0:0:0:0:
259,191,258793,1,0,0:0:0:0:
259,191,259114,1,0,0:0:0:0:
259,191,259328,1,8,0:0:0:0:
259,191,259543,1,0,0:0:0:0:
259,191,259650,1,8,0:0:0:0:
259,191,259757,1,0,0:0:0:0:
259,191,259971,1,8,0:0:0:0:
259,191,260400,1,8,0:0:0:0:
259,191,260507,1,0,0:0:0:0:
259,191,260614,1,8,0:0:0:0:
259,191,260828,1,0,0:0:0:0:
259,191,261043,1,8,0:0:0:0:
259,191,261257,1,0,0:0:0:0:
259,191,261364,1,8,0:0:0:0:
259,191,261471,1,0,0:0:0:0:
259,191,261578,1,8,0:0:0:0:
259,191,261686,1,8,0:0:0:0:
259,191,261900,1,4,0:0:0:0:
259,191,262221,1,0,0:0:0:0:
259,191,262543,1,0,0:0:0:0:
259,191,262757,1,8,0:0:0:0:
261,179,262971,1,0,0:0:0:0:
261,179,263078,1,8,0:0:0:0:
261,179,263186,1,0,0:0:0:0:
261,179,263400,1,8,0:0:0:0:
261,185,263828,1,0,0:0:0:0:
261,185,263936,1,8,0:0:0:0:
261,185,264043,1,8,0:0:0:0:
261,185,264257,1,0,0:0:0:0:
261,185,264471,1,8,0:0:0:0:
261,185,264686,1,8,0:0:0:0:
261,185,264793,1,0,0:0:0:0:
261,185,264900,1,8,0:0:0:0:
261,185,265114,1,8,0:0:0:0:
261,185,265328,1,0,0:0:0:0:
265,191,265650,1,0,0:0:0:0:
265,191,265971,1,0,0:0:0:0:
265,191,266186,1,8,0:0:0:0:
265,191,266400,1,0,0:0:0:0:
265,191,266507,1,8,0:0:0:0:
265,191,266614,1,0,0:0:0:0:
265,191,266828,1,8,0:0:0:0:
272,206,267257,1,0,0:0:0:0:
272,206,267364,1,8,0:0:0:0:
272,206,267471,1,8,0:0:0:0:
272,206,267686,1,0,0:0:0:0:
272,206,267900,1,8,0:0:0:0:
272,206,268007,1,0,0:0:0:0:
272,206,268114,1,8,0:0:0:0:
272,206,268328,1,8,0:0:0:0:
272,206,268436,1,8,0:0:0:0:
270,200,268543,1,0,0:0:0:0:
272,206,268650,1,0,0:0:0:0:
272,206,268757,1,12,0:0:0:0:
256,192,268971,12,0,274757,0:0:0:0:
