osu file format v14

[General]
AudioFilename: audio.mp3
AudioLeadIn: 0
PreviewTime: 165557
Countdown: 0
SampleSet: Soft
StackLeniency: 0.7
Mode: 3
LetterboxInBreaks: 0
SpecialStyle: 0
WidescreenStoryboard: 0

[Editor]
Bookmarks: 2432,12032,31232,50432,69632,88832,108032,127232,146432,166832,189231,208431,227631,246831,268431,287628,299335
DistanceSpacing: 1.4
BeatDivisor: 4
GridSize: 32
TimelineZoom: 2.5

[Metadata]
Title:A Desire to Disappear
TitleUnicode:消えていく望みを
Artist:Takamachi Walk
ArtistUnicode:高町Walk
Creator:l43yrnt
Version:Pain
Source:東方妖々夢 ~ Perfect Cherry Blossom.
Tags:天空の花の都 東方Project Team Shanghai Alice ZUN Tenkuu no Hana no Miyako Lily White リリーホワイト PCB Kieteiku Nozomi o Youyoumu Ghostly Dream The Capital City of Flowers in the Sky xandu kanachi metal metalcore english japanese jmetal j-metal touhou wither. randelman4ik katagiri k_a_t_a_g_i_r_i albionshallah
BeatmapID:3924780
BeatmapSetID:1903584

[Difficulty]
HPDrainRate:8.6
CircleSize:4
OverallDifficulty:8
ApproachRate:5
SliderMultiplier:1.4
SliderTickRate:1

[Events]
//Background and Video events
0,0,"taken from Akonine.jpg",0,0
//Break Periods
//Storyboard Layer 0 (Background)
//Storyboard Layer 1 (Fail)
//Storyboard Layer 2 (Pass)
//Storyboard Layer 3 (Foreground)
//Storyboard Layer 4 (Overlay)
//Storyboard Sound Samples
Sample,43232,0,"Hat Open2.wav",20
Sample,52832,0,"Hat Open2.wav",20
Sample,58082,0,"Hat Open2.wav",20
Sample,89432,0,"soft-hitfinish.wav",0
Sample,91832,0,"soft-hitfinish.wav",0
Sample,96632,0,"soft-hitfinish.wav",0
Sample,99032,0,"soft-hitfinish.wav",0
Sample,101432,0,"soft-hitfinish.wav",0
Sample,103832,0,"soft-hitfinish.wav",0
Sample,106232,0,"soft-hitfinish.wav",0
Sample,115832,0,"soft-hitfinish.wav",0
Sample,118232,0,"soft-hitfinish.wav",0
Sample,123032,0,"soft-hitfinish.wav",0
Sample,189831,0,"soft-hitfinish.wav",0
Sample,192231,0,"soft-hitfinish.wav",0
Sample,194631,0,"soft-hitfinish.wav",0
Sample,197031,0,"soft-hitfinish.wav",0
Sample,199431,0,"soft-hitfinish.wav",0
Sample,201831,0,"soft-hitfinish.wav",0
Sample,204231,0,"soft-hitfinish.wav",0
Sample,206631,0,"soft-hitfinish.wav",0
Sample,216231,0,"soft-hitfinish.wav",0
Sample,218631,0,"soft-hitfinish.wav",0
Sample,223431,0,"soft-hitfinish.wav",0
Sample,225831,0,"soft-hitfinish.wav",0

[TimingPoints]
2432,300,4,2,1,35,1,0
11432,-400,4,2,1,35,0,0
11732,-83.3333333333333,4,2,1,35,0,0
11882,-100,4,2,1,35,0,0
69632,-100,4,2,1,45,0,0
88832,-100,4,2,1,35,0,1
127232,-100,4,2,1,35,0,0
165632,-105.263157894737,4,2,1,35,0,0
165707,-57.1428571428572,4,2,1,35,0,0
165744,-400.000000000003,4,2,1,35,0,0
165782,-57.1428571428572,4,2,1,35,0,0
165819,-400.000000000003,4,2,1,35,0,0
165857,-57.1428571428572,4,2,1,35,0,0
165894,-400.000000000003,4,2,1,35,0,0
165932,-57.1428571428572,4,2,1,35,0,0
166007,-400.000000000003,4,2,1,35,0,0
166082,-57.1428571428572,4,2,1,35,0,0
166157,-400.000000000003,4,2,1,35,0,0
166232,-57.1428571428572,4,2,1,35,0,0
166307,-400.000000000003,4,2,1,35,0,0
166382,-57.1428571428572,4,2,1,35,0,0
166457,-400.000000000003,4,2,1,35,0,0
166532,-57.1428571428572,4,2,1,35,0,0
166607,-400.000000000003,4,2,1,35,0,0
166682,-57.1428571428572,4,2,1,35,0,0
166719,-400.000000000003,4,2,1,35,0,0
166757,-100,4,2,1,35,0,0
166832,333.333333333333,4,2,1,40,1,0
166832,-90.0900900900901,4,2,1,40,0,1
177498,-90.0900900900901,4,2,1,35,0,0
186831,300,4,2,1,35,1,0
186831,-100,4,2,1,35,0,0
189231,-100,4,2,1,35,0,1
227631,-100,4,2,1,35,0,0
246831,-100,4,2,1,35,0,0
267231,-125,4,2,1,35,0,0
267531,-83.3333333333333,4,2,1,35,0,0
267831,-125,4,2,1,35,0,0
268131,-83.3333333333333,4,2,1,35,0,0
268431,-90.9090909090909,4,2,1,35,0,0
268506,-100,4,2,1,35,0,0
287628,487.80487804878,4,2,1,35,1,0
287628,-70.4225352112676,4,2,1,35,0,0
290554,-65.7894736842105,4,2,1,35,0,0
291042,-61.7283950617284,4,2,1,35,0,0
297384,-238.095238095238,4,2,1,35,0,0
297628,-138.888888888889,4,2,1,35,0,0
297871,-98.0392156862744,4,2,1,35,0,0
298115,-75.7575757575758,4,2,1,35,0,0
298359,-61.7283950617284,4,2,1,35,0,0
299335,-61.7283950617284,4,2,1,35,0,1
306774,-61.7283950617284,4,2,1,35,0,0
307140,-61.7283950617284,4,2,1,35,0,1
314823,-61.7283950617284,4,2,1,35,0,0

[HitObjects]
448,192,2132,5,0,0:0:0:0:
64,192,2207,1,0,0:0:0:0:
192,192,2282,1,0,0:0:0:0:
320,192,2357,1,0,0:0:0:0:
64,192,2432,1,0,0:0:0:15:soft-hitfinish.wav
448,192,2432,1,0,0:0:0:0:
320,192,2582,1,0,0:0:0:0:
192,192,2732,1,0,0:0:0:0:
64,192,2807,1,0,0:0:0:0:
192,192,2882,1,0,0:0:0:0:
320,192,3032,1,0,0:0:0:15:soft-hitfinish.wav
448,192,3032,1,0,0:0:0:0:
448,192,3182,128,0,3332:0:0:0:0:
320,192,3482,1,0,0:0:0:0:
320,192,3632,128,0,3782:0:0:0:15:soft-hitfinish.wav
448,192,3632,1,0,0:0:0:0:
192,192,3857,1,0,0:0:0:0:
64,192,3932,1,0,0:0:0:0:
64,192,4082,128,0,4232:0:0:0:0:
192,192,4232,1,0,0:0:0:15:soft-hitfinish.wav
448,192,4232,128,0,4382:0:0:0:0:
320,192,4382,1,0,0:0:0:0:
192,192,4532,128,0,4607:0:0:0:0:
192,192,4682,128,0,4757:0:0:0:0:
64,192,4832,1,0,0:0:0:15:soft-hitfinish.wav
448,192,4832,1,0,0:0:0:0:
192,192,4907,1,0,0:0:0:0:
320,192,4982,128,0,5057:0:0:0:0:
64,192,5132,128,0,5432:0:0:0:0:
192,192,5432,1,0,0:0:0:15:soft-hitfinish.wav
320,192,5432,1,0,0:0:0:0:
320,192,5582,128,0,5657:0:0:0:0:
64,192,5732,128,0,5882:0:0:0:0:
192,192,5882,1,0,0:0:0:0:
320,192,5957,1,0,0:0:0:0:
192,192,6032,128,0,6182:0:0:0:15:soft-hitfinish.wav
448,192,6032,1,0,0:0:0:0:
320,192,6182,128,0,6332:0:0:0:0:
64,192,6332,1,0,0:0:0:0:
448,192,6332,128,0,6482:0:0:0:0:
192,192,6482,128,0,6557:0:0:0:0:
64,192,6632,128,0,6782:0:0:0:15:soft-hitfinish.wav
320,192,6632,1,0,0:0:0:0:
192,192,6782,128,0,6932:0:0:0:0:
448,192,6932,128,0,7082:0:0:0:0:
320,192,7007,128,0,7082:0:0:0:0:
192,192,7082,1,0,0:0:0:0:
64,192,7232,1,0,0:0:0:15:soft-hitfinish.wav
448,192,7232,128,0,7532:0:0:0:0:
320,192,7382,1,0,0:0:0:0:
64,192,7532,1,0,0:0:0:0:
192,192,7682,128,0,7832:0:0:0:0:
320,192,7757,128,0,7832:0:0:0:0:
64,192,7832,1,0,0:0:0:15:soft-hitfinish.wav
448,192,7832,1,0,0:0:0:0:
320,192,7982,1,0,0:0:0:0:
192,192,8057,1,0,0:0:0:0:
64,192,8132,1,0,0:0:0:0:
64,192,8282,128,0,8432:0:0:0:0:
320,192,8432,128,0,8657:0:0:0:15:soft-hitfinish.wav
448,192,8432,1,0,0:0:0:0:
192,192,8732,1,0,0:0:0:0:
192,192,8882,128,0,9032:0:0:0:0:
320,192,9032,1,0,0:0:0:15:soft-hitfinish.wav
448,192,9032,1,0,0:0:0:0:
448,192,9182,128,0,9332:0:0:0:0:
64,192,9332,1,0,0:0:0:0:
64,192,9482,128,0,9632:0:0:0:0:
192,192,9632,1,0,0:0:0:15:soft-hitfinish.wav
320,192,9632,128,0,9707:0:0:0:0:
320,192,9782,128,0,9857:0:0:0:0:
448,192,9932,128,0,10232:0:0:0:0:
192,192,10232,1,0,0:0:0:15:soft-hitfinish.wav
320,192,10232,1,0,0:0:0:0:
192,192,10382,128,0,10682:0:0:0:0:
320,192,10682,1,0,0:0:0:0:
64,192,10832,1,8,0:0:0:0:
192,192,10832,1,0,0:0:0:0:
448,192,10832,1,0,0:0:0:0:
448,192,10982,1,0,0:0:0:0:
64,192,10982,1,0,0:0:0:45:tom2.wav
192,192,11057,1,0,0:0:0:45:tom2.wav
64,192,11132,1,0,0:0:0:0:
320,192,11132,1,0,0:0:0:45:tom2.wav
448,192,11282,1,0,0:0:0:0:
320,192,11282,1,0,0:0:0:45:tom2.wav
64,192,11432,1,8,0:0:0:0:
192,192,11432,1,0,0:0:0:0:
448,192,11432,1,0,0:0:0:0:
64,192,12032,128,2,12182:0:0:0:0:
320,192,12032,1,4,0:0:0:0:
448,192,12032,1,0,0:0:0:0:
192,192,12182,128,0,12332:0:0:0:0:
320,192,12332,128,0,12482:0:0:0:0:
64,192,12482,128,0,12632:0:0:0:0:
192,192,12632,1,8,0:0:0:0:
320,192,12632,128,4,12782:0:0:0:0:
448,192,12632,1,0,0:0:0:0:
192,192,12782,128,0,12932:0:0:0:0:
64,192,12932,128,0,13082:0:0:0:0:
320,192,13082,128,0,13232:0:0:0:0:
64,192,13232,128,2,13382:0:0:0:0:
192,192,13232,1,4,0:0:0:0:
448,192,13232,1,0,0:0:0:0:
320,192,13382,128,0,13532:0:0:0:0:
192,192,13532,128,0,13682:0:0:0:0:
64,192,13682,128,0,13832:0:0:0:0:
192,192,13832,1,8,0:0:0:0:
448,192,13832,128,4,13982:0:0:0:0:
320,192,13832,1,0,0:0:0:0:
320,192,13982,128,0,14132:0:0:0:0:
192,192,14132,128,0,14282:0:0:0:0:
64,192,14282,128,0,14432:0:0:0:0:
448,192,14432,128,2,14732:0:0:0:0:
320,192,14432,1,4,0:0:0:0:
192,192,14432,1,0,0:0:0:0:
320,192,14582,128,0,14882:0:0:0:0:
192,192,14732,128,0,15032:0:0:0:0:
320,192,15032,1,8,0:0:0:0:
64,192,15032,128,0,15182:0:0:0:0:
448,192,15032,1,4,0:0:0:0:
192,192,15182,128,0,15332:0:0:0:0:
320,192,15332,128,0,15482:0:0:0:0:
64,192,15482,128,0,15632:0:0:0:0:
448,192,15632,1,2,0:0:0:0:
320,192,15632,128,4,15782:0:0:0:0:
192,192,15782,128,0,15932:0:0:0:0:
448,192,15932,1,2,0:0:0:0:
64,192,15932,128,0,16082:0:0:0:0:
320,192,16082,128,0,16232:0:0:0:0:
192,192,16232,1,8,0:0:0:0:
64,192,16232,128,4,16382:0:0:0:0:
448,192,16232,1,0,0:0:0:0:
192,192,16382,128,2,16532:0:0:0:0:
448,192,16382,1,0,0:0:0:0:
320,192,16532,128,0,16682:0:0:0:0:
448,192,16682,128,2,16832:0:0:0:0:
64,192,16682,1,0,0:0:0:0:
192,192,16832,1,4,0:0:0:0:
320,192,16832,128,2,17282:0:0:0:0:
64,192,16832,1,0,0:0:0:0:
192,192,17132,128,0,17432:0:0:0:0:
64,192,17432,128,8,17582:0:0:0:0:
320,192,17432,1,4,0:0:0:0:
448,192,17432,1,0,0:0:0:0:
320,192,17582,128,0,17732:0:0:0:0:
448,192,17657,128,0,17732:0:0:0:0:
64,192,17732,128,0,17882:0:0:0:0:
192,192,17882,128,0,18032:0:0:0:0:
64,192,18032,1,2,0:0:0:0:
320,192,18032,128,4,18182:0:0:0:0:
448,192,18107,128,0,18182:0:0:0:0:
64,192,18182,128,0,18332:0:0:0:0:
192,192,18332,128,0,18482:0:0:0:0:
320,192,18482,128,0,18632:0:0:0:0:
192,192,18557,128,0,18632:0:0:0:0:
64,192,18632,1,8,0:0:0:0:
448,192,18632,128,4,18782:0:0:0:0:
320,192,18782,128,0,18932:0:0:0:0:
192,192,18932,128,0,19082:0:0:0:0:
64,192,19082,128,0,19232:0:0:0:0:
448,192,19232,128,2,19682:0:0:0:0:
320,192,19232,1,4,0:0:0:0:
192,192,19232,1,0,0:0:0:0:
320,192,19382,128,0,19682:0:0:0:0:
192,192,19532,128,0,19682:0:0:0:0:
448,192,19832,128,0,19982:0:0:0:0:
320,192,19832,1,4,0:0:0:0:
192,192,19832,1,8,0:0:0:0:
64,192,19982,128,0,20132:0:0:0:0:
192,192,20132,128,0,20282:0:0:0:0:
320,192,20282,1,2,0:0:0:0:
192,192,20357,1,2,0:0:0:0:
64,192,20432,1,8,0:0:0:0:
320,192,20432,1,0,0:0:0:0:
448,192,20432,1,0,0:0:0:0:
64,192,20582,1,2,0:0:0:0:
192,192,20582,1,0,0:0:0:0:
64,192,20732,1,2,0:0:0:0:
192,192,20732,1,0,0:0:0:0:
64,192,20882,1,8,0:0:0:0:
320,192,20882,1,0,0:0:0:0:
448,192,20882,1,0,0:0:0:0:
320,192,21032,1,2,0:0:0:0:
448,192,21032,1,0,0:0:0:0:
320,192,21182,1,2,0:0:0:0:
448,192,21182,1,0,0:0:0:0:
64,192,21332,1,8,0:0:0:0:
192,192,21332,1,0,0:0:0:0:
448,192,21332,1,0,0:0:0:0:
64,192,21482,1,2,0:0:0:0:
192,192,21482,1,0,0:0:0:0:
64,192,21632,1,4,0:0:0:0:
192,192,21632,1,2,0:0:0:0:
448,192,21632,128,0,21782:0:0:0:0:
320,192,21782,128,0,21932:0:0:0:0:
192,192,21932,128,0,22082:0:0:0:0:
448,192,22082,128,0,22232:0:0:0:0:
64,192,22232,1,8,0:0:0:0:
192,192,22232,128,4,22382:0:0:0:0:
320,192,22232,1,0,0:0:0:0:
64,192,22382,128,0,22532:0:0:0:0:
448,192,22532,128,0,22682:0:0:0:0:
192,192,22682,128,0,22832:0:0:0:0:
64,192,22832,1,2,0:0:0:0:
320,192,22832,128,4,22982:0:0:0:0:
448,192,22982,128,0,23132:0:0:0:0:
192,192,23132,128,0,23282:0:0:0:0:
320,192,23282,128,0,23432:0:0:0:0:
192,192,23432,1,8,0:0:0:0:
64,192,23432,128,4,23582:0:0:0:0:
448,192,23432,1,0,0:0:0:0:
192,192,23582,128,0,23732:0:0:0:0:
320,192,23732,128,0,23882:0:0:0:0:
448,192,23882,128,0,24032:0:0:0:0:
192,192,24032,1,2,0:0:0:0:
320,192,24032,128,4,24332:0:0:0:0:
64,192,24032,1,0,0:0:0:0:
192,192,24182,128,0,24482:0:0:0:0:
64,192,24332,128,0,24632:0:0:0:0:
192,192,24632,128,8,24782:0:0:0:0:
320,192,24632,1,4,0:0:0:0:
448,192,24632,1,0,0:0:0:0:
320,192,24782,128,0,24932:0:0:0:0:
448,192,24932,128,0,25082:0:0:0:0:
192,192,25082,128,0,25232:0:0:0:0:
64,192,25232,1,2,0:0:0:0:
320,192,25232,128,4,25382:0:0:0:0:
448,192,25307,128,0,25382:0:0:0:0:
64,192,25382,128,0,25532:0:0:0:0:
192,192,25532,1,2,0:0:0:0:
448,192,25532,128,0,25682:0:0:0:0:
320,192,25682,128,0,25832:0:0:0:0:
64,192,25757,128,0,25832:0:0:0:0:
192,192,25832,128,8,25982:0:0:0:0:
448,192,25832,128,4,26132:0:0:0:0:
320,192,25982,128,2,26132:0:0:0:0:
192,192,26132,128,0,26432:0:0:0:0:
64,192,26282,1,8,0:0:0:0:
320,192,26282,128,0,26432:0:0:0:0:
448,192,26282,1,0,0:0:0:0:
64,192,26432,128,2,26882:0:0:0:0:
448,192,26432,1,4,0:0:0:0:
192,192,26582,128,0,26882:0:0:0:0:
320,192,26732,128,0,26882:0:0:0:0:
64,192,27032,1,8,0:0:0:0:
320,192,27032,128,0,27182:0:0:0:0:
192,192,27032,1,4,0:0:0:0:
64,192,27182,128,0,27332:0:0:0:0:
192,192,27332,128,0,27482:0:0:0:0:
320,192,27482,128,0,27632:0:0:0:0:
64,192,27632,128,2,27782:0:0:0:0:
448,192,27632,1,4,0:0:0:0:
320,192,27782,128,0,27932:0:0:0:0:
192,192,27932,128,2,28082:0:0:0:0:
448,192,27932,1,0,0:0:0:0:
64,192,28082,128,0,28232:0:0:0:0:
192,192,28232,1,8,0:0:0:0:
448,192,28232,128,4,28382:0:0:0:0:
320,192,28232,1,0,0:0:0:0:
320,192,28382,128,0,28532:0:0:0:0:
192,192,28532,128,2,28682:0:0:0:0:
448,192,28532,1,0,0:0:0:0:
320,192,28682,1,8,0:0:0:0:
64,192,28682,128,0,28832:0:0:0:0:
448,192,28682,1,0,0:0:0:0:
192,192,28832,1,2,0:0:0:0:
320,192,28832,1,4,0:0:0:0:
448,192,28832,1,0,0:0:0:0:
192,192,28982,1,2,0:0:0:0:
64,192,28982,1,0,0:0:0:0:
64,192,29132,1,2,0:0:0:0:
448,192,29132,1,0,0:0:0:0:
320,192,29282,1,2,0:0:0:0:
448,192,29282,1,0,0:0:0:0:
64,192,29432,1,8,0:0:0:0:
192,192,29432,1,4,0:0:0:0:
320,192,29432,1,0,0:0:0:0:
192,192,29582,1,2,0:0:0:0:
448,192,29582,1,0,0:0:0:0:
64,192,29732,1,2,0:0:0:0:
448,192,29732,1,0,0:0:0:0:
64,192,29882,1,8,0:0:0:0:
192,192,29882,1,0,0:0:0:0:
320,192,29882,1,0,0:0:0:0:
192,192,30032,1,2,0:0:0:0:
448,192,30032,1,0,0:0:0:0:
64,192,30107,1,2,0:0:0:0:
320,192,30182,1,2,0:0:0:0:
448,192,30182,1,4,0:0:0:0:
192,192,30332,1,2,0:0:0:0:
320,192,30332,1,0,0:0:0:0:
64,192,30482,1,2,0:0:0:0:
448,192,30482,1,4,0:0:0:0:
192,192,30557,1,2,0:0:0:0:
320,192,30632,1,8,0:0:0:0:
448,192,30632,1,0,0:0:0:0:
64,192,30632,1,0,0:0:0:0:
64,192,30782,1,2,0:0:0:0:
192,192,30782,1,0,0:0:0:0:
320,192,30932,1,2,0:0:0:0:
448,192,30932,1,4,0:0:0:0:
192,192,31007,1,2,0:0:0:0:
64,192,31082,1,2,0:0:0:0:
448,192,31082,1,0,0:0:0:0:
64,192,31232,128,2,31532:0:0:0:0:
192,192,31232,128,4,31457:0:0:0:0:
320,192,31232,128,0,31382:0:0:0:0:
320,192,31532,128,2,31757:0:0:0:0:
448,192,31532,128,0,31832:0:0:0:0:
64,192,31832,128,0,31982:0:0:0:20:Hat Open2.wav
192,192,31982,128,2,32132:0:0:0:0:
320,192,31982,128,0,32282:0:0:0:0:
64,192,32132,128,0,32432:0:0:0:0:
192,192,32282,128,2,32432:0:0:0:0:
320,192,32432,128,8,32732:0:0:0:0:
448,192,32432,128,0,32582:0:0:0:0:
192,192,32732,128,0,33032:0:0:0:0:
64,192,33032,128,0,33332:0:0:0:20:Hat Open2.wav
192,192,33332,128,2,33932:0:0:0:0:
448,192,33332,1,0,0:0:0:0:
320,192,33632,128,2,33932:0:0:0:0:
448,192,33632,128,0,33782:0:0:0:20:Hat Open2.wav
64,192,33932,128,2,34382:0:0:0:0:
448,192,33932,128,0,34232:0:0:0:0:
192,192,34232,128,0,34382:0:0:0:20:Hat Open2.wav
320,192,34382,128,2,34682:0:0:0:0:
448,192,34382,128,0,34832:0:0:0:0:
64,192,34532,128,0,35132:0:0:0:0:
192,192,34682,1,2,0:0:0:0:
192,192,34832,1,8,0:0:0:0:
320,192,34832,1,0,0:0:0:20:Hat Open2.wav
192,192,35132,128,2,35432:0:0:0:0:
448,192,35132,1,0,0:0:0:0:
64,192,35432,1,8,0:0:0:0:
320,192,35432,128,0,35732:0:0:0:20:Hat Open2.wav
448,192,35432,128,0,35582:0:0:0:0:
192,192,35732,128,2,35882:0:0:0:0:
448,192,35732,128,0,36032:0:0:0:0:
64,192,36032,128,2,36932:0:0:0:0:
192,192,36032,128,4,36257:0:0:0:0:
320,192,36032,128,0,36182:0:0:0:0:
320,192,36332,128,2,36632:0:0:0:0:
448,192,36332,128,0,36707:0:0:0:0:
192,192,36632,128,0,36932:0:0:0:20:Hat Open2.wav
320,192,36782,128,2,36932:0:0:0:0:
448,192,36932,128,0,37082:0:0:0:0:
192,192,37082,1,2,0:0:0:0:
64,192,37232,128,8,37457:0:0:0:0:
192,192,37232,128,0,37382:0:0:0:20:Hat Open2.wav
320,192,37232,128,0,37307:0:0:0:0:
448,192,37532,128,0,37832:0:0:0:0:
320,192,37832,128,0,38132:0:0:0:20:Hat Open2.wav
192,192,38132,128,2,38432:0:0:0:0:
448,192,38132,1,0,0:0:0:0:
64,192,38432,128,2,38882:0:0:0:0:
320,192,38432,128,0,38732:0:0:0:20:Hat Open2.wav
448,192,38432,128,0,38582:0:0:0:0:
192,192,38732,128,2,38882:0:0:0:0:
448,192,38732,128,0,39032:0:0:0:0:
192,192,39032,128,0,39332:0:0:0:20:Hat Open2.wav
320,192,39032,128,0,39182:0:0:0:0:
448,192,39182,128,2,39332:0:0:0:0:
64,192,39182,1,0,0:0:0:0:
64,192,39332,128,0,39932:0:0:0:0:
448,192,39482,128,2,39632:0:0:0:0:
192,192,39632,128,8,39857:0:0:0:0:
320,192,39632,128,0,39782:0:0:0:20:Hat Open2.wav
320,192,39932,128,2,40082:0:0:0:0:
448,192,39932,128,0,40832:0:0:0:0:
64,192,40232,1,8,0:0:0:0:
192,192,40232,1,0,0:0:0:0:
64,192,40382,1,8,0:0:0:0:
192,192,40382,1,0,0:0:0:0:
64,192,40532,1,8,0:0:0:0:
192,192,40532,1,0,0:0:0:0:
64,192,40682,1,8,0:0:0:0:
192,192,40682,1,0,0:0:0:0:
64,192,40832,128,2,41132:0:0:0:0:
192,192,40832,128,4,41057:0:0:0:0:
320,192,40832,128,0,40982:0:0:0:0:
320,192,41132,128,2,41357:0:0:0:0:
448,192,41132,128,0,41432:0:0:0:0:
64,192,41432,128,0,41582:0:0:0:20:Hat Open2.wav
192,192,41582,128,2,41732:0:0:0:0:
448,192,41582,128,0,41882:0:0:0:0:
64,192,41732,128,0,42032:0:0:0:0:
192,192,41882,128,2,42032:0:0:0:0:
320,192,41882,1,0,0:0:0:0:
320,192,42032,128,8,42332:0:0:0:0:
448,192,42032,128,0,42182:0:0:0:20:Hat Open2.wav
192,192,42332,128,0,42632:0:0:0:0:
64,192,42632,128,0,42932:0:0:0:20:Hat Open2.wav
192,192,42932,128,0,43532:0:0:0:0:
320,192,42932,1,2,0:0:0:0:
320,192,43082,1,2,0:0:0:0:
320,192,43232,128,2,43532:0:0:0:0:
448,192,43232,1,0,0:0:0:0:
64,192,43532,128,2,43982:0:0:0:0:
448,192,43532,128,0,43832:0:0:0:0:
320,192,43682,128,0,43832:0:0:0:0:
192,192,43832,128,0,43982:0:0:0:20:Hat Open2.wav
320,192,43982,128,2,44132:0:0:0:0:
448,192,43982,128,0,44132:0:0:0:0:
64,192,44132,128,0,44732:0:0:0:0:
192,192,44282,128,2,44432:0:0:0:0:
320,192,44432,128,8,44657:0:0:0:0:
448,192,44432,128,0,44582:0:0:0:20:Hat Open2.wav
192,192,44732,128,0,45032:0:0:0:0:
320,192,44882,1,2,0:0:0:0:
448,192,44957,1,2,0:0:0:0:
64,192,45032,1,8,0:0:0:0:
320,192,45032,128,0,45332:0:0:0:20:Hat Open2.wav
64,192,45332,128,2,45482:0:0:0:0:
448,192,45332,128,0,45632:0:0:0:0:
192,192,45482,1,8,0:0:0:0:
320,192,45482,1,0,0:0:0:0:
64,192,45632,128,4,46532:0:0:0:0:
192,192,45632,128,2,45857:0:0:0:0:
320,192,45632,128,0,45782:0:0:0:0:
320,192,45932,128,2,46232:0:0:0:0:
448,192,45932,128,0,46232:0:0:0:0:
192,192,46232,128,0,46532:0:0:0:20:Hat Open2.wav
448,192,46382,128,2,46532:0:0:0:0:
320,192,46532,128,0,46682:0:0:0:0:
448,192,46682,1,2,0:0:0:0:
64,192,46832,128,8,47057:0:0:0:0:
192,192,46832,128,0,46982:0:0:0:20:Hat Open2.wav
448,192,46832,128,0,46907:0:0:0:0:
448,192,47132,128,0,47432:0:0:0:0:
320,192,47432,128,0,47732:0:0:0:20:Hat Open2.wav
192,192,47732,128,2,48032:0:0:0:0:
448,192,47732,1,0,0:0:0:0:
64,192,48032,128,2,48482:0:0:0:0:
320,192,48032,128,0,48332:0:0:0:20:Hat Open2.wav
448,192,48032,128,0,48182:0:0:0:0:
192,192,48332,128,2,48482:0:0:0:0:
448,192,48332,128,0,48632:0:0:0:0:
192,192,48632,128,0,48932:0:0:0:20:Hat Open2.wav
320,192,48632,128,0,48782:0:0:0:0:
448,192,48782,128,2,48932:0:0:0:0:
64,192,48932,128,0,49532:0:0:0:0:
320,192,48932,128,0,49082:0:0:0:0:
448,192,49082,128,2,49232:0:0:0:0:
192,192,49232,1,8,0:0:0:0:
320,192,49232,1,0,0:0:0:0:
192,192,49382,1,0,0:0:0:45:tom3.wav
448,192,49382,1,0,0:0:0:0:
320,192,49457,1,0,0:0:0:45:tom3.wav
192,192,49532,1,0,0:0:0:45:tom4.wav
448,192,49532,128,0,50432:0:0:0:0:
64,192,49682,1,2,0:0:0:0:
64,192,49832,1,8,0:0:0:0:
192,192,49832,1,0,0:0:0:0:
320,192,49982,1,2,0:0:0:0:
64,192,50132,1,8,0:0:0:0:
192,192,50132,1,0,0:0:0:0:
64,192,50282,1,8,0:0:0:0:
192,192,50282,1,0,0:0:0:0:
64,192,50432,128,4,50582:0:0:0:0:
192,192,50432,128,2,50657:0:0:0:0:
320,192,50432,128,0,50732:0:0:0:0:
64,192,50732,128,2,51032:0:0:0:0:
192,192,50732,128,0,51032:0:0:0:0:
320,192,50882,128,0,51032:0:0:0:0:
448,192,51032,128,0,51182:0:0:0:20:Hat Open2.wav
64,192,51182,128,2,51332:0:0:0:0:
320,192,51182,128,0,51332:0:0:0:0:
192,192,51332,128,0,51482:0:0:0:0:
448,192,51332,128,0,51632:0:0:0:0:
320,192,51482,128,2,51632:0:0:0:0:
64,192,51632,128,8,51782:0:0:0:0:
192,192,51632,128,0,51932:0:0:0:20:Hat Open2.wav
320,192,51932,128,0,52232:0:0:0:25:Hat Open2.wav
448,192,51932,1,0,0:0:0:0:
192,192,52082,1,0,0:0:0:0:
64,192,52232,1,0,0:0:0:35:Hat Open2.wav
448,192,52232,128,0,52532:0:0:0:0:
192,192,52382,1,2,0:0:0:0:
64,192,52532,1,2,0:0:0:0:
320,192,52532,128,0,53132:0:0:0:0:
192,192,52682,1,0,0:0:0:0:
192,192,52832,128,2,53132:0:0:0:0:
64,192,52832,1,0,0:0:0:0:
64,192,53132,128,2,53432:0:0:0:0:
448,192,53132,128,0,53582:0:0:0:0:
320,192,53432,128,0,53582:0:0:0:20:Hat Open2.wav
64,192,53582,128,2,53732:0:0:0:0:
192,192,53582,128,0,53732:0:0:0:0:
448,192,53732,128,0,54332:0:0:0:0:
320,192,53882,128,2,54032:0:0:0:0:
64,192,54032,128,8,54182:0:0:0:0:
192,192,54032,128,0,54257:0:0:0:20:Hat Open2.wav
64,192,54332,1,2,0:0:0:0:
320,192,54332,128,0,54632:0:0:0:20:Hat Open2.wav
192,192,54482,1,0,0:0:0:0:
64,192,54632,128,8,54782:0:0:0:0:
192,192,54632,128,0,54932:0:0:0:20:Hat Open2.wav
448,192,54632,1,0,0:0:0:0:
320,192,54782,128,0,54932:0:0:0:0:
64,192,54932,128,2,55232:0:0:0:0:
448,192,54932,1,0,0:0:0:20:Hat Open2.wav
320,192,55082,1,0,0:0:0:0:
192,192,55232,128,4,55382:0:0:0:0:
320,192,55232,128,2,55457:0:0:0:0:
448,192,55232,128,0,56132:0:0:0:0:
64,192,55532,128,2,55832:0:0:0:0:
192,192,55532,128,0,55832:0:0:0:0:
320,192,55832,128,0,56132:0:0:0:20:Hat Open2.wav
192,192,55982,128,2,56132:0:0:0:0:
64,192,56132,128,0,56282:0:0:0:0:
320,192,56282,1,2,0:0:0:0:
192,192,56432,128,8,56507:0:0:0:0:
320,192,56432,128,0,56582:0:0:0:20:Hat Open2.wav
448,192,56432,128,0,56657:0:0:0:0:
64,192,56732,128,8,57032:0:0:0:0:
192,192,56732,1,0,0:0:0:0:
320,192,56882,1,8,0:0:0:0:
192,192,57032,128,0,57332:0:0:0:20:Hat Open2.wav
448,192,57032,1,0,0:0:0:0:
320,192,57182,1,8,0:0:0:0:
64,192,57332,1,2,0:0:0:0:
320,192,57332,128,0,57632:0:0:0:0:
192,192,57482,1,0,0:0:0:0:
64,192,57632,128,2,57782:0:0:0:0:
192,192,57632,128,0,57932:0:0:0:20:Hat Open2.wav
448,192,57632,128,0,58082:0:0:0:0:
64,192,57932,128,8,58232:0:0:0:0:
320,192,57932,128,2,58082:0:0:0:0:
320,192,58232,128,0,58532:0:0:0:0:
448,192,58232,128,0,58382:0:0:0:0:
64,192,58382,128,8,58532:0:0:0:0:
192,192,58382,1,0,0:0:0:0:
192,192,58532,128,0,58682:0:0:0:0:
448,192,58532,128,0,59132:0:0:0:0:
320,192,58682,1,2,0:0:0:0:
64,192,58757,1,2,0:0:0:0:
192,192,58832,1,8,0:0:0:0:
320,192,58832,128,0,59132:0:0:0:20:Hat Open2.wav
64,192,59132,128,2,60032:0:0:0:0:
192,192,59132,128,0,59282:0:0:0:0:
320,192,59432,1,8,0:0:0:0:
448,192,59432,1,0,0:0:0:0:
320,192,59582,1,8,0:0:0:0:
448,192,59582,1,0,0:0:0:0:
320,192,59732,1,8,0:0:0:0:
448,192,59732,1,0,0:0:0:0:
320,192,59882,1,8,0:0:0:0:
448,192,59882,1,0,0:0:0:0:
192,192,60032,128,4,60182:0:0:0:0:
320,192,60032,128,2,60257:0:0:0:0:
448,192,60032,128,0,60332:0:0:0:0:
64,192,60332,128,2,60632:0:0:0:0:
192,192,60332,128,0,60632:0:0:0:0:
320,192,60482,128,0,60632:0:0:0:0:
448,192,60632,128,0,60782:0:0:0:20:Hat Open2.wav
64,192,60782,128,2,61082:0:0:0:0:
320,192,60782,128,0,60932:0:0:0:0:
192,192,60932,128,0,61082:0:0:0:0:
448,192,60932,128,0,61232:0:0:0:0:
320,192,61082,128,2,61232:0:0:0:0:
64,192,61232,128,8,61382:0:0:0:0:
192,192,61232,128,0,61532:0:0:0:20:Hat Open2.wav
320,192,61532,128,0,61832:0:0:0:20:Hat Open2.wav
448,192,61532,1,0,0:0:0:0:
64,192,61682,1,0,0:0:0:20:Hat Open2.wav
192,192,61832,1,2,0:0:0:0:
448,192,61832,128,0,62132:0:0:0:20:Hat Open2.wav
64,192,61982,1,0,0:0:0:0:
192,192,62132,1,0,0:0:0:20:Hat Open2.wav
320,192,62132,128,0,62732:0:0:0:0:
64,192,62282,1,0,0:0:0:0:
192,192,62432,128,2,62732:0:0:0:0:
448,192,62432,128,0,62582:0:0:0:20:Hat Open2.wav
64,192,62732,128,2,63032:0:0:0:0:
448,192,62732,128,0,63182:0:0:0:0:
320,192,63032,128,0,63182:0:0:0:20:Hat Open2.wav
64,192,63182,128,2,63332:0:0:0:0:
192,192,63182,128,0,63332:0:0:0:0:
448,192,63332,128,0,63932:0:0:0:0:
320,192,63482,128,2,63632:0:0:0:0:
64,192,63632,128,8,63782:0:0:0:0:
192,192,63632,128,0,63857:0:0:0:20:Hat Open2.wav
64,192,63932,1,0,0:0:0:20:Hat Open2.wav
320,192,63932,128,0,64232:0:0:0:0:
192,192,64082,1,2,0:0:0:0:
64,192,64157,1,2,0:0:0:0:
192,192,64232,128,8,64532:0:0:0:0:
448,192,64232,128,0,64382:0:0:0:20:Hat Open2.wav
64,192,64532,128,2,64832:0:0:0:0:
320,192,64532,1,0,0:0:0:20:Hat Open2.wav
448,192,64532,128,0,64682:0:0:0:0:
192,192,64682,1,8,0:0:0:0:
320,192,64682,128,0,64832:0:0:0:0:
192,192,64832,128,4,65132:0:0:0:0:
448,192,64832,128,2,65732:0:0:0:0:
64,192,65132,128,2,65432:0:0:0:0:
320,192,65432,128,0,65732:0:0:0:20:Hat Open2.wav
64,192,65582,128,2,65732:0:0:0:0:
192,192,65732,128,0,65882:0:0:0:0:
64,192,65882,1,2,0:0:0:0:
64,192,66032,128,8,66107:0:0:0:0:
320,192,66032,128,0,66182:0:0:0:20:Hat Open2.wav
448,192,66032,128,0,66257:0:0:0:0:
192,192,66182,1,0,0:0:0:0:
64,192,66332,128,0,66632:0:0:0:0:
320,192,66332,1,0,0:0:0:0:
448,192,66482,1,0,0:0:0:0:
192,192,66632,128,2,66932:0:0:0:0:
320,192,66632,1,0,0:0:0:20:Hat Open2.wav
448,192,66782,1,0,0:0:0:0:
64,192,66932,1,2,0:0:0:0:
320,192,66932,128,0,67232:0:0:0:0:
192,192,67082,1,2,0:0:0:0:
64,192,67157,1,2,0:0:0:0:
192,192,67232,128,2,67532:0:0:0:0:
448,192,67232,128,0,67682:0:0:0:20:Hat Open2.wav
64,192,67532,128,2,67832:0:0:0:0:
320,192,67532,1,0,0:0:0:0:
192,192,67682,1,2,0:0:0:0:
320,192,67832,128,0,68132:0:0:0:20:Hat Open2.wav
64,192,67982,1,2,0:0:0:0:
192,192,67982,128,0,68132:0:0:0:0:
448,192,68132,128,0,68732:0:0:0:0:
64,192,68282,128,2,68432:0:0:0:0:
320,192,68282,1,0,0:0:0:0:
192,192,68432,1,8,0:0:0:0:
320,192,68432,1,4,0:0:0:0:
64,192,68582,1,0,0:0:0:45:tom3.wav
192,192,68582,1,0,0:0:0:0:
320,192,68657,1,0,0:0:0:45:tom3.wav
64,192,68732,128,0,69032:0:0:0:45:tom4.wav
192,192,68732,1,0,0:0:0:0:
320,192,68882,1,2,0:0:0:0:
192,192,69032,1,8,0:0:0:0:
320,192,69032,1,0,0:0:0:0:
448,192,69032,1,0,0:0:0:0:
448,192,69182,1,2,0:0:0:0:
64,192,69332,1,8,0:0:0:0:
192,192,69332,1,0,0:0:0:0:
320,192,69407,1,8,0:0:0:0:
448,192,69407,1,0,0:0:0:0:
64,192,69482,1,8,0:0:0:0:
192,192,69482,1,0,0:0:0:0:
320,192,69557,1,8,0:0:0:0:
448,192,69557,1,0,0:0:0:0:
64,192,69632,1,4,0:0:0:0:
192,192,69632,1,2,0:0:0:0:
64,192,69782,1,0,0:0:0:0:
192,192,69782,1,0,0:0:0:0:
448,192,69932,1,0,0:0:0:0:
64,192,70082,1,2,0:0:0:0:
192,192,70082,1,0,0:0:0:0:
192,192,70232,1,8,0:0:0:0:
320,192,70232,1,0,0:0:0:20:Hat Open2.wav
448,192,70232,1,0,0:0:0:0:
64,192,70382,1,0,0:0:0:0:
320,192,70532,1,2,0:0:0:0:
448,192,70532,1,0,0:0:0:0:
320,192,70682,1,2,0:0:0:0:
448,192,70682,1,0,0:0:0:0:
64,192,70832,1,0,0:0:0:20:Hat Open2.wav
192,192,70907,1,0,0:0:0:0:
64,192,70982,1,2,0:0:0:0:
320,192,70982,1,0,0:0:0:0:
192,192,71132,1,2,0:0:0:0:
320,192,71132,1,0,0:0:0:0:
448,192,71282,1,0,0:0:0:0:
64,192,71432,1,8,0:0:0:0:
192,192,71432,128,0,71732:0:0:0:20:Hat Open2.wav
448,192,71432,1,0,0:0:0:0:
320,192,71582,128,0,71882:0:0:0:0:
448,192,71732,128,0,72032:0:0:0:0:
64,192,72032,1,2,0:0:0:0:
192,192,72032,1,0,0:0:0:20:Hat Open2.wav
64,192,72182,1,2,0:0:0:0:
192,192,72182,1,0,0:0:0:0:
448,192,72332,1,0,0:0:0:0:
64,192,72482,1,2,0:0:0:0:
192,192,72482,1,0,0:0:0:0:
192,192,72632,1,8,0:0:0:0:
320,192,72632,1,0,0:0:0:20:Hat Open2.wav
448,192,72632,1,0,0:0:0:0:
64,192,72782,1,0,0:0:0:0:
320,192,72932,1,2,0:0:0:0:
448,192,72932,1,0,0:0:0:0:
320,192,73082,1,2,0:0:0:0:
448,192,73082,1,0,0:0:0:20:Hat Open2.wav
64,192,73232,1,0,0:0:0:0:
192,192,73307,1,0,0:0:0:0:
448,192,73382,1,2,0:0:0:0:
320,192,73382,1,0,0:0:0:0:
192,192,73532,1,2,0:0:0:0:
448,192,73532,128,0,73832:0:0:0:0:
320,192,73682,128,0,73982:0:0:0:0:
64,192,73832,1,4,0:0:0:0:
192,192,73832,128,8,74132:0:0:0:0:
64,192,74132,128,0,74432:0:0:0:0:
192,192,74282,128,0,74432:0:0:0:0:
320,192,74432,1,4,0:0:0:0:
448,192,74432,1,2,0:0:0:0:
320,192,74582,1,2,0:0:0:0:
448,192,74582,1,0,0:0:0:0:
64,192,74732,1,0,0:0:0:0:
320,192,74882,1,2,0:0:0:0:
448,192,74882,1,0,0:0:0:0:
64,192,75032,1,8,0:0:0:0:
192,192,75032,1,0,0:0:0:20:Hat Open2.wav
320,192,75032,1,0,0:0:0:0:
448,192,75182,1,0,0:0:0:0:
64,192,75332,1,2,0:0:0:0:
192,192,75332,1,0,0:0:0:0:
64,192,75482,1,2,0:0:0:0:
192,192,75482,1,0,0:0:0:0:
448,192,75632,1,0,0:0:0:20:Hat Open2.wav
320,192,75707,1,0,0:0:0:0:
192,192,75782,1,2,0:0:0:0:
448,192,75782,1,0,0:0:0:0:
192,192,75932,1,2,0:0:0:0:
64,192,75932,1,0,0:0:0:0:
448,192,76082,1,0,0:0:0:0:
64,192,76232,1,8,0:0:0:0:
320,192,76232,128,0,76532:0:0:0:20:Hat Open2.wav
448,192,76232,1,0,0:0:0:0:
192,192,76382,128,0,76682:0:0:0:0:
64,192,76532,128,0,76832:0:0:0:0:
320,192,76832,1,2,0:0:0:0:
448,192,76832,1,0,0:0:0:20:Hat Open2.wav
320,192,76982,1,2,0:0:0:0:
448,192,76982,1,0,0:0:0:0:
64,192,77132,1,0,0:0:0:0:
320,192,77282,1,2,0:0:0:0:
448,192,77282,1,0,0:0:0:0:
64,192,77432,1,8,0:0:0:0:
192,192,77432,1,0,0:0:0:20:Hat Open2.wav
320,192,77432,1,0,0:0:0:0:
448,192,77582,1,0,0:0:0:0:
64,192,77732,1,2,0:0:0:0:
192,192,77732,1,0,0:0:0:0:
64,192,77882,1,2,0:0:0:0:
192,192,77882,1,0,0:0:0:0:
448,192,78032,1,0,0:0:0:20:Hat Open2.wav
320,192,78107,1,0,0:0:0:0:
64,192,78182,1,2,0:0:0:0:
192,192,78182,1,0,0:0:0:0:
192,192,78332,128,2,78932:0:0:0:0:
448,192,78332,1,0,0:0:0:0:
64,192,78632,1,4,0:0:0:0:
320,192,78632,1,8,0:0:0:0:
448,192,78632,1,0,0:0:0:0:
320,192,78782,1,2,0:0:0:0:
448,192,78782,1,0,0:0:0:0:
64,192,78932,1,0,0:0:0:45:tom4.wav
320,192,78932,1,0,0:0:0:0:
192,192,79082,1,2,0:0:0:0:
448,192,79082,1,0,0:0:0:0:
64,192,79232,1,4,0:0:0:0:
192,192,79232,1,2,0:0:0:0:
64,192,79382,1,2,0:0:0:0:
192,192,79382,1,0,0:0:0:0:
448,192,79532,1,0,0:0:0:0:
64,192,79682,1,2,0:0:0:0:
192,192,79682,1,0,0:0:0:0:
192,192,79832,1,8,0:0:0:0:
320,192,79832,1,0,0:0:0:20:Hat Open2.wav
448,192,79832,1,0,0:0:0:0:
64,192,79982,1,0,0:0:0:0:
320,192,80132,1,2,0:0:0:0:
448,192,80132,1,0,0:0:0:0:
320,192,80282,1,2,0:0:0:0:
448,192,80282,1,0,0:0:0:0:
64,192,80432,1,0,0:0:0:20:Hat Open2.wav
192,192,80507,1,0,0:0:0:0:
448,192,80582,1,2,0:0:0:0:
320,192,80582,1,0,0:0:0:0:
192,192,80732,1,2,0:0:0:0:
320,192,80732,1,0,0:0:0:0:
64,192,80882,1,0,0:0:0:0:
64,192,81032,1,8,0:0:0:0:
192,192,81032,128,0,81332:0:0:0:20:Hat Open2.wav
448,192,81032,1,0,0:0:0:0:
320,192,81182,128,0,81482:0:0:0:0:
448,192,81332,128,0,81632:0:0:0:0:
64,192,81632,1,2,0:0:0:0:
192,192,81632,1,0,0:0:0:20:Hat Open2.wav
64,192,81782,1,2,0:0:0:0:
192,192,81782,1,0,0:0:0:0:
448,192,81932,1,0,0:0:0:0:
64,192,82082,1,2,0:0:0:0:
192,192,82082,1,0,0:0:0:0:
192,192,82232,1,8,0:0:0:0:
320,192,82232,1,0,0:0:0:20:Hat Open2.wav
448,192,82232,1,0,0:0:0:0:
64,192,82382,1,0,0:0:0:0:
320,192,82532,1,2,0:0:0:0:
448,192,82532,1,0,0:0:0:0:
320,192,82682,1,2,0:0:0:0:
448,192,82682,1,0,0:0:0:0:
64,192,82832,1,0,0:0:0:20:Hat Open2.wav
192,192,82907,1,0,0:0:0:0:
448,192,82982,1,2,0:0:0:0:
320,192,82982,1,0,0:0:0:0:
192,192,83132,1,2,0:0:0:0:
448,192,83132,128,0,83432:0:0:0:0:
320,192,83282,128,0,83582:0:0:0:0:
64,192,83432,1,8,0:0:0:0:
192,192,83432,128,0,83732:0:0:0:20:Hat Open2.wav
64,192,83732,128,8,84032:0:0:0:0:
320,192,83732,1,0,0:0:0:0:
448,192,83732,1,0,0:0:0:0:
320,192,83882,1,8,0:0:0:0:
448,192,83882,1,0,0:0:0:0:
192,192,84032,1,4,0:0:0:0:
320,192,84032,1,2,0:0:0:0:
320,192,84182,1,2,0:0:0:0:
448,192,84182,1,0,0:0:0:0:
64,192,84332,1,0,0:0:0:0:
320,192,84482,1,2,0:0:0:0:
448,192,84482,1,0,0:0:0:0:
64,192,84632,1,8,0:0:0:0:
192,192,84632,1,0,0:0:0:20:Hat Open2.wav
320,192,84632,1,0,0:0:0:0:
448,192,84782,1,0,0:0:0:0:
64,192,84932,1,2,0:0:0:0:
192,192,84932,1,0,0:0:0:0:
64,192,85082,1,2,0:0:0:0:
192,192,85082,1,0,0:0:0:0:
448,192,85232,1,0,0:0:0:20:Hat Open2.wav
320,192,85307,1,0,0:0:0:0:
192,192,85382,1,2,0:0:0:0:
448,192,85382,1,0,0:0:0:0:
64,192,85532,1,2,0:0:0:0:
192,192,85532,1,0,0:0:0:0:
448,192,85682,1,0,0:0:0:0:
64,192,85832,1,8,0:0:0:0:
320,192,85832,128,0,86132:0:0:0:20:Hat Open2.wav
448,192,85832,1,0,0:0:0:0:
192,192,85982,128,0,86282:0:0:0:0:
64,192,86132,128,2,86432:0:0:0:0:
448,192,86132,1,0,0:0:0:0:
448,192,86282,1,2,0:0:0:0:
192,192,86432,1,8,0:0:0:0:
320,192,86432,1,0,0:0:0:20:Hat Open2.wav
448,192,86432,1,0,0:0:0:0:
192,192,86582,1,0,0:0:0:45:tom2.wav
320,192,86582,1,0,0:0:0:0:
64,192,86732,1,0,0:0:0:45:tom2.wav
448,192,86732,1,0,0:0:0:0:
64,192,86882,1,4,0:0:0:0:
192,192,86882,1,8,0:0:0:0:
320,192,86882,1,0,0:0:0:0:
192,192,87032,1,0,0:0:0:45:tom4.wav
448,192,87032,1,0,0:0:0:0:
64,192,87182,1,0,0:0:0:45:tom4.wav
320,192,87182,1,0,0:0:0:0:
64,192,87332,1,4,0:0:0:0:
192,192,87332,1,8,0:0:0:0:
448,192,87332,1,0,0:0:0:0:
192,192,87482,1,8,0:0:0:0:
320,192,87482,1,0,0:0:0:0:
448,192,87482,1,0,0:0:0:0:
64,192,87632,1,2,0:0:0:0:
320,192,87632,1,0,0:0:0:20:Hat Open2.wav
64,192,87782,1,8,0:0:0:0:
192,192,87782,1,0,0:0:0:0:
448,192,87782,1,0,0:0:0:0:
192,192,87932,1,8,0:0:0:0:
320,192,87932,1,0,0:0:0:0:
448,192,87932,1,0,0:0:0:0:
64,192,88082,1,2,0:0:0:0:
320,192,88082,1,0,0:0:0:20:Hat Open2.wav
64,192,88232,1,8,0:0:0:0:
192,192,88232,1,0,0:0:0:0:
448,192,88232,1,0,0:0:0:0:
320,192,88307,1,2,0:0:0:0:
192,192,88382,1,2,0:0:0:0:
320,192,88457,1,2,0:0:0:0:
64,192,88532,1,8,0:0:0:0:
192,192,88532,1,0,0:0:0:0:
448,192,88532,1,0,0:0:0:0:
64,192,88682,1,8,0:0:0:0:
192,192,88682,1,0,0:0:0:0:
448,192,88682,1,0,0:0:0:0:
64,192,88832,1,4,0:0:0:0:
192,192,88832,1,2,0:0:0:0:
448,192,88832,128,0,90032:0:0:0:0:
64,192,89132,1,2,0:0:0:0:
192,192,89132,1,0,0:0:0:0:
192,192,89282,1,2,0:0:0:0:
320,192,89282,1,0,0:0:0:0:
64,192,89582,1,2,0:0:0:0:
192,192,89582,1,0,0:0:0:0:
64,192,89882,1,2,0:0:0:0:
192,192,89882,1,0,0:0:0:0:
64,192,90032,1,8,0:0:0:0:
192,192,90032,1,4,0:0:0:0:
320,192,90032,1,0,0:0:0:0:
320,192,90332,1,2,0:0:0:0:
448,192,90332,128,0,90632:0:0:0:0:
192,192,90632,1,2,0:0:0:0:
320,192,90632,128,4,90932:0:0:0:0:
64,192,90932,128,2,91232:0:0:0:0:
192,192,90932,1,0,0:0:0:0:
320,192,91082,1,2,0:0:0:0:
448,192,91082,1,0,0:0:0:0:
192,192,91232,1,2,0:0:0:0:
320,192,91232,1,4,0:0:0:0:
448,192,91232,128,0,92132:0:0:0:0:
64,192,91532,1,2,0:0:0:0:
192,192,91532,1,0,0:0:0:0:
64,192,91682,1,2,0:0:0:0:
320,192,91682,1,0,0:0:0:0:
64,192,91982,1,2,0:0:0:0:
192,192,91982,1,0,0:0:0:0:
320,192,92132,128,0,92582:0:0:0:0:
64,192,92282,1,2,0:0:0:0:
192,192,92282,1,0,0:0:0:0:
64,192,92432,1,8,0:0:0:0:
192,192,92432,1,4,0:0:0:0:
448,192,92432,1,0,0:0:0:0:
192,192,92732,128,2,93032:0:0:0:0:
320,192,92732,1,0,0:0:0:0:
64,192,93032,1,8,0:0:0:0:
320,192,93032,128,4,93332:0:0:0:0:
448,192,93032,1,0,0:0:0:0:
192,192,93332,128,2,93632:0:0:0:0:
448,192,93332,1,0,0:0:0:0:
320,192,93482,1,2,0:0:0:0:
448,192,93482,1,0,0:0:0:0:
64,192,93632,1,2,0:0:0:0:
320,192,93632,128,4,94382:0:0:0:0:
448,192,93632,1,0,0:0:0:0:
64,192,93932,1,2,0:0:0:0:
192,192,93932,1,0,0:0:0:0:
64,192,94082,1,2,0:0:0:0:
448,192,94082,1,0,0:0:0:0:
192,192,94232,128,4,94382:0:0:0:0:
64,192,94382,1,2,0:0:0:0:
448,192,94382,1,0,0:0:0:0:
448,192,94532,128,0,94832:0:0:0:0:
64,192,94682,1,2,0:0:0:0:
192,192,94682,1,0,0:0:0:0:
64,192,94832,1,8,0:0:0:0:
192,192,94832,1,4,0:0:0:0:
320,192,94832,1,0,0:0:0:0:
192,192,95132,1,2,0:0:0:0:
448,192,95132,1,0,0:0:0:0:
192,192,95432,1,2,0:0:0:0:
320,192,95432,1,4,0:0:0:0:
448,192,95432,128,0,95732:0:0:0:0:
64,192,95732,128,2,96032:0:0:0:0:
320,192,95732,1,0,0:0:0:0:
320,192,95882,1,2,0:0:0:0:
448,192,95882,1,0,0:0:0:0:
192,192,96032,1,2,0:0:0:0:
320,192,96032,1,4,0:0:0:0:
448,192,96032,128,0,96782:0:0:0:0:
64,192,96332,1,2,0:0:0:0:
320,192,96332,1,0,0:0:0:0:
64,192,96482,1,2,0:0:0:0:
192,192,96482,1,0,0:0:0:0:
64,192,96782,1,2,0:0:0:0:
320,192,96782,1,0,0:0:0:0:
192,192,96932,128,0,97232:0:0:0:0:
320,192,97082,1,2,0:0:0:0:
448,192,97082,1,0,0:0:0:0:
64,192,97232,1,8,0:0:0:0:
320,192,97232,1,4,0:0:0:0:
448,192,97232,1,0,0:0:0:0:
192,192,97532,1,2,0:0:0:0:
320,192,97532,128,0,97832:0:0:0:0:
64,192,97832,1,8,0:0:0:0:
192,192,97832,128,4,98132:0:0:0:0:
448,192,97832,1,0,0:0:0:0:
320,192,97982,1,2,0:0:0:0:
64,192,98132,128,8,98432:0:0:0:0:
320,192,98132,1,0,0:0:0:0:
448,192,98132,1,0,0:0:0:0:
192,192,98282,1,8,0:0:0:0:
320,192,98282,1,0,0:0:0:0:
448,192,98282,1,0,0:0:0:0:
192,192,98432,1,2,0:0:0:0:
320,192,98432,1,4,0:0:0:0:
448,192,98432,128,0,99632:0:0:0:0:
64,192,98732,1,2,0:0:0:0:
192,192,98732,1,0,0:0:0:0:
192,192,98882,1,2,0:0:0:0:
320,192,98882,1,0,0:0:0:0:
64,192,99182,1,2,0:0:0:0:
320,192,99182,1,0,0:0:0:0:
64,192,99482,1,2,0:0:0:0:
192,192,99482,1,0,0:0:0:0:
64,192,99632,1,8,0:0:0:0:
192,192,99632,1,4,0:0:0:0:
320,192,99632,1,0,0:0:0:0:
64,192,99932,128,2,100232:0:0:0:0:
320,192,99932,1,0,0:0:0:0:
192,192,100232,1,2,0:0:0:0:
320,192,100232,128,4,100532:0:0:0:0:
64,192,100532,128,2,100832:0:0:0:0:
448,192,100532,1,0,0:0:0:0:
320,192,100682,1,2,0:0:0:0:
448,192,100682,1,0,0:0:0:0:
192,192,100832,1,2,0:0:0:0:
320,192,100832,1,4,0:0:0:0:
448,192,100832,128,0,101432:0:0:0:0:
64,192,101132,1,2,0:0:0:0:
192,192,101132,1,0,0:0:0:0:
64,192,101282,1,2,0:0:0:0:
320,192,101282,1,0,0:0:0:0:
192,192,101582,1,2,0:0:0:0:
448,192,101582,1,0,0:0:0:0:
64,192,101732,128,0,102332:0:0:0:0:
320,192,101882,1,2,0:0:0:0:
448,192,101882,1,0,0:0:0:0:
192,192,102032,1,8,0:0:0:0:
320,192,102032,1,4,0:0:0:0:
448,192,102032,1,0,0:0:0:0:
192,192,102332,128,2,102632:0:0:0:0:
320,192,102332,1,0,0:0:0:0:
320,192,102632,128,2,102932:0:0:0:0:
448,192,102632,1,4,0:0:0:0:
192,192,102932,1,2,0:0:0:0:
448,192,102932,128,0,103232:0:0:0:0:
64,192,103082,1,2,0:0:0:0:
192,192,103082,1,0,0:0:0:0:
64,192,103232,128,2,104132:0:0:0:0:
192,192,103232,1,4,0:0:0:0:
320,192,103232,1,0,0:0:0:0:
192,192,103532,1,2,0:0:0:0:
448,192,103532,1,0,0:0:0:0:
192,192,103682,1,2,0:0:0:0:
320,192,103682,1,0,0:0:0:0:
320,192,103982,1,2,0:0:0:0:
448,192,103982,1,0,0:0:0:0:
448,192,104132,128,0,105032:0:0:0:0:
64,192,104282,1,2,0:0:0:0:
192,192,104282,1,0,0:0:0:0:
64,192,104432,1,8,0:0:0:0:
192,192,104432,1,4,0:0:0:0:
320,192,104432,1,0,0:0:0:0:
64,192,104732,1,2,0:0:0:0:
320,192,104732,1,0,0:0:0:0:
64,192,105032,128,2,105332:0:0:0:0:
192,192,105032,1,4,0:0:0:0:
320,192,105332,1,2,0:0:0:0:
448,192,105332,1,0,0:0:0:0:
192,192,105482,1,2,0:0:0:0:
448,192,105482,1,0,0:0:0:0:
192,192,105632,1,2,0:0:0:0:
320,192,105632,128,4,106532:0:0:0:0:
64,192,105932,1,2,0:0:0:0:
192,192,105932,1,0,0:0:0:0:
192,192,106082,1,2,0:0:0:0:
448,192,106082,1,0,0:0:0:0:
64,192,106382,1,2,0:0:0:0:
448,192,106382,1,0,0:0:0:0:
192,192,106532,128,0,106682:0:0:0:0:
64,192,106682,1,2,0:0:0:0:
448,192,106682,1,0,0:0:0:0:
320,192,106757,1,2,0:0:0:0:
64,192,106832,1,8,0:0:0:0:
192,192,106832,1,0,0:0:0:0:
448,192,106832,1,0,0:0:0:0:
192,192,106982,1,2,0:0:0:0:
320,192,106982,1,0,0:0:0:0:
64,192,107132,128,2,107282:0:0:0:0:
320,192,107132,1,0,0:0:0:0:
448,192,107282,1,2,0:0:0:0:
192,192,107282,1,0,0:0:0:0:
320,192,107432,1,8,0:0:0:0:
192,192,107432,128,0,107582:0:0:0:0:
64,192,107432,1,0,0:0:0:0:
448,192,107582,1,0,0:0:0:45:tom2.wav
320,192,107732,128,0,107882:0:0:0:45:tom3.wav
64,192,107882,1,0,0:0:0:45:tom4.wav
192,192,108032,1,2,0:0:0:0:
320,192,108032,1,4,0:0:0:0:
448,192,108032,128,0,108632:0:0:0:0:
64,192,108332,1,2,0:0:0:0:
192,192,108332,1,0,0:0:0:0:
64,192,108482,1,2,0:0:0:0:
320,192,108482,1,0,0:0:0:0:
192,192,108632,128,4,109232:0:0:0:0:
64,192,108782,1,2,0:0:0:0:
448,192,108782,1,0,0:0:0:0:
320,192,109082,1,2,0:0:0:0:
448,192,109082,1,0,0:0:0:0:
64,192,109232,1,8,0:0:0:0:
320,192,109232,1,4,0:0:0:0:
448,192,109232,128,0,109382:0:0:0:0:
64,192,109532,1,2,0:0:0:0:
192,192,109532,128,0,109682:0:0:0:0:
192,192,109832,1,2,0:0:0:0:
320,192,109832,128,4,109982:0:0:0:0:
64,192,110132,128,2,110282:0:0:0:0:
192,192,110132,1,0,0:0:0:0:
320,192,110282,1,2,0:0:0:0:
448,192,110282,1,0,0:0:0:0:
192,192,110432,128,2,111032:0:0:0:0:
320,192,110432,1,4,0:0:0:0:
448,192,110432,1,0,0:0:0:0:
320,192,110732,1,2,0:0:0:0:
448,192,110732,1,0,0:0:0:0:
64,192,110882,1,2,0:0:0:0:
448,192,110882,1,0,0:0:0:0:
320,192,111032,128,4,111482:0:0:0:0:
192,192,111182,1,2,0:0:0:0:
448,192,111182,1,0,0:0:0:0:
64,192,111482,1,2,0:0:0:0:
448,192,111482,1,0,0:0:0:0:
64,192,111632,1,8,0:0:0:0:
192,192,111632,1,4,0:0:0:0:
448,192,111632,1,0,0:0:0:0:
192,192,111932,128,2,112232:0:0:0:0:
320,192,111932,1,0,0:0:0:0:
64,192,112232,1,8,0:0:0:0:
320,192,112232,128,4,112532:0:0:0:0:
448,192,112232,1,0,0:0:0:0:
192,192,112532,128,2,112682:0:0:0:0:
448,192,112532,1,0,0:0:0:0:
64,192,112682,1,2,0:0:0:0:
320,192,112682,1,0,0:0:0:0:
64,192,112832,1,2,0:0:0:0:
320,192,112832,128,4,113432:0:0:0:0:
448,192,112832,1,0,0:0:0:0:
64,192,113132,1,2,0:0:0:0:
448,192,113132,1,0,0:0:0:0:
64,192,113282,1,2,0:0:0:0:
192,192,113282,1,0,0:0:0:0:
192,192,113432,128,4,113882:0:0:0:0:
64,192,113582,1,2,0:0:0:0:
448,192,113582,1,0,0:0:0:0:
64,192,113882,1,2,0:0:0:0:
320,192,113882,1,0,0:0:0:0:
192,192,114032,1,8,0:0:0:0:
320,192,114032,1,4,0:0:0:0:
448,192,114032,1,0,0:0:0:0:
64,192,114332,128,2,114482:0:0:0:0:
192,192,114332,1,0,0:0:0:0:
192,192,114632,128,2,114782:0:0:0:0:
320,192,114632,1,4,0:0:0:0:
320,192,114932,1,2,0:0:0:0:
448,192,114932,128,0,115082:0:0:0:0:
64,192,115082,1,2,0:0:0:0:
192,192,115082,1,0,0:0:0:0:
64,192,115232,1,2,0:0:0:0:
192,192,115232,1,4,0:0:0:0:
320,192,115232,128,0,115982:0:0:0:0:
64,192,115532,1,2,0:0:0:0:
192,192,115532,1,0,0:0:0:0:
192,192,115682,1,2,0:0:0:0:
448,192,115682,1,0,0:0:0:0:
64,192,115982,1,2,0:0:0:0:
448,192,115982,1,0,0:0:0:0:
192,192,116132,128,0,116732:0:0:0:0:
320,192,116282,1,2,0:0:0:0:
448,192,116282,1,0,0:0:0:0:
64,192,116432,1,8,0:0:0:0:
320,192,116432,1,4,0:0:0:0:
448,192,116432,1,0,0:0:0:0:
64,192,116732,1,2,0:0:0:0:
320,192,116732,1,0,0:0:0:0:
64,192,117032,128,8,117482:0:0:0:0:
320,192,117032,1,0,0:0:0:0:
448,192,117032,1,0,0:0:0:0:
320,192,117182,1,0,0:0:0:45:tom2.wav
448,192,117182,1,0,0:0:0:0:
320,192,117332,1,0,0:0:0:45:tom3.wav
448,192,117332,1,0,0:0:0:0:
192,192,117482,1,8,0:0:0:0:
320,192,117482,1,0,0:0:0:0:
448,192,117482,1,0,0:0:0:0:
192,192,117632,1,2,0:0:0:0:
320,192,117632,1,4,0:0:0:0:
448,192,117632,128,0,118382:0:0:0:0:
64,192,117932,1,2,0:0:0:0:
320,192,117932,1,0,0:0:0:0:
64,192,118082,1,2,0:0:0:0:
192,192,118082,1,0,0:0:0:0:
64,192,118382,1,2,0:0:0:0:
192,192,118382,1,0,0:0:0:0:
320,192,118532,128,0,118682:0:0:0:0:
192,192,118682,1,2,0:0:0:0:
448,192,118682,1,0,0:0:0:0:
64,192,118832,1,8,0:0:0:0:
192,192,118832,1,4,0:0:0:0:
448,192,118832,128,0,119732:0:0:0:0:
64,192,119132,1,2,0:0:0:0:
320,192,119132,1,0,0:0:0:0:
64,192,119432,1,2,0:0:0:0:
192,192,119432,1,4,0:0:0:0:
64,192,119732,1,2,0:0:0:0:
192,192,119732,1,0,0:0:0:0:
192,192,119882,1,2,0:0:0:0:
448,192,119882,1,0,0:0:0:0:
64,192,120032,1,2,0:0:0:0:
320,192,120032,1,4,0:0:0:0:
64,192,120332,1,2,0:0:0:0:
192,192,120332,128,0,120632:0:0:0:0:
320,192,120482,1,2,0:0:0:0:
448,192,120482,1,0,0:0:0:0:
64,192,120632,128,4,120782:0:0:0:0:
192,192,120782,1,2,0:0:0:0:
448,192,120782,1,0,0:0:0:0:
320,192,120932,128,0,121232:0:0:0:0:
64,192,121082,1,2,0:0:0:0:
192,192,121082,1,0,0:0:0:0:
64,192,121232,1,8,0:0:0:0:
192,192,121232,128,4,121382:0:0:0:0:
448,192,121232,1,0,0:0:0:0:
64,192,121532,128,2,121832:0:0:0:0:
320,192,121532,1,0,0:0:0:0:
192,192,121832,1,8,0:0:0:0:
320,192,121832,128,4,121982:0:0:0:0:
448,192,121832,1,0,0:0:0:0:
64,192,121982,1,2,0:0:0:0:
192,192,121982,1,0,0:0:0:0:
320,192,122132,1,0,0:0:0:0:
448,192,122132,128,0,122282:0:0:0:0:
64,192,122282,1,2,0:0:0:0:
192,192,122282,1,0,0:0:0:0:
64,192,122432,1,2,0:0:0:0:
192,192,122432,128,4,123182:0:0:0:0:
448,192,122432,1,0,0:0:0:0:
320,192,122732,1,2,0:0:0:0:
448,192,122732,1,0,0:0:0:0:
64,192,122882,1,2,0:0:0:0:
320,192,122882,1,0,0:0:0:0:
64,192,123182,1,2,0:0:0:0:
448,192,123182,1,0,0:0:0:0:
64,192,123482,1,2,0:0:0:0:
192,192,123482,1,0,0:0:0:0:
64,192,123632,1,8,0:0:0:0:
320,192,123632,128,4,124682:0:0:0:0:
448,192,123632,1,0,0:0:0:0:
192,192,123932,1,2,0:0:0:0:
448,192,123932,1,0,0:0:0:0:
64,192,124232,1,2,0:0:0:0:
448,192,124232,1,4,0:0:0:0:
64,192,124532,1,2,0:0:0:0:
192,192,124532,1,0,0:0:0:0:
192,192,124682,1,2,0:0:0:0:
448,192,124682,1,0,0:0:0:0:
64,192,124832,1,2,0:0:0:0:
448,192,124832,128,4,125882:0:0:0:0:
64,192,125132,1,2,0:0:0:0:
192,192,125132,1,0,0:0:0:0:
192,192,125282,1,2,0:0:0:0:
320,192,125282,1,0,0:0:0:0:
64,192,125582,1,2,0:0:0:0:
320,192,125582,1,0,0:0:0:0:
64,192,125882,1,2,0:0:0:0:
320,192,125882,1,0,0:0:0:0:
192,192,125957,1,2,0:0:0:0:
64,192,126032,1,8,0:0:0:0:
320,192,126032,1,0,0:0:0:0:
448,192,126032,1,0,0:0:0:0:
192,192,126182,1,2,0:0:0:0:
448,192,126182,1,0,0:0:0:0:
64,192,126332,1,2,0:0:0:0:
192,192,126332,1,0,0:0:0:0:
64,192,126482,1,2,0:0:0:0:
320,192,126482,1,0,0:0:0:0:
320,192,126632,1,8,0:0:0:0:
448,192,126632,1,0,0:0:0:0:
64,192,126707,1,8,0:0:0:0:
192,192,126707,1,0,0:0:0:0:
320,192,126782,1,8,0:0:0:0:
448,192,126782,1,0,0:0:0:0:
320,192,126932,1,8,0:0:0:0:
448,192,126932,1,0,0:0:0:0:
320,192,127082,1,8,0:0:0:0:
448,192,127082,1,0,0:0:0:0:
64,192,127232,1,2,0:0:0:0:
192,192,127232,1,4,0:0:0:0:
448,192,127232,128,0,127382:0:0:0:0:
320,192,127382,128,0,127532:0:0:0:0:
192,192,127532,128,2,127682:0:0:0:0:
448,192,127682,128,0,127832:0:0:0:0:
64,192,127832,1,4,0:0:0:0:
192,192,127832,128,8,127982:0:0:0:0:
320,192,127982,128,0,128132:0:0:0:0:
448,192,128132,128,0,128282:0:0:0:0:
192,192,128282,128,0,128432:0:0:0:0:
64,192,128432,1,4,0:0:0:0:
320,192,128432,128,2,128582:0:0:0:0:
448,192,128582,128,0,128732:0:0:0:0:
192,192,128732,128,0,128882:0:0:0:0:
448,192,128882,128,0,129032:0:0:0:0:
192,192,129032,1,4,0:0:0:0:
64,192,129032,128,8,129182:0:0:0:0:
320,192,129032,1,0,0:0:0:0:
192,192,129182,128,0,129332:0:0:0:0:
320,192,129332,128,0,129482:0:0:0:0:
448,192,129482,128,0,129632:0:0:0:0:
192,192,129632,1,4,0:0:0:0:
64,192,129632,128,2,129932:0:0:0:0:
192,192,129782,128,0,130082:0:0:0:0:
320,192,129932,128,0,130232:0:0:0:0:
448,192,130232,1,4,0:0:0:0:
64,192,130232,128,8,130382:0:0:0:0:
192,192,130232,1,0,0:0:0:0:
192,192,130382,128,0,130532:0:0:0:0:
320,192,130532,128,0,130682:0:0:0:0:
64,192,130682,128,0,130832:0:0:0:0:
320,192,130832,128,4,130982:0:0:0:0:
448,192,130832,1,2,0:0:0:0:
192,192,130982,128,0,131132:0:0:0:0:
64,192,131132,128,2,131282:0:0:0:0:
448,192,131132,1,0,0:0:0:0:
192,192,131282,128,0,131432:0:0:0:0:
64,192,131432,1,4,0:0:0:0:
448,192,131432,128,8,131582:0:0:0:0:
320,192,131432,1,0,0:0:0:0:
64,192,131582,1,2,0:0:0:0:
320,192,131582,128,0,131732:0:0:0:0:
192,192,131732,128,0,131882:0:0:0:0:
448,192,131882,1,2,0:0:0:0:
64,192,131882,128,0,132032:0:0:0:0:
448,192,132032,1,4,0:0:0:0:
192,192,132032,128,2,132482:0:0:0:0:
320,192,132032,1,0,0:0:0:0:
320,192,132332,128,0,132632:0:0:0:0:
64,192,132632,1,4,0:0:0:0:
192,192,132632,1,8,0:0:0:0:
448,192,132632,128,0,132782:0:0:0:0:
192,192,132782,128,0,132932:0:0:0:0:
64,192,132857,128,0,132932:0:0:0:0:
448,192,132932,128,0,133082:0:0:0:0:
320,192,133082,128,0,133232:0:0:0:0:
192,192,133232,128,4,133382:0:0:0:0:
448,192,133232,1,2,0:0:0:0:
64,192,133307,128,0,133382:0:0:0:0:
448,192,133382,128,0,133532:0:0:0:0:
64,192,133532,128,0,133682:0:0:0:0:
192,192,133682,128,0,133832:0:0:0:0:
320,192,133757,128,0,133832:0:0:0:0:
64,192,133832,1,4,0:0:0:0:
448,192,133832,128,8,133982:0:0:0:0:
320,192,133982,128,0,134132:0:0:0:0:
192,192,134132,128,0,134282:0:0:0:0:
64,192,134282,128,0,134432:0:0:0:0:
192,192,134432,1,4,0:0:0:0:
320,192,134432,1,2,0:0:0:0:
448,192,134432,128,0,134882:0:0:0:0:
320,192,134582,128,0,134882:0:0:0:0:
192,192,134732,128,0,134882:0:0:0:0:
192,192,135032,1,8,0:0:0:0:
320,192,135032,1,0,0:0:0:0:
64,192,135032,128,4,135182:0:0:0:0:
448,192,135182,128,0,135332:0:0:0:0:
320,192,135332,128,0,135482:0:0:0:0:
64,192,135482,1,2,0:0:0:0:
192,192,135557,1,2,0:0:0:0:
64,192,135632,1,8,0:0:0:0:
320,192,135632,1,0,0:0:0:0:
448,192,135632,1,0,0:0:0:0:
64,192,135782,1,2,0:0:0:0:
192,192,135782,1,0,0:0:0:0:
64,192,135932,1,2,0:0:0:0:
192,192,135932,1,0,0:0:0:0:
64,192,136082,1,8,0:0:0:0:
320,192,136082,1,0,0:0:0:0:
448,192,136082,1,0,0:0:0:0:
320,192,136232,1,2,0:0:0:0:
448,192,136232,1,0,0:0:0:0:
320,192,136382,1,2,0:0:0:0:
448,192,136382,1,0,0:0:0:0:
64,192,136532,1,8,0:0:0:0:
192,192,136532,1,0,0:0:0:0:
448,192,136532,1,0,0:0:0:0:
64,192,136682,1,2,0:0:0:0:
192,192,136682,1,0,0:0:0:0:
64,192,136832,128,4,136982:0:0:0:0:
320,192,136832,1,2,0:0:0:0:
448,192,136832,1,0,0:0:0:0:
192,192,136982,128,0,137132:0:0:0:0:
320,192,137132,128,0,137282:0:0:0:0:
64,192,137282,128,0,137432:0:0:0:0:
192,192,137432,1,4,0:0:0:0:
320,192,137432,128,8,137582:0:0:0:0:
448,192,137432,1,0,0:0:0:0:
192,192,137582,128,0,137732:0:0:0:0:
64,192,137732,128,0,137882:0:0:0:0:
320,192,137882,128,0,138032:0:0:0:0:
192,192,138032,128,4,138182:0:0:0:0:
448,192,138032,1,2,0:0:0:0:
64,192,138182,128,0,138332:0:0:0:0:
320,192,138332,128,0,138482:0:0:0:0:
192,192,138482,128,0,138632:0:0:0:0:
64,192,138632,1,4,0:0:0:0:
320,192,138632,1,8,0:0:0:0:
448,192,138632,128,0,138782:0:0:0:0:
320,192,138782,128,0,138932:0:0:0:0:
192,192,138932,128,0,139082:0:0:0:0:
64,192,139082,128,0,139232:0:0:0:0:
192,192,139232,128,2,139532:0:0:0:0:
320,192,139232,1,0,0:0:0:0:
448,192,139232,1,0,0:0:0:0:
320,192,139382,128,0,139682:0:0:0:0:
448,192,139532,128,0,139832:0:0:0:0:
64,192,139832,1,4,0:0:0:0:
192,192,139832,1,8,0:0:0:0:
320,192,139832,128,0,139982:0:0:0:0:
192,192,139982,128,0,140132:0:0:0:0:
64,192,140132,128,0,140282:0:0:0:0:
320,192,140282,128,0,140432:0:0:0:0:
192,192,140432,128,4,140582:0:0:0:0:
448,192,140432,1,2,0:0:0:0:
64,192,140507,128,0,140582:0:0:0:0:
448,192,140582,128,0,140732:0:0:0:0:
64,192,140732,128,2,140882:0:0:0:0:
320,192,140732,1,0,0:0:0:0:
192,192,140882,128,0,141032:0:0:0:0:
448,192,140957,128,0,141032:0:0:0:0:
64,192,141032,128,4,141332:0:0:0:0:
320,192,141032,128,8,141182:0:0:0:0:
192,192,141182,128,2,141332:0:0:0:0:
320,192,141332,128,0,141632:0:0:0:0:
64,192,141482,1,2,0:0:0:0:
192,192,141482,128,0,141632:0:0:0:0:
448,192,141482,1,0,0:0:0:0:
64,192,141632,1,4,0:0:0:0:
448,192,141632,128,2,142082:0:0:0:0:
320,192,141782,128,0,142082:0:0:0:0:
64,192,141932,1,2,0:0:0:0:
192,192,141932,128,0,142082:0:0:0:0:
192,192,142232,1,8,0:0:0:0:
320,192,142232,1,0,0:0:0:0:
64,192,142232,128,4,142382:0:0:0:0:
448,192,142382,128,2,142532:0:0:0:0:
320,192,142532,128,0,142682:0:0:0:0:
192,192,142682,128,2,142832:0:0:0:0:
64,192,142832,1,4,0:0:0:0:
448,192,142832,128,2,142982:0:0:0:0:
320,192,142982,128,0,143132:0:0:0:0:
64,192,143132,1,2,0:0:0:0:
192,192,143132,128,0,143282:0:0:0:0:
320,192,143282,128,2,143432:0:0:0:0:
64,192,143432,128,4,143582:0:0:0:0:
192,192,143432,1,8,0:0:0:0:
448,192,143432,1,0,0:0:0:0:
192,192,143582,128,2,143732:0:0:0:0:
320,192,143732,128,2,143882:0:0:0:0:
192,192,143882,1,8,0:0:0:0:
448,192,143882,128,0,144032:0:0:0:0:
64,192,143882,1,0,0:0:0:0:
64,192,144032,1,4,0:0:0:0:
192,192,144032,1,2,0:0:0:0:
320,192,144107,1,2,0:0:0:0:
448,192,144182,1,2,0:0:0:0:
64,192,144332,1,8,0:0:0:0:
192,192,144332,1,0,0:0:0:0:
448,192,144332,1,0,0:0:0:0:
320,192,144482,1,2,0:0:0:0:
192,192,144557,1,2,0:0:0:0:
320,192,144632,1,6,0:0:0:0:
64,192,144782,1,8,0:0:0:0:
192,192,144782,1,0,0:0:0:0:
448,192,144782,1,0,0:0:0:0:
64,192,144932,1,2,0:0:0:0:
192,192,145007,1,2,0:0:0:0:
320,192,145082,1,2,0:0:0:0:
448,192,145157,1,2,0:0:0:0:
64,192,145232,1,4,0:0:0:0:
192,192,145232,1,8,0:0:0:0:
320,192,145307,1,0,0:0:0:45:tom2.wav
192,192,145382,1,0,0:0:0:45:tom3.wav
64,192,145457,1,0,0:0:0:45:tom4.wav
192,192,145532,1,2,0:0:0:0:
64,192,145607,1,2,0:0:0:0:
320,192,145682,1,4,0:0:0:0:
448,192,145682,1,8,0:0:0:0:
64,192,145757,1,0,0:0:0:45:tom2.wav
320,192,145832,1,0,0:0:0:45:tom2.wav
192,192,145907,1,0,0:0:0:45:tom3.wav
320,192,145982,1,0,0:0:0:45:tom4.wav
192,192,146057,1,8,0:0:0:0:
320,192,146132,1,8,0:0:0:0:
448,192,146132,1,0,0:0:0:0:
64,192,146207,1,8,0:0:0:0:
192,192,146207,1,0,0:0:0:0:
320,192,146282,1,8,0:0:0:0:
448,192,146282,1,0,0:0:0:0:
64,192,146357,1,8,0:0:0:0:
192,192,146357,1,0,0:0:0:0:
320,192,146432,1,4,0:0:0:0:
448,192,146432,1,2,0:0:0:0:
64,192,146582,1,2,0:0:0:0:
192,192,146582,1,0,0:0:0:0:
192,192,146732,128,8,146882:0:0:0:0:
320,192,146732,1,0,0:0:0:20:Hat Open2.wav
448,192,146732,1,0,0:0:0:0:
64,192,146882,1,2,0:0:0:0:
320,192,146882,1,0,0:0:0:0:
64,192,147032,1,2,0:0:0:0:
192,192,147032,128,0,147182:0:0:0:20:Hat Open2.wav
320,192,147182,1,2,0:0:0:0:
448,192,147182,1,0,0:0:0:0:
64,192,147332,1,8,0:0:0:0:
192,192,147332,1,0,0:0:0:20:Hat Open2.wav
448,192,147332,128,0,147482:0:0:0:0:
192,192,147482,128,2,147632:0:0:0:0:
320,192,147482,1,0,0:0:0:0:
64,192,147632,1,2,0:0:0:0:
320,192,147632,1,0,0:0:0:20:Hat Open2.wav
64,192,147782,1,2,0:0:0:0:
448,192,147782,128,0,147932:0:0:0:0:
64,192,147932,1,8,0:0:0:0:
192,192,147932,1,0,0:0:0:20:Hat Open2.wav
320,192,147932,1,0,0:0:0:0:
192,192,148082,128,2,148232:0:0:0:0:
448,192,148082,1,0,0:0:0:0:
64,192,148232,1,2,0:0:0:0:
320,192,148232,1,0,0:0:0:20:Hat Open2.wav
448,192,148232,128,0,148382:0:0:0:0:
192,192,148382,1,2,0:0:0:0:
320,192,148382,1,0,0:0:0:0:
64,192,148532,128,8,148682:0:0:0:0:
192,192,148532,1,0,0:0:0:20:Hat Open2.wav
448,192,148532,1,0,0:0:0:0:
192,192,148682,128,2,148832:0:0:0:0:
320,192,148682,1,0,0:0:0:0:
320,192,148832,1,4,0:0:0:0:
448,192,148832,1,2,0:0:0:0:
64,192,148982,128,2,149132:0:0:0:0:
448,192,148982,1,0,0:0:0:0:
192,192,149132,128,8,149282:0:0:0:0:
320,192,149132,1,0,0:0:0:20:Hat Open2.wav
448,192,149132,1,0,0:0:0:0:
64,192,149282,1,2,0:0:0:0:
320,192,149282,128,0,149432:0:0:0:0:
192,192,149432,1,2,0:0:0:0:
448,192,149432,128,0,149582:0:0:0:20:Hat Open2.wav
64,192,149582,1,2,0:0:0:0:
320,192,149582,1,0,0:0:0:0:
64,192,149732,1,8,0:0:0:0:
192,192,149732,128,0,149882:0:0:0:20:Hat Open2.wav
448,192,149732,1,0,0:0:0:0:
320,192,149882,128,2,150032:0:0:0:0:
448,192,149882,1,0,0:0:0:0:
64,192,150032,1,2,0:0:0:0:
192,192,150032,1,4,0:0:0:0:
192,192,150182,128,2,150332:0:0:0:0:
448,192,150182,1,0,0:0:0:0:
64,192,150332,1,8,0:0:0:0:
320,192,150332,1,0,0:0:0:20:Hat Open2.wav
448,192,150332,128,0,150482:0:0:0:0:
64,192,150482,128,2,150632:0:0:0:0:
320,192,150482,1,0,0:0:0:0:
192,192,150632,128,2,150932:0:0:0:0:
448,192,150632,1,4,0:0:0:0:
320,192,150782,1,2,0:0:0:0:
448,192,150782,1,0,0:0:0:0:
64,192,150932,1,8,0:0:0:0:
320,192,150932,1,0,0:0:0:20:Hat Open2.wav
448,192,150932,1,0,0:0:0:0:
64,192,151082,1,2,0:0:0:0:
192,192,151082,1,0,0:0:0:0:
320,192,151157,1,8,0:0:0:0:
448,192,151157,1,0,0:0:0:0:
64,192,151232,1,2,0:0:0:0:
192,192,151232,1,4,0:0:0:0:
320,192,151382,1,2,0:0:0:0:
448,192,151382,1,0,0:0:0:0:
64,192,151532,1,8,0:0:0:0:
192,192,151532,1,0,0:0:0:20:Hat Open2.wav
320,192,151532,128,0,151682:0:0:0:0:
192,192,151682,1,2,0:0:0:0:
448,192,151682,1,0,0:0:0:0:
64,192,151832,1,2,0:0:0:0:
320,192,151832,128,0,151982:0:0:0:20:Hat Open2.wav
64,192,151982,1,2,0:0:0:0:
192,192,151982,1,0,0:0:0:0:
64,192,152132,128,8,152282:0:0:0:0:
320,192,152132,1,0,0:0:0:20:Hat Open2.wav
448,192,152132,1,0,0:0:0:0:
192,192,152282,128,2,152432:0:0:0:0:
448,192,152282,1,0,0:0:0:0:
320,192,152432,1,2,0:0:0:0:
448,192,152432,128,0,152732:0:0:0:20:Hat Open2.wav
64,192,152582,1,2,0:0:0:0:
192,192,152582,1,0,0:0:0:0:
64,192,152732,128,8,152882:0:0:0:0:
192,192,152732,1,0,0:0:0:20:Hat Open2.wav
320,192,152732,1,0,0:0:0:0:
192,192,152882,128,2,153182:0:0:0:0:
448,192,152882,1,0,0:0:0:0:
320,192,153032,1,2,0:0:0:0:
448,192,153032,1,0,0:0:0:20:Hat Open2.wav
64,192,153182,1,2,0:0:0:0:
320,192,153182,1,0,0:0:0:0:
192,192,153332,1,8,0:0:0:0:
320,192,153332,128,0,153482:0:0:0:20:Hat Open2.wav
448,192,153332,1,0,0:0:0:0:
64,192,153482,1,2,0:0:0:0:
192,192,153482,1,0,0:0:0:0:
64,192,153632,1,2,0:0:0:0:
448,192,153632,128,4,153782:0:0:0:0:
192,192,153782,1,2,0:0:0:0:
320,192,153782,128,0,153932:0:0:0:0:
64,192,153932,1,8,0:0:0:0:
192,192,153932,128,0,154082:0:0:0:20:Hat Open2.wav
448,192,153932,1,0,0:0:0:0:
320,192,154082,1,2,0:0:0:0:
64,192,154232,128,2,154382:0:0:0:0:
192,192,154232,1,0,0:0:0:20:Hat Open2.wav
192,192,154382,128,2,154532:0:0:0:0:
320,192,154382,1,0,0:0:0:0:
64,192,154532,1,8,0:0:0:0:
320,192,154532,128,0,154682:0:0:0:20:Hat Open2.wav
448,192,154532,1,0,0:0:0:0:
64,192,154682,128,2,154832:0:0:0:0:
192,192,154682,1,0,0:0:0:0:
192,192,154832,128,8,154982:0:0:0:0:
320,192,154832,1,4,0:0:0:0:
448,192,154832,1,0,0:0:0:0:
320,192,154982,1,2,0:0:0:0:
64,192,155132,128,2,155282:0:0:0:0:
192,192,155132,1,0,0:0:0:20:Hat Open2.wav
448,192,155132,1,0,0:0:0:0:
448,192,155282,1,2,0:0:0:0:
320,192,155357,1,2,0:0:0:0:
64,192,155432,1,8,0:0:0:0:
192,192,155432,1,0,0:0:0:20:Hat Open2.wav
448,192,155432,1,0,0:0:0:0:
320,192,155582,1,2,0:0:0:0:
448,192,155582,1,0,0:0:0:0:
64,192,155732,1,2,0:0:0:0:
320,192,155732,1,0,0:0:0:20:Hat Open2.wav
192,192,155882,1,8,0:0:0:0:
320,192,155882,1,0,0:0:0:0:
448,192,155882,1,0,0:0:0:0:
64,192,156032,1,2,0:0:0:0:
192,192,156032,1,4,0:0:0:0:
64,192,156182,1,2,0:0:0:0:
448,192,156182,1,0,0:0:0:0:
192,192,156332,128,8,156482:0:0:0:0:
320,192,156332,1,0,0:0:0:20:Hat Open2.wav
448,192,156332,1,0,0:0:0:0:
64,192,156482,1,2,0:0:0:0:
320,192,156482,1,0,0:0:0:0:
192,192,156632,128,2,157232:0:0:0:0:
448,192,156632,1,0,0:0:0:20:Hat Open2.wav
320,192,156782,1,2,0:0:0:0:
448,192,156782,1,0,0:0:0:0:
64,192,156932,1,8,0:0:0:0:
320,192,156932,1,0,0:0:0:20:Hat Open2.wav
448,192,156932,1,0,0:0:0:0:
320,192,157082,1,2,0:0:0:0:
448,192,157082,1,0,0:0:0:0:
64,192,157232,1,2,0:0:0:0:
448,192,157232,1,0,0:0:0:20:Hat Open2.wav
192,192,157307,1,2,0:0:0:0:
64,192,157382,1,2,0:0:0:0:
320,192,157382,1,0,0:0:0:0:
64,192,157532,128,8,157682:0:0:0:0:
320,192,157532,1,0,0:0:0:20:Hat Open2.wav
448,192,157532,1,0,0:0:0:0:
192,192,157682,1,2,0:0:0:0:
448,192,157682,1,0,0:0:0:0:
64,192,157832,128,2,158432:0:0:0:0:
320,192,157832,1,0,0:0:0:20:Hat Open2.wav
320,192,157982,1,2,0:0:0:0:
448,192,157982,1,0,0:0:0:0:
192,192,158132,1,8,0:0:0:0:
320,192,158132,1,0,0:0:0:20:Hat Open2.wav
448,192,158132,1,0,0:0:0:0:
320,192,158282,1,2,0:0:0:0:
448,192,158282,1,0,0:0:0:0:
192,192,158432,1,2,0:0:0:0:
448,192,158432,1,4,0:0:0:0:
320,192,158507,1,2,0:0:0:0:
64,192,158582,1,2,0:0:0:0:
192,192,158582,1,0,0:0:0:0:
64,192,158732,1,8,0:0:0:0:
192,192,158732,1,0,0:0:0:20:Hat Open2.wav
448,192,158732,128,0,158882:0:0:0:0:
192,192,158882,128,2,159032:0:0:0:0:
320,192,158882,1,0,0:0:0:0:
64,192,159032,1,2,0:0:0:0:
320,192,159032,128,0,159182:0:0:0:20:Hat Open2.wav
192,192,159182,1,2,0:0:0:0:
448,192,159182,1,0,0:0:0:0:
64,192,159332,128,8,159482:0:0:0:0:
320,192,159332,1,0,0:0:0:20:Hat Open2.wav
448,192,159332,1,0,0:0:0:0:
192,192,159482,1,2,0:0:0:0:
320,192,159482,128,0,159782:0:0:0:0:
64,192,159632,1,2,0:0:0:0:
192,192,159632,1,4,0:0:0:0:
192,192,159782,128,2,160082:0:0:0:0:
448,192,159782,1,0,0:0:0:0:
64,192,159932,1,8,0:0:0:0:
320,192,159932,1,0,0:0:0:20:Hat Open2.wav
448,192,159932,1,0,0:0:0:0:
64,192,160082,1,2,0:0:0:0:
320,192,160082,128,0,160232:0:0:0:0:
192,192,160232,1,2,0:0:0:0:
448,192,160232,128,4,160382:0:0:0:0:
64,192,160382,1,2,0:0:0:0:
320,192,160382,1,0,0:0:0:0:
192,192,160532,1,8,0:0:0:0:
320,192,160532,1,0,0:0:0:20:Hat Open2.wav
448,192,160532,1,0,0:0:0:0:
64,192,160682,1,2,0:0:0:0:
192,192,160682,1,0,0:0:0:0:
320,192,160757,1,8,0:0:0:0:
448,192,160757,1,0,0:0:0:0:
64,192,160832,1,2,0:0:0:0:
192,192,160832,1,4,0:0:0:0:
64,192,160982,1,2,0:0:0:0:
448,192,160982,128,0,161132:0:0:0:0:
64,192,161132,1,8,0:0:0:0:
192,192,161132,1,0,0:0:0:20:Hat Open2.wav
320,192,161132,128,0,161282:0:0:0:0:
192,192,161282,128,2,161432:0:0:0:0:
448,192,161282,1,0,0:0:0:0:
64,192,161432,1,2,0:0:0:0:
320,192,161432,128,0,161582:0:0:0:20:Hat Open2.wav
64,192,161582,1,2,0:0:0:0:
192,192,161582,128,0,161732:0:0:0:0:
64,192,161732,128,8,161882:0:0:0:0:
320,192,161732,1,0,0:0:0:20:Hat Open2.wav
448,192,161732,1,0,0:0:0:0:
192,192,161882,128,2,162032:0:0:0:0:
320,192,161882,1,0,0:0:0:0:
64,192,162032,1,2,0:0:0:0:
320,192,162032,128,0,162332:0:0:0:20:Hat Open2.wav
448,192,162107,1,2,0:0:0:0:
64,192,162182,1,2,0:0:0:0:
192,192,162182,1,0,0:0:0:0:
64,192,162332,1,8,0:0:0:0:
192,192,162332,128,0,162482:0:0:0:20:Hat Open2.wav
448,192,162332,1,0,0:0:0:0:
320,192,162482,1,2,0:0:0:0:
448,192,162482,128,0,162782:0:0:0:0:
64,192,162632,1,2,0:0:0:0:
192,192,162632,1,0,0:0:0:20:Hat Open2.wav
192,192,162782,1,2,0:0:0:0:
320,192,162782,1,0,0:0:0:0:
64,192,162932,1,8,0:0:0:0:
192,192,162932,1,0,0:0:0:20:Hat Open2.wav
448,192,162932,128,0,163082:0:0:0:0:
64,192,163082,1,2,0:0:0:0:
192,192,163082,128,0,163232:0:0:0:0:
320,192,163157,1,2,0:0:0:0:
64,192,163232,128,8,163382:0:0:0:0:
448,192,163232,1,4,0:0:0:0:
192,192,163382,128,2,163532:0:0:0:0:
448,192,163382,1,0,0:0:0:0:
320,192,163532,1,2,0:0:0:0:
448,192,163532,1,0,0:0:0:20:Hat Open2.wav
64,192,163682,1,8,0:0:0:0:
192,192,163682,1,0,0:0:0:0:
320,192,163682,128,0,163982:0:0:0:0:
192,192,163832,1,2,0:0:0:0:
448,192,163832,1,0,0:0:0:20:Hat Open2.wav
64,192,163982,1,2,0:0:0:0:
192,192,163982,1,0,0:0:0:0:
64,192,164132,1,8,0:0:0:0:
320,192,164132,1,0,0:0:0:20:Hat Open2.wav
448,192,164132,128,0,164282:0:0:0:0:
64,192,164282,1,2,0:0:0:0:
192,192,164282,1,0,0:0:0:0:
192,192,164432,128,8,164582:0:0:0:0:
320,192,164432,1,4,0:0:0:0:
448,192,164432,1,0,0:0:0:0:
64,192,164507,1,2,0:0:0:0:
320,192,164582,1,2,0:0:0:0:
448,192,164582,1,0,0:0:0:0:
64,192,164732,128,2,164882:0:0:0:0:
448,192,164732,1,0,0:0:0:0:
192,192,164882,1,8,0:0:0:0:
320,192,164882,1,0,0:0:0:0:
448,192,164882,1,0,0:0:0:0:
64,192,165032,1,2,0:0:0:0:
320,192,165032,128,0,165182:0:0:0:20:Hat Open2.wav
192,192,165182,1,2,0:0:0:0:
448,192,165182,1,0,0:0:0:0:
64,192,165332,1,8,0:0:0:0:
192,192,165332,1,0,0:0:0:20:Hat Open2.wav
448,192,165332,1,0,0:0:0:0:
320,192,165407,1,2,0:0:0:0:
64,192,165482,1,2,0:0:0:0:
192,192,165482,1,0,0:0:0:0:
448,192,165632,1,0,0:0:0:0:
192,192,165782,1,0,0:0:0:0:
320,192,165857,1,0,0:0:0:0:
192,192,165932,1,0,0:0:0:0:
320,192,166082,1,0,0:0:0:0:
64,192,166232,1,0,0:0:0:0:
448,192,166382,1,0,0:0:0:0:
448,192,166532,1,0,0:0:0:0:
448,192,166682,1,0,0:0:0:0:
64,192,166832,128,2,167082:0:0:0:0:
192,192,166832,128,4,166915:0:0:0:0:
448,192,166832,128,8,166998:0:0:0:0:
320,192,166915,128,2,167082:0:0:0:0:
192,192,166998,128,2,167165:0:0:0:0:
64,192,167165,1,2,0:0:0:0:
64,192,167248,1,2,0:0:0:0:
320,192,167332,1,2,0:0:0:0:
64,192,167498,1,8,0:0:0:0:
320,192,167498,1,4,0:0:0:0:
448,192,167498,1,0,0:0:0:0:
192,192,167665,1,2,0:0:0:0:
192,192,167748,1,2,0:0:0:0:
320,192,167832,1,0,0:0:0:0:
320,192,167998,1,2,0:0:0:0:
192,192,168165,1,6,0:0:0:0:
192,192,168248,1,2,0:0:0:0:
448,192,168415,1,2,0:0:0:0:
448,192,168498,1,2,0:0:0:0:
64,192,168665,1,2,0:0:0:0:
64,192,168748,1,2,0:0:0:0:
192,192,168832,1,8,0:0:0:0:
448,192,168832,1,4,0:0:0:0:
320,192,168832,1,0,0:0:0:0:
448,192,168915,1,2,0:0:0:0:
320,192,168998,1,2,0:0:0:0:
192,192,169165,1,2,0:0:0:0:
192,192,169248,1,2,0:0:0:0:
320,192,169332,1,2,0:0:0:0:
320,192,169415,1,2,0:0:0:0:
64,192,169498,1,6,0:0:0:0:
64,192,169582,1,2,0:0:0:0:
192,192,169665,1,2,0:0:0:0:
192,192,169832,1,2,0:0:0:0:
320,192,169915,1,2,0:0:0:0:
320,192,169998,1,2,0:0:0:0:
64,192,170165,1,8,0:0:0:0:
320,192,170165,1,4,0:0:0:0:
448,192,170165,1,0,0:0:0:0:
64,192,170332,1,2,0:0:0:0:
64,192,170415,1,2,0:0:0:0:
192,192,170498,1,2,0:0:0:0:
192,192,170665,1,2,0:0:0:0:
64,192,170832,1,8,0:0:0:0:
320,192,170832,1,4,0:0:0:0:
448,192,170832,1,0,0:0:0:0:
192,192,170998,1,2,0:0:0:0:
192,192,171082,1,2,0:0:0:0:
320,192,171248,1,2,0:0:0:0:
320,192,171332,1,2,0:0:0:0:
64,192,171498,1,8,0:0:0:0:
192,192,171498,1,4,0:0:0:0:
448,192,171498,1,0,0:0:0:0:
64,192,171665,1,2,0:0:0:0:
64,192,171748,1,2,0:0:0:0:
320,192,171915,1,2,0:0:0:0:
64,192,171998,1,8,0:0:0:0:
192,192,171998,1,0,0:0:0:0:
320,192,172082,1,8,0:0:0:0:
448,192,172082,1,0,0:0:0:0:
192,192,172165,1,6,0:0:0:0:
192,192,172248,1,2,0:0:0:0:
64,192,172332,1,2,0:0:0:0:
64,192,172498,1,2,0:0:0:0:
320,192,172582,1,2,0:0:0:0:
320,192,172665,1,2,0:0:0:0:
64,192,172832,1,8,0:0:0:0:
192,192,172832,1,4,0:0:0:0:
448,192,172832,1,0,0:0:0:0:
192,192,172998,1,2,0:0:0:0:
192,192,173082,1,2,0:0:0:0:
448,192,173165,1,2,0:0:0:0:
448,192,173332,1,2,0:0:0:0:
320,192,173498,1,6,0:0:0:0:
320,192,173582,1,2,0:0:0:0:
192,192,173665,1,2,0:0:0:0:
192,192,173748,1,2,0:0:0:0:
448,192,173915,1,2,0:0:0:0:
448,192,173998,1,2,0:0:0:0:
64,192,174165,1,8,0:0:0:0:
320,192,174165,1,4,0:0:0:0:
448,192,174165,1,0,0:0:0:0:
192,192,174248,1,2,0:0:0:0:
192,192,174332,1,2,0:0:0:0:
320,192,174415,1,2,0:0:0:0:
320,192,174582,1,2,0:0:0:0:
320,192,174665,1,2,0:0:0:0:
64,192,174832,1,6,0:0:0:0:
64,192,174915,1,2,0:0:0:0:
192,192,174998,1,2,0:0:0:0:
320,192,175165,1,2,0:0:0:0:
448,192,175248,1,2,0:0:0:0:
448,192,175332,1,2,0:0:0:0:
64,192,175498,1,8,0:0:0:0:
320,192,175498,1,4,0:0:0:0:
448,192,175498,1,0,0:0:0:0:
192,192,175665,1,2,0:0:0:0:
192,192,175748,1,2,0:0:0:0:
320,192,175832,1,2,0:0:0:0:
320,192,175998,1,2,0:0:0:0:
64,192,176165,1,8,0:0:0:0:
192,192,176165,1,4,0:0:0:0:
448,192,176165,1,0,0:0:0:0:
64,192,176332,1,2,0:0:0:0:
320,192,176415,1,2,0:0:0:0:
320,192,176498,1,2,0:0:0:0:
64,192,176665,1,8,0:0:0:0:
192,192,176665,1,4,0:0:0:0:
448,192,176665,1,0,0:0:0:0:
64,192,176748,1,2,0:0:0:0:
448,192,176915,1,2,0:0:0:0:
448,192,176998,1,2,0:0:0:0:
64,192,177165,1,8,0:0:0:0:
192,192,177165,1,4,0:0:0:0:
320,192,177165,128,0,177498:0:0:0:0:
192,192,177332,1,2,0:0:0:0:
64,192,177498,1,2,0:0:0:0:
448,192,177498,1,4,0:0:0:0:
64,192,177582,1,2,0:0:0:0:
192,192,177665,1,2,0:0:0:0:
320,192,177832,1,2,0:0:0:0:
448,192,177832,1,4,0:0:0:0:
192,192,177915,1,2,0:0:0:0:
192,192,177998,1,2,0:0:0:0:
64,192,178165,1,8,0:0:0:0:
320,192,178165,1,4,0:0:0:0:
448,192,178165,1,0,0:0:0:0:
64,192,178332,1,2,0:0:0:0:
448,192,178415,1,2,0:0:0:0:
448,192,178498,1,2,0:0:0:0:
320,192,178665,1,2,0:0:0:0:
64,192,178832,1,2,0:0:0:0:
192,192,178832,1,4,0:0:0:0:
192,192,178915,1,2,0:0:0:0:
320,192,179082,1,2,0:0:0:0:
320,192,179165,1,2,0:0:0:0:
64,192,179332,1,2,0:0:0:0:
64,192,179415,1,2,0:0:0:0:
448,192,179498,1,8,0:0:0:0:
192,192,179498,1,4,0:0:0:0:
320,192,179498,1,0,0:0:0:0:
448,192,179582,1,2,0:0:0:0:
320,192,179665,1,2,0:0:0:0:
192,192,179832,1,2,0:0:0:0:
64,192,179832,1,4,0:0:0:0:
192,192,179915,1,2,0:0:0:0:
448,192,179998,1,2,0:0:0:0:
448,192,180082,1,2,0:0:0:0:
320,192,180165,1,2,0:0:0:0:
64,192,180165,1,4,0:0:0:0:
64,192,180248,1,2,0:0:0:0:
192,192,180332,1,2,0:0:0:0:
448,192,180498,1,2,0:0:0:0:
192,192,180498,1,4,0:0:0:0:
320,192,180582,1,2,0:0:0:0:
320,192,180665,1,2,0:0:0:0:
64,192,180832,1,8,0:0:0:0:
320,192,180832,1,4,0:0:0:0:
448,192,180832,1,0,0:0:0:0:
64,192,180998,1,2,0:0:0:0:
64,192,181082,1,2,0:0:0:0:
320,192,181165,1,2,0:0:0:0:
192,192,181165,1,4,0:0:0:0:
320,192,181331,1,2,0:0:0:0:
64,192,181498,1,8,0:0:0:0:
192,192,181498,1,4,0:0:0:0:
448,192,181498,1,0,0:0:0:0:
320,192,181665,1,2,0:0:0:0:
320,192,181748,1,2,0:0:0:0:
64,192,181831,1,4,0:0:0:0:
192,192,181915,1,2,0:0:0:0:
192,192,181998,1,2,0:0:0:0:
64,192,182165,1,8,0:0:0:0:
320,192,182165,1,4,0:0:0:0:
448,192,182165,1,0,0:0:0:0:
192,192,182248,1,2,0:0:0:0:
448,192,182415,1,2,0:0:0:0:
64,192,182498,1,8,0:0:0:0:
192,192,182498,1,0,0:0:0:0:
448,192,182498,1,0,0:0:0:0:
320,192,182581,1,0,0:0:0:45:tom2.wav
192,192,182665,1,0,0:0:0:45:tom3.wav
320,192,182748,1,0,0:0:0:45:tom2.wav
64,192,182831,1,2,0:0:0:0:
448,192,182831,1,4,0:0:0:0:
64,192,182915,1,2,0:0:0:0:
320,192,182998,1,2,0:0:0:0:
320,192,183165,1,2,0:0:0:0:
192,192,183165,1,4,0:0:0:0:
448,192,183248,1,2,0:0:0:0:
448,192,183331,1,2,0:0:0:0:
64,192,183498,1,8,0:0:0:0:
320,192,183498,1,4,0:0:0:0:
448,192,183498,1,0,0:0:0:0:
192,192,183665,1,2,0:0:0:0:
192,192,183748,1,2,0:0:0:0:
64,192,183831,1,2,0:0:0:0:
320,192,183831,1,4,0:0:0:0:
64,192,183998,1,2,0:0:0:0:
320,192,184165,1,2,0:0:0:0:
448,192,184165,1,4,0:0:0:0:
320,192,184248,1,2,0:0:0:0:
192,192,184331,1,2,0:0:0:0:
192,192,184415,1,2,0:0:0:0:
64,192,184498,1,4,0:0:0:0:
448,192,184581,1,2,0:0:0:0:
448,192,184665,1,2,0:0:0:0:
64,192,184831,1,8,0:0:0:0:
192,192,184831,1,4,0:0:0:0:
320,192,184831,1,0,0:0:0:0:
64,192,184915,1,2,0:0:0:0:
320,192,184998,1,2,0:0:0:0:
320,192,185081,1,2,0:0:0:0:
192,192,185165,1,4,0:0:0:0:
64,192,185248,1,2,0:0:0:0:
64,192,185331,1,2,0:0:0:0:
448,192,185498,1,2,0:0:0:0:
320,192,185498,1,4,0:0:0:0:
320,192,185581,1,2,0:0:0:0:
192,192,185665,1,2,0:0:0:0:
192,192,185831,1,2,0:0:0:0:
448,192,185831,1,4,0:0:0:0:
64,192,185915,1,2,0:0:0:0:
64,192,185998,1,2,0:0:0:0:
192,192,186165,1,8,0:0:0:0:
320,192,186165,1,4,0:0:0:0:
448,192,186165,1,0,0:0:0:0:
192,192,186331,1,2,0:0:0:0:
192,192,186415,1,2,0:0:0:0:
64,192,186498,1,2,0:0:0:0:
320,192,186498,1,4,0:0:0:0:
448,192,186665,1,2,0:0:0:0:
448,192,186748,1,2,0:0:0:0:
64,192,186831,128,8,187131:0:0:0:0:
192,192,186831,1,0,0:0:0:0:
320,192,186831,1,0,0:0:0:0:
320,192,186981,1,0,0:0:0:45:tom2.wav
448,192,186981,1,0,0:0:0:0:
192,192,187131,1,0,0:0:0:45:tom2.wav
448,192,187131,1,0,0:0:0:0:
64,192,187281,1,8,0:0:0:0:
320,192,187281,1,4,0:0:0:0:
448,192,187281,128,0,187581:0:0:0:0:
64,192,187431,1,0,0:0:0:45:tom3.wav
192,192,187431,1,0,0:0:0:0:
192,192,187581,1,0,0:0:0:45:tom3.wav
320,192,187581,1,0,0:0:0:0:
64,192,187731,128,4,188031:0:0:0:0:
192,192,187731,1,8,0:0:0:0:
320,192,187731,1,0,0:0:0:0:
320,192,187881,1,2,0:0:0:0:
448,192,187881,1,0,0:0:0:0:
192,192,187956,1,2,0:0:0:0:
320,192,188031,128,8,188181:0:0:0:0:
448,192,188031,1,4,0:0:0:0:
64,192,188106,1,2,0:0:0:0:
192,192,188181,1,2,0:0:0:0:
448,192,188181,128,0,188331:0:0:0:0:
320,192,188256,1,2,0:0:0:0:
64,192,188331,128,2,188481:0:0:0:0:
192,192,188331,1,0,0:0:0:0:
448,192,188406,1,2,0:0:0:0:
192,192,188481,1,8,0:0:0:0:
320,192,188481,1,0,0:0:0:0:
448,192,188556,1,2,0:0:0:0:
64,192,188631,1,2,0:0:0:0:
192,192,188706,1,2,0:0:0:0:
448,192,188781,1,2,0:0:0:0:
320,192,188856,1,2,0:0:0:0:
64,192,188931,1,8,0:0:0:0:
192,192,188931,1,0,0:0:0:0:
448,192,188931,1,0,0:0:0:0:
64,192,189081,1,8,0:0:0:0:
192,192,189081,1,0,0:0:0:0:
448,192,189081,1,0,0:0:0:0:
64,192,189231,128,4,190431:0:0:0:0:
192,192,189231,1,2,0:0:0:0:
448,192,189231,1,0,0:0:0:0:
320,192,189531,1,2,0:0:0:0:
448,192,189531,1,0,0:0:0:0:
192,192,189681,1,2,0:0:0:0:
320,192,189681,1,0,0:0:0:0:
192,192,189981,1,2,0:0:0:0:
448,192,189981,1,0,0:0:0:0:
320,192,190281,1,2,0:0:0:0:
448,192,190281,1,0,0:0:0:0:
192,192,190431,1,8,0:0:0:0:
320,192,190431,1,4,0:0:0:0:
448,192,190431,1,0,0:0:0:0:
192,192,190731,1,2,0:0:0:0:
448,192,190731,1,0,0:0:0:0:
320,192,191031,1,2,0:0:0:0:
448,192,191031,128,4,191331:0:0:0:0:
64,192,191331,1,2,0:0:0:0:
320,192,191331,128,0,191631:0:0:0:0:
64,192,191481,1,2,0:0:0:0:
192,192,191481,1,0,0:0:0:0:
64,192,191631,1,2,0:0:0:0:
192,192,191631,128,4,192381:0:0:0:0:
448,192,191631,1,0,0:0:0:0:
64,192,191931,1,2,0:0:0:0:
448,192,191931,1,0,0:0:0:0:
320,192,192081,1,2,0:0:0:0:
448,192,192081,1,0,0:0:0:0:
64,192,192381,1,2,0:0:0:0:
448,192,192381,1,0,0:0:0:0:
320,192,192531,128,0,193131:0:0:0:0:
64,192,192681,1,2,0:0:0:0:
192,192,192681,1,0,0:0:0:0:
64,192,192831,1,8,0:0:0:0:
192,192,192831,1,4,0:0:0:0:
448,192,192831,1,0,0:0:0:0:
192,192,193131,1,2,0:0:0:0:
448,192,193131,128,0,193431:0:0:0:0:
64,192,193431,1,8,0:0:0:0:
192,192,193431,128,4,193731:0:0:0:0:
320,192,193431,1,0,0:0:0:0:
64,192,193731,128,2,194031:0:0:0:0:
320,192,193731,1,0,0:0:0:0:
320,192,193881,1,2,0:0:0:0:
448,192,193881,1,0,0:0:0:0:
192,192,194031,1,2,0:0:0:0:
320,192,194031,1,4,0:0:0:0:
448,192,194031,128,0,194781:0:0:0:0:
64,192,194331,1,2,0:0:0:0:
192,192,194331,1,0,0:0:0:0:
192,192,194481,1,2,0:0:0:0:
320,192,194481,1,0,0:0:0:0:
64,192,194781,1,2,0:0:0:0:
192,192,194781,1,0,0:0:0:0:
320,192,195081,1,2,0:0:0:0:
448,192,195081,1,0,0:0:0:0:
64,192,195231,1,8,0:0:0:0:
192,192,195231,1,4,0:0:0:0:
448,192,195231,1,0,0:0:0:0:
64,192,195531,1,2,0:0:0:0:
320,192,195531,1,0,0:0:0:0:
64,192,195831,128,2,196131:0:0:0:0:
192,192,195831,1,4,0:0:0:0:
192,192,196131,128,2,196431:0:0:0:0:
448,192,196131,1,0,0:0:0:0:
320,192,196281,1,2,0:0:0:0:
448,192,196281,1,0,0:0:0:0:
64,192,196431,1,2,0:0:0:0:
320,192,196431,128,4,197181:0:0:0:0:
448,192,196431,1,0,0:0:0:0:
64,192,196731,1,2,0:0:0:0:
448,192,196731,1,0,0:0:0:0:
64,192,196881,1,2,0:0:0:0:
192,192,196881,1,0,0:0:0:0:
192,192,197181,1,2,0:0:0:0:
448,192,197181,1,0,0:0:0:0:
64,192,197331,128,0,197631:0:0:0:0:
320,192,197481,1,2,0:0:0:0:
448,192,197481,1,0,0:0:0:0:
192,192,197631,1,8,0:0:0:0:
320,192,197631,1,4,0:0:0:0:
448,192,197631,1,0,0:0:0:0:
320,192,197931,128,2,198231:0:0:0:0:
448,192,197931,1,0,0:0:0:0:
64,192,198231,1,8,0:0:0:0:
192,192,198231,128,4,198531:0:0:0:0:
448,192,198231,1,0,0:0:0:0:
320,192,198381,1,2,0:0:0:0:
64,192,198531,128,8,198831:0:0:0:0:
320,192,198531,1,0,0:0:0:0:
448,192,198531,1,0,0:0:0:0:
192,192,198681,1,8,0:0:0:0:
320,192,198681,1,0,0:0:0:0:
448,192,198681,1,0,0:0:0:0:
192,192,198831,1,2,0:0:0:0:
320,192,198831,1,4,0:0:0:0:
448,192,198831,128,0,200331:0:0:0:0:
64,192,199131,1,2,0:0:0:0:
320,192,199131,1,0,0:0:0:0:
192,192,199281,1,2,0:0:0:0:
320,192,199281,1,0,0:0:0:0:
64,192,199581,1,2,0:0:0:0:
192,192,199581,1,0,0:0:0:0:
64,192,199881,1,2,0:0:0:0:
192,192,199881,1,0,0:0:0:0:
64,192,200031,1,8,0:0:0:0:
192,192,200031,1,4,0:0:0:0:
320,192,200031,1,0,0:0:0:0:
64,192,200331,1,2,0:0:0:0:
192,192,200331,1,0,0:0:0:0:
192,192,200631,128,2,200931:0:0:0:0:
320,192,200631,1,4,0:0:0:0:
64,192,200931,1,2,0:0:0:0:
320,192,200931,128,0,201231:0:0:0:0:
64,192,201081,1,2,0:0:0:0:
192,192,201081,1,0,0:0:0:0:
64,192,201231,128,2,201981:0:0:0:0:
192,192,201231,1,4,0:0:0:0:
448,192,201231,1,0,0:0:0:0:
320,192,201531,1,2,0:0:0:0:
448,192,201531,1,0,0:0:0:0:
192,192,201681,1,2,0:0:0:0:
448,192,201681,1,0,0:0:0:0:
320,192,201981,1,2,0:0:0:0:
448,192,201981,1,0,0:0:0:0:
192,192,202131,128,0,202731:0:0:0:0:
320,192,202281,1,2,0:0:0:0:
448,192,202281,1,0,0:0:0:0:
64,192,202431,1,8,0:0:0:0:
320,192,202431,1,4,0:0:0:0:
448,192,202431,1,0,0:0:0:0:
320,192,202731,128,2,203031:0:0:0:0:
448,192,202731,1,0,0:0:0:0:
64,192,203031,1,2,0:0:0:0:
192,192,203031,128,4,203331:0:0:0:0:
64,192,203331,128,2,203631:0:0:0:0:
320,192,203331,1,0,0:0:0:0:
320,192,203481,1,2,0:0:0:0:
448,192,203481,1,0,0:0:0:0:
192,192,203631,1,2,0:0:0:0:
320,192,203631,1,4,0:0:0:0:
448,192,203631,128,0,204531:0:0:0:0:
64,192,203931,1,2,0:0:0:0:
192,192,203931,1,0,0:0:0:0:
192,192,204081,1,2,0:0:0:0:
320,192,204081,1,0,0:0:0:0:
64,192,204381,1,2,0:0:0:0:
192,192,204381,1,0,0:0:0:0:
320,192,204531,128,0,205131:0:0:0:0:
64,192,204681,1,2,0:0:0:0:
192,192,204681,1,0,0:0:0:0:
64,192,204831,1,8,0:0:0:0:
192,192,204831,1,4,0:0:0:0:
448,192,204831,1,0,0:0:0:0:
64,192,205131,1,2,0:0:0:0:
192,192,205131,1,0,0:0:0:0:
320,192,205431,1,2,0:0:0:0:
448,192,205431,128,4,205731:0:0:0:0:
64,192,205731,1,2,0:0:0:0:
192,192,205731,1,0,0:0:0:0:
64,192,205881,1,2,0:0:0:0:
320,192,205881,1,0,0:0:0:0:
192,192,206031,128,2,206781:0:0:0:0:
320,192,206031,1,4,0:0:0:0:
448,192,206031,1,0,0:0:0:0:
320,192,206331,1,2,0:0:0:0:
448,192,206331,1,0,0:0:0:0:
64,192,206481,1,2,0:0:0:0:
320,192,206481,1,0,0:0:0:0:
64,192,206781,1,2,0:0:0:0:
448,192,206781,1,0,0:0:0:0:
320,192,206931,128,0,207081:0:0:0:0:
64,192,207081,1,2,0:0:0:0:
448,192,207081,1,0,0:0:0:0:
192,192,207156,1,2,0:0:0:0:
64,192,207231,1,8,0:0:0:0:
320,192,207231,1,4,0:0:0:0:
448,192,207231,1,0,0:0:0:0:
192,192,207381,1,2,0:0:0:0:
320,192,207381,1,0,0:0:0:0:
64,192,207531,1,2,0:0:0:0:
448,192,207531,128,0,207681:0:0:0:0:
64,192,207681,1,2,0:0:0:0:
192,192,207681,1,0,0:0:0:0:
320,192,207831,128,8,207981:0:0:0:0:
192,192,207831,1,0,0:0:0:0:
448,192,207831,1,0,0:0:0:0:
64,192,207981,1,0,0:0:0:45:tom2.wav
192,192,208131,128,0,208281:0:0:0:45:tom3.wav
320,192,208281,1,0,0:0:0:45:tom4.wav
64,192,208431,128,2,209031:0:0:0:0:
192,192,208431,1,4,0:0:0:0:
448,192,208431,1,0,0:0:0:0:
320,192,208731,1,2,0:0:0:0:
448,192,208731,1,0,0:0:0:0:
192,192,208881,1,2,0:0:0:0:
448,192,208881,1,0,0:0:0:0:
320,192,209031,128,4,209481:0:0:0:0:
64,192,209181,1,2,0:0:0:0:
448,192,209181,1,0,0:0:0:0:
64,192,209481,1,2,0:0:0:0:
192,192,209481,1,0,0:0:0:0:
64,192,209631,1,8,0:0:0:0:
320,192,209631,1,4,0:0:0:0:
448,192,209631,1,0,0:0:0:0:
64,192,209931,128,2,210231:0:0:0:0:
192,192,209931,1,0,0:0:0:0:
192,192,210231,128,2,210531:0:0:0:0:
320,192,210231,1,4,0:0:0:0:
320,192,210531,1,2,0:0:0:0:
448,192,210531,128,0,210831:0:0:0:0:
64,192,210681,1,2,0:0:0:0:
192,192,210681,1,0,0:0:0:0:
64,192,210831,1,2,0:0:0:0:
192,192,210831,1,4,0:0:0:0:
320,192,210831,128,0,211431:0:0:0:0:
64,192,211131,1,2,0:0:0:0:
448,192,211131,1,0,0:0:0:0:
64,192,211281,1,2,0:0:0:0:
192,192,211281,1,0,0:0:0:0:
448,192,211431,128,4,211881:0:0:0:0:
64,192,211581,1,2,0:0:0:0:
320,192,211581,1,0,0:0:0:0:
64,192,211881,1,2,0:0:0:0:
192,192,211881,1,0,0:0:0:0:
64,192,212031,1,8,0:0:0:0:
320,192,212031,1,4,0:0:0:0:
448,192,212031,1,0,0:0:0:0:
192,192,212331,1,2,0:0:0:0:
320,192,212331,128,0,212631:0:0:0:0:
64,192,212631,1,8,0:0:0:0:
192,192,212631,128,4,212931:0:0:0:0:
448,192,212631,1,0,0:0:0:0:
64,192,212931,128,2,213231:0:0:0:0:
320,192,212931,1,0,0:0:0:0:
320,192,213081,1,2,0:0:0:0:
448,192,213081,1,0,0:0:0:0:
192,192,213231,1,2,0:0:0:0:
320,192,213231,1,4,0:0:0:0:
448,192,213231,128,0,213831:0:0:0:0:
64,192,213531,1,2,0:0:0:0:
192,192,213531,1,0,0:0:0:0:
64,192,213681,1,2,0:0:0:0:
320,192,213681,1,0,0:0:0:0:
192,192,213831,128,4,214281:0:0:0:0:
64,192,213981,1,2,0:0:0:0:
448,192,213981,1,0,0:0:0:0:
320,192,214281,1,2,0:0:0:0:
448,192,214281,1,0,0:0:0:0:
64,192,214431,1,8,0:0:0:0:
192,192,214431,1,4,0:0:0:0:
448,192,214431,1,0,0:0:0:0:
320,192,214731,1,2,0:0:0:0:
448,192,214731,128,0,215031:0:0:0:0:
192,192,215031,1,2,0:0:0:0:
320,192,215031,128,4,215331:0:0:0:0:
64,192,215331,128,2,215631:0:0:0:0:
192,192,215331,1,0,0:0:0:0:
320,192,215481,1,2,0:0:0:0:
448,192,215481,1,0,0:0:0:0:
192,192,215631,128,2,216381:0:0:0:0:
320,192,215631,1,4,0:0:0:0:
448,192,215631,1,0,0:0:0:0:
320,192,215931,1,2,0:0:0:0:
448,192,215931,1,0,0:0:0:0:
64,192,216081,1,2,0:0:0:0:
320,192,216081,1,0,0:0:0:0:
320,192,216381,1,2,0:0:0:0:
448,192,216381,1,0,0:0:0:0:
320,192,216531,128,0,217281:0:0:0:0:
64,192,216681,1,2,0:0:0:0:
192,192,216681,1,0,0:0:0:0:
64,192,216831,1,8,0:0:0:0:
192,192,216831,1,4,0:0:0:0:
448,192,216831,1,0,0:0:0:0:
192,192,217131,1,2,0:0:0:0:
448,192,217131,1,0,0:0:0:0:
64,192,217431,128,8,217881:0:0:0:0:
320,192,217431,1,4,0:0:0:0:
448,192,217431,1,0,0:0:0:0:
320,192,217581,1,0,0:0:0:45:tom2.wav
448,192,217581,1,0,0:0:0:0:
320,192,217731,1,0,0:0:0:45:tom3.wav
448,192,217731,1,0,0:0:0:0:
192,192,217881,1,8,0:0:0:0:
320,192,217881,1,0,0:0:0:0:
448,192,217881,1,0,0:0:0:0:
192,192,218031,1,2,0:0:0:0:
320,192,218031,1,4,0:0:0:0:
448,192,218031,128,0,218781:0:0:0:0:
64,192,218331,1,2,0:0:0:0:
320,192,218331,1,0,0:0:0:0:
64,192,218481,1,2,0:0:0:0:
192,192,218481,1,0,0:0:0:0:
64,192,218781,1,2,0:0:0:0:
320,192,218781,1,0,0:0:0:0:
192,192,218931,128,0,219231:0:0:0:0:
320,192,219081,1,2,0:0:0:0:
448,192,219081,1,0,0:0:0:0:
64,192,219231,1,8,0:0:0:0:
320,192,219231,128,4,220131:0:0:0:0:
448,192,219231,1,0,0:0:0:0:
192,192,219531,1,2,0:0:0:0:
448,192,219531,1,0,0:0:0:0:
64,192,219831,1,2,0:0:0:0:
448,192,219831,1,4,0:0:0:0:
64,192,220131,1,2,0:0:0:0:
192,192,220131,1,0,0:0:0:0:
64,192,220281,1,2,0:0:0:0:
448,192,220281,1,0,0:0:0:0:
192,192,220431,1,2,0:0:0:0:
448,192,220431,1,4,0:0:0:0:
320,192,220731,128,2,220881:0:0:0:0:
448,192,220731,1,0,0:0:0:0:
64,192,220881,1,2,0:0:0:0:
192,192,220881,1,0,0:0:0:0:
192,192,221031,128,4,221181:0:0:0:0:
64,192,221181,1,2,0:0:0:0:
448,192,221181,1,0,0:0:0:0:
320,192,221331,128,0,221631:0:0:0:0:
64,192,221481,1,2,0:0:0:0:
192,192,221481,1,0,0:0:0:0:
64,192,221631,1,8,0:0:0:0:
192,192,221631,1,4,0:0:0:0:
448,192,221631,128,0,221931:0:0:0:0:
192,192,221931,1,2,0:0:0:0:
320,192,221931,128,0,222231:0:0:0:0:
64,192,222231,1,8,0:0:0:0:
192,192,222231,128,4,222531:0:0:0:0:
448,192,222231,1,0,0:0:0:0:
320,192,222381,1,2,0:0:0:0:
448,192,222381,1,0,0:0:0:0:
64,192,222531,128,0,222831:0:0:0:0:
320,192,222681,1,2,0:0:0:0:
448,192,222681,1,0,0:0:0:0:
192,192,222831,1,2,0:0:0:0:
320,192,222831,1,4,0:0:0:0:
448,192,222831,128,0,223581:0:0:0:0:
64,192,223131,1,2,0:0:0:0:
320,192,223131,1,0,0:0:0:0:
192,192,223281,1,2,0:0:0:0:
320,192,223281,1,0,0:0:0:0:
64,192,223581,1,2,0:0:0:0:
192,192,223581,1,0,0:0:0:0:
320,192,223881,1,2,0:0:0:0:
448,192,223881,1,0,0:0:0:0:
64,192,224031,128,8,225231:0:0:0:0:
192,192,224031,1,4,0:0:0:0:
320,192,224031,1,0,0:0:0:0:
192,192,224331,1,2,0:0:0:0:
448,192,224331,1,0,0:0:0:0:
320,192,224631,1,2,0:0:0:0:
448,192,224631,1,4,0:0:0:0:
320,192,224931,1,2,0:0:0:0:
448,192,224931,1,0,0:0:0:0:
192,192,225081,1,2,0:0:0:0:
448,192,225081,1,0,0:0:0:0:
320,192,225231,1,2,0:0:0:0:
448,192,225231,128,4,226281:0:0:0:0:
64,192,225531,1,2,0:0:0:0:
320,192,225531,1,0,0:0:0:0:
192,192,225681,1,2,0:0:0:0:
320,192,225681,1,0,0:0:0:0:
64,192,225981,1,2,0:0:0:0:
320,192,225981,1,0,0:0:0:0:
192,192,226281,1,2,0:0:0:0:
64,192,226281,1,0,0:0:0:0:
320,192,226356,1,2,0:0:0:0:
64,192,226431,1,8,0:0:0:0:
192,192,226431,1,4,0:0:0:0:
448,192,226431,1,0,0:0:0:0:
320,192,226581,1,2,0:0:0:0:
448,192,226581,1,0,0:0:0:0:
64,192,226731,1,2,0:0:0:0:
192,192,226731,1,0,0:0:0:0:
64,192,226881,1,2,0:0:0:0:
448,192,226881,1,0,0:0:0:0:
192,192,227031,1,8,0:0:0:0:
320,192,227031,1,0,0:0:0:0:
448,192,227031,1,0,0:0:0:0:
64,192,227181,1,2,0:0:0:0:
320,192,227181,1,0,0:0:0:0:
64,192,227331,1,8,0:0:0:0:
192,192,227331,1,0,0:0:0:0:
448,192,227331,1,0,0:0:0:0:
320,192,227481,1,2,0:0:0:0:
448,192,227481,1,0,0:0:0:0:
64,192,227631,128,2,228531:0:0:0:0:
192,192,227631,1,4,0:0:0:0:
320,192,227631,128,0,227781:0:0:0:0:
448,192,227781,128,2,227931:0:0:0:0:
320,192,227931,128,2,228081:0:0:0:0:
192,192,228081,128,2,228231:0:0:0:0:
320,192,228231,128,6,228381:0:0:0:0:
448,192,228381,128,2,228531:0:0:0:0:
320,192,228531,128,2,228681:0:0:0:0:
64,192,228681,128,2,228831:0:0:0:0:
192,192,228831,1,8,0:0:0:0:
320,192,228831,128,2,228981:0:0:0:0:
448,192,228831,1,4,0:0:0:0:
448,192,228981,128,2,229131:0:0:0:0:
192,192,229131,128,2,229281:0:0:0:0:
320,192,229281,128,2,229431:0:0:0:0:
64,192,229431,128,6,229581:0:0:0:0:
192,192,229581,128,2,229731:0:0:0:0:
320,192,229731,128,2,229881:0:0:0:0:
448,192,229881,128,2,230031:0:0:0:0:
192,192,230031,128,2,230181:0:0:0:0:
320,192,230031,128,4,230931:0:0:0:0:
64,192,230181,128,2,230331:0:0:0:0:
448,192,230331,128,2,230481:0:0:0:0:
64,192,230481,128,2,230631:0:0:0:0:
192,192,230631,128,6,230781:0:0:0:0:
448,192,230781,128,2,230931:0:0:0:0:
64,192,230931,128,2,231081:0:0:0:0:
192,192,231081,128,2,231231:0:0:0:0:
64,192,231231,1,2,0:0:0:0:
320,192,231231,128,8,231381:0:0:0:0:
448,192,231231,1,4,0:0:0:0:
448,192,231381,128,2,231531:0:0:0:0:
192,192,231531,128,2,231681:0:0:0:0:
320,192,231681,128,2,231831:0:0:0:0:
64,192,231831,128,2,231981:0:0:0:0:
192,192,231831,1,8,0:0:0:0:
448,192,231831,1,4,0:0:0:0:
192,192,231981,128,2,232131:0:0:0:0:
320,192,232131,128,2,232281:0:0:0:0:
64,192,232281,128,2,232431:0:0:0:0:
192,192,232431,128,2,232581:0:0:0:0:
448,192,232431,128,4,233331:0:0:0:0:
64,192,232581,128,2,232731:0:0:0:0:
192,192,232731,128,2,232881:0:0:0:0:
320,192,232881,128,2,233031:0:0:0:0:
192,192,233031,128,6,233181:0:0:0:0:
64,192,233181,128,2,233331:0:0:0:0:
192,192,233331,128,2,233481:0:0:0:0:
320,192,233481,128,2,233631:0:0:0:0:
64,192,233631,1,2,0:0:0:0:
192,192,233631,128,8,233781:0:0:0:0:
448,192,233631,1,4,0:0:0:0:
64,192,233781,128,2,233931:0:0:0:0:
320,192,233931,128,2,234081:0:0:0:0:
192,192,234081,128,2,234231:0:0:0:0:
448,192,234231,128,6,234381:0:0:0:0:
320,192,234381,128,2,234531:0:0:0:0:
192,192,234531,128,2,234681:0:0:0:0:
64,192,234681,128,2,234831:0:0:0:0:
320,192,234831,128,2,234981:0:0:0:0:
448,192,234831,128,4,235731:0:0:0:0:
64,192,234981,128,2,235131:0:0:0:0:
192,192,235131,128,2,235281:0:0:0:0:
320,192,235281,128,2,235431:0:0:0:0:
64,192,235431,128,6,235581:0:0:0:0:
192,192,235581,128,2,235731:0:0:0:0:
320,192,235731,128,2,235881:0:0:0:0:
448,192,235881,128,2,236031:0:0:0:0:
64,192,236031,128,2,236181:0:0:0:0:
192,192,236031,1,8,0:0:0:0:
320,192,236031,1,4,0:0:0:0:
320,192,236181,128,2,236331:0:0:0:0:
64,192,236331,128,2,236481:0:0:0:0:
448,192,236481,128,2,236631:0:0:0:0:
64,192,236631,1,2,0:0:0:0:
192,192,236631,1,8,0:0:0:0:
320,192,236631,1,4,0:0:0:0:
64,192,236781,1,2,0:0:0:0:
192,192,236931,1,2,0:0:0:0:
320,192,236931,1,8,0:0:0:0:
448,192,236931,1,0,0:0:0:0:
64,192,237081,1,2,0:0:0:0:
320,192,237081,1,8,0:0:0:0:
448,192,237081,1,0,0:0:0:0:
192,192,237231,128,2,237381:0:0:0:0:
320,192,237231,1,4,0:0:0:0:
448,192,237231,128,0,238131:0:0:0:0:
64,192,237381,128,2,237531:0:0:0:0:
192,192,237531,128,2,237681:0:0:0:0:
320,192,237681,128,2,237831:0:0:0:0:
192,192,237831,128,6,237981:0:0:0:0:
64,192,237981,128,2,238131:0:0:0:0:
320,192,238131,128,2,238281:0:0:0:0:
192,192,238281,128,2,238431:0:0:0:0:
64,192,238431,1,2,0:0:0:0:
320,192,238431,128,8,238581:0:0:0:0:
448,192,238431,1,4,0:0:0:0:
448,192,238581,128,2,238731:0:0:0:0:
192,192,238731,128,2,238881:0:0:0:0:
320,192,238881,128,2,239031:0:0:0:0:
64,192,239031,128,6,239181:0:0:0:0:
192,192,239181,128,2,239331:0:0:0:0:
320,192,239331,128,2,239481:0:0:0:0:
448,192,239481,128,2,239631:0:0:0:0:
192,192,239631,128,2,239781:0:0:0:0:
320,192,239631,128,4,240531:0:0:0:0:
64,192,239781,128,2,239931:0:0:0:0:
192,192,239931,128,2,240081:0:0:0:0:
448,192,240081,128,2,240231:0:0:0:0:
64,192,240231,128,6,240381:0:0:0:0:
448,192,240381,128,2,240531:0:0:0:0:
192,192,240531,128,2,240681:0:0:0:0:
64,192,240681,128,2,240831:0:0:0:0:
192,192,240831,1,2,0:0:0:0:
320,192,240831,128,8,240981:0:0:0:0:
448,192,240831,1,4,0:0:0:0:
448,192,240981,128,2,241131:0:0:0:0:
192,192,241131,128,2,241281:0:0:0:0:
320,192,241281,128,2,241431:0:0:0:0:
64,192,241431,128,6,241581:0:0:0:0:
192,192,241581,128,2,241731:0:0:0:0:
320,192,241731,128,2,241881:0:0:0:0:
192,192,241881,128,2,242031:0:0:0:0:
64,192,242031,128,2,242931:0:0:0:0:
320,192,242031,128,4,242181:0:0:0:0:
448,192,242181,128,2,242331:0:0:0:0:
320,192,242331,128,2,242481:0:0:0:0:
192,192,242481,128,2,242631:0:0:0:0:
320,192,242631,128,6,242781:0:0:0:0:
448,192,242781,128,2,242931:0:0:0:0:
192,192,242931,128,2,243081:0:0:0:0:
320,192,243081,128,2,243231:0:0:0:0:
64,192,243231,1,2,0:0:0:0:
192,192,243231,128,8,243381:0:0:0:0:
448,192,243231,1,4,0:0:0:0:
64,192,243381,128,2,243531:0:0:0:0:
320,192,243531,128,2,243681:0:0:0:0:
192,192,243681,128,2,243831:0:0:0:0:
448,192,243831,128,6,243981:0:0:0:0:
320,192,243981,128,2,244131:0:0:0:0:
192,192,244131,128,2,244281:0:0:0:0:
448,192,244281,1,2,0:0:0:0:
320,192,244356,1,2,0:0:0:0:
64,192,244431,1,8,0:0:0:0:
192,192,244431,1,0,0:0:0:0:
448,192,244431,1,0,0:0:0:0:
64,192,244581,1,0,0:0:0:45:tom2.wav
320,192,244581,1,0,0:0:0:0:
192,192,244656,1,0,0:0:0:45:tom2.wav
320,192,244731,1,0,0:0:0:45:tom2.wav
448,192,244731,1,0,0:0:0:0:
64,192,244881,1,8,0:0:0:0:
192,192,244881,1,4,0:0:0:0:
448,192,244881,1,0,0:0:0:0:
192,192,245031,1,2,0:0:0:0:
320,192,245031,1,0,0:0:0:0:
448,192,245106,1,2,0:0:0:0:
64,192,245181,1,2,0:0:0:0:
320,192,245181,1,0,0:0:0:0:
64,192,245331,1,8,0:0:0:0:
192,192,245331,1,4,0:0:0:0:
448,192,245331,1,0,0:0:0:0:
192,192,245481,1,2,0:0:0:0:
320,192,245481,1,0,0:0:0:0:
448,192,245556,1,2,0:0:0:0:
64,192,245631,1,8,0:0:0:0:
192,192,245631,1,4,0:0:0:0:
320,192,245631,1,0,0:0:0:0:
64,192,245781,1,0,0:0:0:45:tom2.wav
448,192,245781,1,0,0:0:0:0:
192,192,245856,1,0,0:0:0:45:tom2.wav
320,192,245931,1,0,0:0:0:45:tom3.wav
448,192,245931,1,0,0:0:0:0:
320,192,246081,1,0,0:0:0:45:tom3.wav
448,192,246081,1,0,0:0:0:0:
64,192,246231,1,0,0:0:0:45:tom4.wav
192,192,246231,1,0,0:0:0:0:
64,192,246381,1,0,0:0:0:45:tom4.wav
192,192,246381,1,0,0:0:0:0:
320,192,246531,1,8,0:0:0:0:
448,192,246531,1,0,0:0:0:0:
64,192,246606,1,8,0:0:0:0:
192,192,246606,1,0,0:0:0:0:
320,192,246681,1,8,0:0:0:0:
448,192,246681,1,0,0:0:0:0:
64,192,246756,1,8,0:0:0:0:
192,192,246756,1,0,0:0:0:0:
320,192,246831,128,2,246981:0:0:0:0:
448,192,246831,1,4,0:0:0:0:
448,192,246981,128,2,247131:0:0:0:0:
64,192,247131,128,2,247281:0:0:0:0:
192,192,247281,128,2,247431:0:0:0:0:
320,192,247431,128,6,247581:0:0:0:0:
448,192,247581,128,2,247731:0:0:0:0:
192,192,247731,128,2,247881:0:0:0:0:
320,192,247731,128,0,247881:0:0:0:0:
64,192,247881,128,2,248031:0:0:0:0:
192,192,248031,128,2,248181:0:0:0:0:
448,192,248031,128,4,248481:0:0:0:0:
320,192,248031,1,8,0:0:0:0:
64,192,248181,128,2,248331:0:0:0:0:
320,192,248331,128,2,248481:0:0:0:0:
192,192,248481,128,2,248631:0:0:0:0:
64,192,248631,128,2,248931:0:0:0:0:
448,192,248631,128,4,248781:0:0:0:0:
320,192,248781,128,2,248931:0:0:0:0:
192,192,248931,128,2,249081:0:0:0:0:
448,192,248931,128,0,249231:0:0:0:0:
64,192,249081,128,2,249231:0:0:0:0:
192,192,249231,128,2,249531:0:0:0:0:
320,192,249231,128,4,249381:0:0:0:0:
448,192,249381,128,2,249531:0:0:0:0:
64,192,249531,128,2,249831:0:0:0:0:
320,192,249531,128,0,249681:0:0:0:0:
192,192,249681,128,2,249831:0:0:0:0:
448,192,249831,128,6,249981:0:0:0:0:
64,192,249981,128,2,250131:0:0:0:0:
192,192,250131,128,2,250281:0:0:0:0:
320,192,250131,128,0,250281:0:0:0:0:
448,192,250281,128,2,250431:0:0:0:0:
64,192,250431,128,2,250881:0:0:0:0:
192,192,250431,128,4,250581:0:0:0:0:
320,192,250431,1,8,0:0:0:0:
448,192,250581,128,2,250731:0:0:0:0:
320,192,250731,128,2,250881:0:0:0:0:
192,192,250881,128,2,251031:0:0:0:0:
320,192,251031,128,2,251181:0:0:0:0:
448,192,251031,128,4,251331:0:0:0:0:
64,192,251031,1,8,0:0:0:0:
64,192,251181,128,2,251331:0:0:0:0:
192,192,251331,128,2,251631:0:0:0:0:
320,192,251331,128,0,251481:0:0:0:0:
448,192,251481,128,2,251631:0:0:0:0:
64,192,251631,128,2,251931:0:0:0:0:
320,192,251631,128,4,251781:0:0:0:0:
192,192,251781,128,2,251931:0:0:0:0:
320,192,251931,128,2,252081:0:0:0:0:
448,192,251931,128,0,252231:0:0:0:0:
192,192,252081,128,2,252231:0:0:0:0:
64,192,252231,128,6,252381:0:0:0:0:
448,192,252381,128,2,252531:0:0:0:0:
192,192,252531,128,2,252681:0:0:0:0:
320,192,252531,128,0,252681:0:0:0:0:
64,192,252681,128,2,252831:0:0:0:0:
320,192,252831,128,2,252981:0:0:0:0:
448,192,252831,128,4,253131:0:0:0:0:
192,192,252831,1,8,0:0:0:0:
64,192,252981,128,2,253131:0:0:0:0:
192,192,253131,128,2,253281:0:0:0:0:
320,192,253131,128,0,253431:0:0:0:0:
448,192,253281,128,2,253431:0:0:0:0:
64,192,253431,128,2,253581:0:0:0:0:
192,192,253431,128,4,253731:0:0:0:0:
320,192,253581,128,2,253731:0:0:0:0:
64,192,253731,128,2,254331:0:0:0:0:
448,192,253731,128,0,253881:0:0:0:0:
320,192,253881,128,2,254031:0:0:0:0:
192,192,254031,128,2,254181:0:0:0:0:
448,192,254031,1,4,0:0:0:0:
320,192,254181,128,2,254331:0:0:0:0:
192,192,254331,128,2,254781:0:0:0:0:
448,192,254331,128,0,254481:0:0:0:0:
64,192,254481,128,2,254631:0:0:0:0:
448,192,254631,128,6,254781:0:0:0:0:
320,192,254781,128,2,254931:0:0:0:0:
192,192,254931,128,2,255081:0:0:0:0:
448,192,254931,128,0,255531:0:0:0:0:
64,192,255081,128,2,255231:0:0:0:0:
192,192,255231,1,10,0:0:0:0:
320,192,255231,128,4,255381:0:0:0:0:
64,192,255381,128,2,255531:0:0:0:0:
192,192,255531,128,2,256131:0:0:0:0:
320,192,255531,128,0,255681:0:0:0:0:
64,192,255681,128,2,255831:0:0:0:0:
320,192,255831,1,10,0:0:0:0:
448,192,255831,1,4,0:0:0:0:
448,192,255981,1,2,0:0:0:0:
64,192,256131,1,8,0:0:0:0:
320,192,256131,1,2,0:0:0:0:
448,192,256131,128,0,257031:0:0:0:0:
64,192,256281,1,8,0:0:0:0:
192,192,256281,1,0,0:0:0:0:
320,192,256281,1,2,0:0:0:0:
192,192,256431,1,4,0:0:0:0:
320,192,256431,128,2,256581:0:0:0:0:
64,192,256581,128,2,256731:0:0:0:0:
192,192,256731,128,2,256881:0:0:0:0:
320,192,256881,128,2,257031:0:0:0:0:
64,192,257031,128,6,257181:0:0:0:0:
192,192,257181,128,2,257331:0:0:0:0:
64,192,257331,128,2,257481:0:0:0:0:
320,192,257331,128,0,257481:0:0:0:0:
448,192,257481,128,2,257631:0:0:0:0:
64,192,257631,128,2,258081:0:0:0:0:
192,192,257631,128,4,257781:0:0:0:0:
320,192,257631,1,8,0:0:0:0:
448,192,257781,128,2,257931:0:0:0:0:
320,192,257931,128,2,258081:0:0:0:0:
192,192,258081,128,2,258231:0:0:0:0:
320,192,258231,128,2,258531:0:0:0:0:
448,192,258231,128,4,258381:0:0:0:0:
64,192,258381,128,2,258531:0:0:0:0:
192,192,258531,128,2,258681:0:0:0:0:
448,192,258531,128,0,259131:0:0:0:0:
320,192,258681,128,2,258831:0:0:0:0:
64,192,258831,128,2,258981:0:0:0:0:
192,192,258831,1,4,0:0:0:0:
192,192,258981,128,2,259131:0:0:0:0:
64,192,259131,128,2,259281:0:0:0:0:
320,192,259131,128,0,259431:0:0:0:0:
448,192,259281,128,2,259431:0:0:0:0:
192,192,259431,128,6,259581:0:0:0:0:
64,192,259581,128,2,259731:0:0:0:0:
448,192,259731,128,2,259881:0:0:0:0:
320,192,259731,128,0,259881:0:0:0:0:
192,192,259881,128,2,260031:0:0:0:0:
64,192,260031,128,2,260481:0:0:0:0:
448,192,260031,128,4,260181:0:0:0:0:
320,192,260031,1,8,0:0:0:0:
192,192,260181,128,2,260331:0:0:0:0:
320,192,260331,128,2,260481:0:0:0:0:
448,192,260481,128,2,260631:0:0:0:0:
192,192,260631,128,2,260781:0:0:0:0:
64,192,260631,128,4,260931:0:0:0:0:
320,192,260631,1,8,0:0:0:0:
320,192,260781,128,2,260931:0:0:0:0:
192,192,260931,128,2,261081:0:0:0:0:
448,192,260931,128,0,261531:0:0:0:0:
64,192,261081,128,2,261231:0:0:0:0:
320,192,261231,128,2,261381:0:0:0:0:
192,192,261231,1,4,0:0:0:0:
64,192,261381,128,2,261531:0:0:0:0:
192,192,261531,128,2,261831:0:0:0:0:
320,192,261531,128,0,261681:0:0:0:0:
448,192,261681,128,2,261831:0:0:0:0:
64,192,261831,128,6,261981:0:0:0:0:
448,192,261981,128,2,262131:0:0:0:0:
192,192,262131,128,2,262281:0:0:0:0:
320,192,262131,128,0,262281:0:0:0:0:
64,192,262281,128,2,262431:0:0:0:0:
320,192,262431,128,2,262581:0:0:0:0:
448,192,262431,128,4,262731:0:0:0:0:
192,192,262431,1,8,0:0:0:0:
64,192,262581,128,2,262731:0:0:0:0:
192,192,262731,128,2,262881:0:0:0:0:
320,192,262731,128,0,263031:0:0:0:0:
64,192,262881,128,2,263031:0:0:0:0:
192,192,263031,128,2,263331:0:0:0:0:
448,192,263031,128,4,263181:0:0:0:0:
320,192,263181,128,2,263331:0:0:0:0:
64,192,263331,128,2,264531:0:0:0:0:
448,192,263331,128,0,263481:0:0:0:0:
320,192,263481,128,2,263631:0:0:0:0:
192,192,263631,128,2,263781:0:0:0:0:
448,192,263631,1,4,0:0:0:0:
448,192,263781,128,2,263931:0:0:0:0:
320,192,263931,128,2,264081:0:0:0:0:
192,192,264081,128,2,264231:0:0:0:0:
320,192,264231,128,6,264381:0:0:0:0:
448,192,264381,128,2,264531:0:0:0:0:
192,192,264531,128,2,264681:0:0:0:0:
320,192,264681,128,2,264831:0:0:0:0:
448,192,264831,128,2,264981:0:0:0:0:
192,192,264831,1,8,0:0:0:0:
64,192,264831,128,4,265881:0:0:0:0:
320,192,264981,128,2,265131:0:0:0:0:
192,192,265131,128,2,265281:0:0:0:0:
320,192,265281,128,2,265431:0:0:0:0:
448,192,265431,128,6,265581:0:0:0:0:
320,192,265581,128,2,265731:0:0:0:0:
192,192,265731,128,2,265881:0:0:0:0:
448,192,265881,1,2,0:0:0:0:
320,192,265956,1,2,0:0:0:0:
192,192,266031,1,8,0:0:0:0:
64,192,266031,1,0,0:0:0:0:
448,192,266106,1,8,0:0:0:0:
320,192,266106,1,0,0:0:0:0:
64,192,266181,1,0,0:0:0:45:tom2.wav
192,192,266256,1,0,0:0:0:45:tom2.wav
448,192,266331,1,0,0:0:0:45:tom3.wav
320,192,266406,1,0,0:0:0:45:tom3.wav
64,192,266481,1,0,0:0:0:45:tom4.wav
192,192,266556,1,0,0:0:0:45:tom4.wav
448,192,266631,1,8,0:0:0:0:
320,192,266631,1,0,0:0:0:0:
192,192,266706,1,8,0:0:0:0:
64,192,266706,1,0,0:0:0:0:
448,192,266781,1,2,0:0:0:0:
320,192,266856,1,2,0:0:0:0:
192,192,266931,1,8,0:0:0:0:
64,192,266931,1,0,0:0:0:0:
448,192,267006,1,8,0:0:0:0:
320,192,267006,1,0,0:0:0:0:
192,192,267081,1,2,0:0:0:0:
64,192,267156,1,2,0:0:0:0:
320,192,267231,128,2,267831:0:0:0:0:
448,192,267231,1,4,0:0:0:0:
192,192,267831,128,2,268431:0:0:0:0:
64,192,267831,1,4,0:0:0:0:
448,192,268431,1,2,0:0:0:0:
320,192,268431,1,4,0:0:0:0:
64,192,268431,128,0,268581:0:0:0:0:
192,192,268581,128,0,268731:0:0:0:0:
320,192,268731,128,0,268881:0:0:0:0:
448,192,268881,128,0,269031:0:0:0:0:
64,192,269031,1,8,0:0:0:0:
320,192,269031,1,4,0:0:0:0:
192,192,269031,128,0,269181:0:0:0:0:
448,192,269181,128,0,269331:0:0:0:0:
64,192,269331,128,0,269481:0:0:0:0:
320,192,269481,128,0,269631:0:0:0:0:
192,192,269631,128,2,269781:0:0:0:0:
448,192,269631,1,4,0:0:0:0:
64,192,269781,128,0,269931:0:0:0:0:
320,192,269931,128,0,270081:0:0:0:0:
64,192,270081,128,0,270231:0:0:0:0:
192,192,270231,1,8,0:0:0:0:
448,192,270231,128,4,270381:0:0:0:0:
320,192,270231,1,0,0:0:0:0:
320,192,270381,128,0,270531:0:0:0:0:
192,192,270531,128,0,270681:0:0:0:0:
64,192,270681,128,0,270831:0:0:0:0:
448,192,270831,128,2,271131:0:0:0:0:
192,192,270831,1,4,0:0:0:0:
320,192,270831,1,0,0:0:0:0:
320,192,270981,128,0,271281:0:0:0:0:
192,192,271131,128,0,271431:0:0:0:0:
320,192,271431,1,8,0:0:0:0:
64,192,271431,128,4,271581:0:0:0:0:
448,192,271431,1,0,0:0:0:0:
192,192,271581,128,0,271731:0:0:0:0:
320,192,271731,128,0,271881:0:0:0:0:
64,192,271881,128,0,272031:0:0:0:0:
448,192,272031,1,2,0:0:0:0:
320,192,272031,128,4,272181:0:0:0:0:
192,192,272181,128,0,272331:0:0:0:0:
448,192,272331,1,2,0:0:0:0:
64,192,272331,128,0,272481:0:0:0:0:
320,192,272481,128,0,272631:0:0:0:0:
192,192,272631,1,8,0:0:0:0:
64,192,272631,128,4,272781:0:0:0:0:
448,192,272631,1,0,0:0:0:0:
192,192,272781,128,2,272931:0:0:0:0:
448,192,272781,1,0,0:0:0:0:
320,192,272931,128,0,273081:0:0:0:0:
448,192,273081,128,2,273231:0:0:0:0:
64,192,273081,1,0,0:0:0:0:
192,192,273231,1,2,0:0:0:0:
320,192,273231,128,4,273681:0:0:0:0:
64,192,273231,1,0,0:0:0:0:
192,192,273531,128,0,273831:0:0:0:0:
64,192,273831,128,8,273981:0:0:0:0:
320,192,273831,1,4,0:0:0:0:
448,192,273831,1,0,0:0:0:0:
320,192,273981,128,0,274131:0:0:0:0:
448,192,274056,128,0,274131:0:0:0:0:
64,192,274131,128,0,274281:0:0:0:0:
192,192,274281,128,0,274431:0:0:0:0:
64,192,274431,1,2,0:0:0:0:
320,192,274431,128,4,274581:0:0:0:0:
448,192,274506,128,0,274581:0:0:0:0:
64,192,274581,128,0,274731:0:0:0:0:
448,192,274731,128,0,274881:0:0:0:0:
320,192,274881,128,0,275031:0:0:0:0:
64,192,274956,128,0,275031:0:0:0:0:
192,192,275031,128,8,275181:0:0:0:0:
448,192,275031,128,4,275331:0:0:0:0:
320,192,275181,128,0,275331:0:0:0:0:
192,192,275331,128,0,275481:0:0:0:0:
320,192,275481,128,0,275631:0:0:0:0:
64,192,275631,128,2,276081:0:0:0:0:
192,192,275631,1,4,0:0:0:0:
448,192,275631,1,0,0:0:0:0:
192,192,275781,128,0,276081:0:0:0:0:
320,192,275931,128,0,276081:0:0:0:0:
192,192,276231,1,8,0:0:0:0:
320,192,276231,1,4,0:0:0:0:
448,192,276231,128,0,276381:0:0:0:0:
64,192,276381,128,0,276531:0:0:0:0:
192,192,276531,128,0,276681:0:0:0:0:
320,192,276681,1,2,0:0:0:0:
192,192,276756,1,2,0:0:0:0:
64,192,276831,1,8,0:0:0:0:
320,192,276831,1,4,0:0:0:0:
448,192,276831,1,0,0:0:0:0:
64,192,276981,1,0,0:0:0:45:tom2.wav
192,192,276981,1,0,0:0:0:0:
64,192,277131,1,0,0:0:0:45:tom2.wav
192,192,277131,1,0,0:0:0:0:
64,192,277281,1,8,0:0:0:0:
320,192,277281,1,4,0:0:0:0:
448,192,277281,1,0,0:0:0:0:
320,192,277431,1,0,0:0:0:45:tom3.wav
448,192,277431,1,0,0:0:0:0:
192,192,277581,1,2,0:0:0:0:
448,192,277581,1,0,0:0:0:0:
320,192,277656,1,2,0:0:0:0:
64,192,277731,1,8,0:0:0:0:
192,192,277731,1,4,0:0:0:0:
448,192,277731,1,0,0:0:0:0:
64,192,277881,1,0,0:0:0:0:
192,192,277881,1,0,0:0:0:0:
64,192,278031,128,2,278181:0:0:0:0:
192,192,278031,1,4,0:0:0:0:
448,192,278031,1,0,0:0:0:0:
192,192,278181,128,2,278331:0:0:0:0:
320,192,278181,1,0,0:0:0:0:
320,192,278331,1,2,0:0:0:0:
448,192,278331,128,0,278481:0:0:0:0:
64,192,278481,128,0,278631:0:0:0:0:
192,192,278631,128,2,278781:0:0:0:0:
448,192,278631,1,0,0:0:0:0:
64,192,278781,128,2,278931:0:0:0:0:
448,192,278781,1,0,0:0:0:0:
320,192,278931,128,0,279081:0:0:0:0:
64,192,279081,1,2,0:0:0:0:
192,192,279081,128,0,279231:0:0:0:0:
64,192,279231,1,8,0:0:0:0:
320,192,279231,128,4,279381:0:0:0:0:
448,192,279231,1,0,0:0:0:0:
448,192,279381,128,0,279531:0:0:0:0:
64,192,279531,1,2,0:0:0:0:
192,192,279531,128,0,279681:0:0:0:0:
320,192,279681,128,2,279831:0:0:0:0:
448,192,279681,1,0,0:0:0:0:
64,192,279831,128,0,279981:0:0:0:0:
192,192,279981,128,2,280131:0:0:0:0:
320,192,279981,1,0,0:0:0:0:
320,192,280131,128,2,280281:0:0:0:0:
448,192,280131,1,0,0:0:0:0:
448,192,280281,128,2,280431:0:0:0:0:
64,192,280281,1,0,0:0:0:0:
192,192,280431,1,2,0:0:0:0:
320,192,280431,128,4,280731:0:0:0:0:
64,192,280431,1,0,0:0:0:0:
448,192,280581,1,2,0:0:0:0:
192,192,280581,128,0,280881:0:0:0:0:
64,192,280731,128,2,281031:0:0:0:0:
448,192,280731,1,0,0:0:0:0:
192,192,281031,128,2,281181:0:0:0:0:
320,192,281031,1,0,0:0:0:0:
320,192,281181,128,2,281331:0:0:0:0:
64,192,281181,1,0,0:0:0:0:
448,192,281331,128,0,281481:0:0:0:0:
192,192,281481,128,2,281631:0:0:0:0:
320,192,281481,1,0,0:0:0:0:
64,192,281631,1,8,0:0:0:0:
320,192,281631,1,0,0:0:0:0:
448,192,281631,1,0,0:0:0:0:
64,192,281781,1,0,0:0:0:45:tom2.wav
448,192,281781,1,0,0:0:0:0:
320,192,281856,1,0,0:0:0:45:tom2.wav
64,192,281931,1,0,0:0:0:45:tom2.wav
192,192,281931,1,0,0:0:0:0:
192,192,282081,1,8,0:0:0:0:
320,192,282081,1,4,0:0:0:0:
448,192,282081,1,0,0:0:0:0:
64,192,282231,1,0,0:0:0:45:tom3.wav
448,192,282231,1,0,0:0:0:0:
192,192,282306,1,0,0:0:0:45:tom3.wav
320,192,282381,1,0,0:0:0:45:tom3.wav
448,192,282381,1,0,0:0:0:0:
64,192,282531,1,8,0:0:0:0:
192,192,282531,1,0,0:0:0:0:
320,192,282606,1,8,0:0:0:0:
448,192,282606,1,0,0:0:0:0:
64,192,282681,1,8,0:0:0:0:
192,192,282681,1,0,0:0:0:0:
320,192,282756,1,8,0:0:0:0:
448,192,282756,1,0,0:0:0:0:
64,192,282831,128,2,283281:0:0:0:0:
192,192,282831,1,4,0:0:0:0:
192,192,282981,128,0,283281:0:0:0:0:
320,192,283131,128,2,283281:0:0:0:0:
64,192,283431,1,8,0:0:0:0:
320,192,283431,1,4,0:0:0:0:
448,192,283431,128,0,283581:0:0:0:0:
64,192,283581,128,2,283731:0:0:0:0:
192,192,283581,1,0,0:0:0:0:
192,192,283731,128,0,283881:0:0:0:0:
320,192,283881,128,2,284031:0:0:0:0:
448,192,283881,1,0,0:0:0:0:
64,192,284031,128,2,284181:0:0:0:0:
192,192,284031,1,4,0:0:0:0:
320,192,284181,128,0,284331:0:0:0:0:
192,192,284331,128,2,284481:0:0:0:0:
448,192,284331,1,0,0:0:0:0:
64,192,284481,128,2,284631:0:0:0:0:
448,192,284481,1,0,0:0:0:0:
192,192,284631,1,8,0:0:0:0:
448,192,284631,128,4,284781:0:0:0:0:
320,192,284631,1,0,0:0:0:0:
64,192,284781,1,2,0:0:0:0:
320,192,284781,128,0,284931:0:0:0:0:
192,192,284931,128,2,285081:0:0:0:0:
448,192,284931,1,0,0:0:0:0:
448,192,285081,1,2,0:0:0:0:
64,192,285081,128,0,285231:0:0:0:0:
192,192,285231,1,8,0:0:0:0:
320,192,285231,1,4,0:0:0:0:
448,192,285231,1,0,0:0:0:0:
192,192,285381,1,2,0:0:0:0:
320,192,285381,1,0,0:0:0:0:
64,192,285531,1,2,0:0:0:0:
320,192,285531,1,0,0:0:0:0:
64,192,285681,1,8,0:0:0:0:
192,192,285681,1,4,0:0:0:0:
448,192,285681,1,0,0:0:0:0:
320,192,285831,1,2,0:0:0:0:
448,192,285831,1,0,0:0:0:0:
64,192,285981,1,2,0:0:0:0:
192,192,285981,1,0,0:0:0:0:
64,192,286131,1,8,0:0:0:0:
320,192,286131,1,4,0:0:0:0:
448,192,286131,1,0,0:0:0:0:
192,192,286281,1,2,0:0:0:0:
320,192,286281,1,0,0:0:0:0:
64,192,286431,1,8,0:0:0:0:
192,192,286431,1,4,0:0:0:0:
448,192,286431,1,0,0:0:0:0:
320,192,286506,1,2,0:0:0:0:
64,192,286581,1,2,0:0:0:0:
448,192,286581,1,0,0:0:0:0:
192,192,286731,1,2,0:0:0:0:
448,192,286731,1,0,0:0:0:0:
64,192,286881,1,8,0:0:0:0:
192,192,286881,1,4,0:0:0:0:
320,192,286881,1,0,0:0:0:0:
448,192,286956,1,2,0:0:0:0:
64,192,287031,1,2,0:0:0:0:
320,192,287031,1,0,0:0:0:0:
320,192,287181,1,2,0:0:0:0:
448,192,287181,1,0,0:0:0:0:
64,192,287331,1,8,0:0:0:0:
192,192,287331,1,4,0:0:0:0:
448,192,287331,1,0,0:0:0:0:
320,192,287406,1,2,0:0:0:0:
64,192,287481,1,2,0:0:0:0:
192,192,287481,1,0,0:0:0:0:
64,192,287628,128,2,289579:0:0:0:0:
192,192,287628,128,4,290067:0:0:0:0:
320,192,287628,128,0,290554:0:0:0:0:
448,192,287628,128,0,291530:0:0:0:0:
64,192,290554,1,4,0:0:0:0:
64,192,291042,1,4,0:0:0:0:
64,192,291530,1,2,0:0:0:0:
192,192,291530,1,8,0:0:0:0:
320,192,291530,1,0,0:0:0:0:
64,192,291652,1,2,0:0:0:0:
320,192,291652,1,8,0:0:0:0:
192,192,291774,1,8,0:0:0:0:
448,192,291774,1,2,0:0:0:0:
64,192,291896,1,2,0:0:0:0:
192,192,291896,1,8,0:0:0:0:
64,192,292018,1,8,0:0:0:0:
448,192,292018,1,2,0:0:0:0:
320,192,292140,1,2,0:0:0:0:
448,192,292140,1,8,0:0:0:0:
64,192,292262,1,2,0:0:0:0:
320,192,292262,1,8,0:0:0:0:
64,192,292506,1,2,0:0:0:0:
448,192,292506,1,0,0:0:0:0:
192,192,292749,1,0,0:0:0:0:
192,192,292871,1,0,0:0:0:0:
320,192,292993,1,2,0:0:0:0:
448,192,292993,1,0,0:0:0:0:
192,192,293115,1,2,0:0:0:0:
64,192,293237,1,0,0:0:0:45:tom4.wav
448,192,293359,1,0,0:0:0:45:tom4.wav
64,192,293481,1,0,0:0:0:45:tom2.wav
320,192,293603,1,0,0:0:0:45:tom2.wav
192,192,293725,1,0,0:0:0:45:tom3.wav
448,192,293847,1,0,0:0:0:45:tom3.wav
64,192,293969,1,0,0:0:0:45:tom3.wav
320,192,294091,1,0,0:0:0:45:tom3.wav
192,192,294213,1,0,0:0:0:45:tom3.wav
448,192,294335,1,0,0:0:0:45:tom3.wav
192,192,294457,1,0,0:0:0:45:tom2.wav
320,192,294518,1,0,0:0:0:45:tom2.wav
448,192,294579,1,0,0:0:0:45:tom2.wav
192,192,294701,1,0,0:0:0:45:tom4.wav
448,192,294823,1,0,0:0:0:45:tom3.wav
320,192,294884,1,0,0:0:0:45:tom3.wav
64,192,294945,1,0,0:0:0:45:tom3.wav
192,192,294945,1,0,0:0:0:0:
448,192,295067,1,0,0:0:0:45:tom4.wav
320,192,295188,1,0,0:0:0:45:tom2.wav
448,192,295310,1,0,0:0:0:45:tom3.wav
64,192,295432,1,8,0:0:0:0:
192,192,295432,1,4,0:0:0:0:
320,192,295432,1,0,0:0:0:0:
192,192,295554,1,8,0:0:0:0:
448,192,295554,1,0,0:0:0:0:
64,192,295676,1,8,0:0:0:0:
320,192,295676,1,0,0:0:0:0:
320,192,295798,1,8,0:0:0:0:
448,192,295798,1,0,0:0:0:0:
64,192,295920,1,8,0:0:0:0:
448,192,295920,1,0,0:0:0:0:
64,192,296042,1,8,0:0:0:0:
192,192,296042,1,0,0:0:0:0:
192,192,296164,1,8,0:0:0:0:
448,192,296164,1,0,0:0:0:0:
448,192,296408,1,2,0:0:0:0:
64,192,296652,1,0,0:0:0:45:tom2.wav
64,192,296774,1,0,0:0:0:45:tom2.wav
192,192,296896,1,0,0:0:0:45:tom3.wav
192,192,297018,1,0,0:0:0:45:tom3.wav
320,192,297140,1,0,0:0:0:45:tom4.wav
320,192,297262,1,0,0:0:0:45:tom4.wav
448,192,297384,1,0,0:0:0:45:tom4.wav
448,192,298664,1,2,0:0:0:0:
320,192,298725,1,2,0:0:0:0:
192,192,298786,1,2,0:0:0:0:
64,192,298847,1,2,0:0:0:0:
320,192,298847,1,8,0:0:0:0:
448,192,298847,1,4,0:0:0:0:
64,192,299335,1,2,0:0:0:0:
192,192,299335,1,4,0:0:0:0:
320,192,299335,1,0,0:0:0:0:
448,192,299335,1,0,0:0:0:0:
64,192,299457,1,2,0:0:0:0:
192,192,299457,1,0,0:0:0:0:
192,192,299701,1,2,0:0:0:0:
448,192,299701,1,0,0:0:0:0:
64,192,299823,1,4,0:0:0:0:
320,192,299945,1,2,0:0:0:0:
448,192,299945,1,0,0:0:0:0:
64,192,300188,1,2,0:0:0:0:
320,192,300188,1,0,0:0:0:0:
192,192,300310,1,8,0:0:0:0:
320,192,300310,1,0,0:0:0:0:
448,192,300310,1,0,0:0:0:0:
192,192,300554,1,2,0:0:0:0:
320,192,300554,1,0,0:0:0:0:
320,192,300798,1,2,0:0:0:0:
448,192,300798,1,4,0:0:0:0:
64,192,301042,1,2,0:0:0:0:
320,192,301042,1,0,0:0:0:0:
64,192,301164,1,2,0:0:0:0:
192,192,301164,1,0,0:0:0:0:
64,192,301286,1,2,0:0:0:0:
448,192,301286,1,4,0:0:0:0:
192,192,301408,1,2,0:0:0:0:
448,192,301408,1,0,0:0:0:0:
320,192,301530,1,2,0:0:0:0:
448,192,301530,1,0,0:0:0:0:
64,192,301652,1,2,0:0:0:0:
192,192,301652,1,0,0:0:0:0:
320,192,301774,1,4,0:0:0:0:
64,192,301896,1,2,0:0:0:0:
448,192,301896,1,0,0:0:0:0:
192,192,302140,1,2,0:0:0:0:
448,192,302140,1,0,0:0:0:0:
64,192,302262,1,8,0:0:0:0:
192,192,302262,1,4,0:0:0:0:
320,192,302262,1,0,0:0:0:0:
192,192,302506,1,2,0:0:0:0:
320,192,302506,1,0,0:0:0:0:
64,192,302749,1,2,0:0:0:0:
320,192,302749,1,4,0:0:0:0:
64,192,302871,1,2,0:0:0:0:
192,192,302871,1,0,0:0:0:0:
192,192,303115,1,2,0:0:0:0:
448,192,303115,1,0,0:0:0:0:
320,192,303237,1,2,0:0:0:0:
448,192,303237,1,4,0:0:0:0:
64,192,303359,1,2,0:0:0:0:
320,192,303359,1,0,0:0:0:0:
64,192,303603,1,2,0:0:0:0:
320,192,303603,1,0,0:0:0:0:
448,192,303725,1,4,0:0:0:0:
64,192,303847,1,2,0:0:0:0:
192,192,303847,1,0,0:0:0:0:
192,192,304091,1,2,0:0:0:0:
448,192,304091,1,0,0:0:0:0:
64,192,304213,1,8,0:0:0:0:
320,192,304213,1,4,0:0:0:0:
448,192,304213,1,0,0:0:0:0:
64,192,304457,1,2,0:0:0:0:
448,192,304457,1,0,0:0:0:0:
64,192,304701,1,4,0:0:0:0:
320,192,304701,1,2,0:0:0:0:
192,192,304945,1,2,0:0:0:0:
448,192,304945,1,0,0:0:0:0:
320,192,305067,1,2,0:0:0:0:
448,192,305067,1,0,0:0:0:0:
64,192,305188,1,2,0:0:0:0:
320,192,305188,1,4,0:0:0:0:
64,192,305310,1,2,0:0:0:0:
192,192,305310,1,0,0:0:0:0:
64,192,305432,1,2,0:0:0:0:
320,192,305432,1,0,0:0:0:0:
320,192,305554,1,2,0:0:0:0:
448,192,305554,1,0,0:0:0:0:
192,192,305676,1,4,0:0:0:0:
64,192,305798,1,2,0:0:0:0:
448,192,305798,1,0,0:0:0:0:
64,192,306042,1,2,0:0:0:0:
320,192,306042,1,0,0:0:0:0:
192,192,306164,1,8,0:0:0:0:
320,192,306164,1,4,0:0:0:0:
448,192,306164,1,0,0:0:0:0:
192,192,306408,1,2,0:0:0:0:
448,192,306408,1,0,0:0:0:0:
64,192,306530,1,2,0:0:0:0:
192,192,306591,1,2,0:0:0:0:
64,192,306652,1,2,0:0:0:0:
320,192,306652,1,4,0:0:0:0:
448,192,306652,1,8,0:0:0:0:
320,192,306774,1,2,0:0:0:0:
448,192,306774,1,0,0:0:0:0:
64,192,307140,1,2,0:0:0:0:
192,192,307140,1,4,0:0:0:0:
448,192,307140,1,0,0:0:0:0:
320,192,307140,1,0,0:0:0:0:
320,192,307262,1,2,0:0:0:0:
448,192,307262,1,0,0:0:0:0:
64,192,307506,1,2,0:0:0:0:
320,192,307506,1,0,0:0:0:0:
192,192,307628,1,8,0:0:0:0:
320,192,307628,1,4,0:0:0:0:
448,192,307628,1,0,0:0:0:0:
64,192,307749,1,2,0:0:0:0:
192,192,307749,1,0,0:0:0:0:
192,192,307993,1,2,0:0:0:0:
448,192,307993,1,0,0:0:0:0:
64,192,308115,1,2,0:0:0:0:
448,192,308115,1,4,0:0:0:0:
192,192,308359,1,2,0:0:0:0:
320,192,308359,1,0,0:0:0:0:
64,192,308603,1,8,0:0:0:0:
192,192,308603,1,4,0:0:0:0:
320,192,308603,1,0,0:0:0:0:
192,192,308847,1,2,0:0:0:0:
448,192,308847,1,0,0:0:0:0:
320,192,308969,1,2,0:0:0:0:
448,192,308969,1,0,0:0:0:0:
64,192,309091,1,2,0:0:0:0:
448,192,309091,1,4,0:0:0:0:
64,192,309213,1,2,0:0:0:0:
320,192,309213,1,0,0:0:0:0:
64,192,309335,1,2,0:0:0:0:
192,192,309335,1,0,0:0:0:0:
320,192,309457,1,2,0:0:0:0:
448,192,309457,1,0,0:0:0:0:
64,192,309579,1,8,0:0:0:0:
192,192,309579,1,4,0:0:0:0:
320,192,309579,1,0,0:0:0:0:
64,192,309701,1,2,0:0:0:0:
448,192,309701,1,0,0:0:0:0:
64,192,309945,1,2,0:0:0:0:
320,192,309945,1,0,0:0:0:0:
64,192,310067,1,2,0:0:0:0:
448,192,310067,1,4,0:0:0:0:
192,192,310310,1,2,0:0:0:0:
320,192,310310,1,0,0:0:0:0:
64,192,310554,1,8,0:0:0:0:
192,192,310554,1,4,0:0:0:0:
448,192,310554,1,0,0:0:0:0:
320,192,310676,1,2,0:0:0:0:
448,192,310676,1,0,0:0:0:0:
64,192,310920,1,2,0:0:0:0:
448,192,310920,1,0,0:0:0:0:
320,192,310981,1,2,0:0:0:0:
64,192,311042,1,2,0:0:0:0:
192,192,311042,1,4,0:0:0:0:
192,192,311164,1,2,0:0:0:0:
448,192,311164,1,0,0:0:0:0:
192,192,311408,1,2,0:0:0:0:
448,192,311408,1,0,0:0:0:0:
64,192,311530,1,8,0:0:0:0:
192,192,311530,1,4,0:0:0:0:
320,192,311530,1,0,0:0:0:0:
320,192,311652,1,2,0:0:0:0:
448,192,311652,1,0,0:0:0:0:
64,192,311896,1,2,0:0:0:0:
320,192,311896,1,0,0:0:0:0:
192,192,312018,1,2,0:0:0:0:
320,192,312018,1,4,0:0:0:0:
64,192,312262,1,2,0:0:0:0:
448,192,312262,1,0,0:0:0:0:
192,192,312506,1,8,0:0:0:0:
320,192,312506,1,4,0:0:0:0:
448,192,312506,1,0,0:0:0:0:
64,192,312749,1,2,0:0:0:0:
320,192,312749,1,0,0:0:0:0:
64,192,312871,1,2,0:0:0:0:
192,192,312871,1,0,0:0:0:0:
320,192,312932,1,2,0:0:0:0:
64,192,312993,1,2,0:0:0:0:
448,192,312993,1,4,0:0:0:0:
320,192,313115,1,2,0:0:0:0:
448,192,313115,1,0,0:0:0:0:
192,192,313237,1,2,0:0:0:0:
448,192,313237,1,0,0:0:0:0:
64,192,313359,1,2,0:0:0:0:
192,192,313359,1,0,0:0:0:0:
192,192,313481,1,8,0:0:0:0:
320,192,313481,1,4,0:0:0:0:
448,192,313481,1,0,0:0:0:0:
64,192,313603,1,2,0:0:0:0:
448,192,313603,1,0,0:0:0:0:
64,192,313847,1,2,0:0:0:0:
448,192,313847,1,0,0:0:0:0:
320,192,313908,1,2,0:0:0:0:
64,192,313969,1,8,0:0:0:0:
192,192,313969,1,4,0:0:0:0:
448,192,313969,1,0,0:0:0:0:
320,192,314091,1,0,0:0:0:45:tom2.wav
64,192,314213,1,0,0:0:0:45:tom2.wav
192,192,314335,1,8,0:0:0:0:
320,192,314335,1,4,0:0:0:0:
448,192,314335,1,0,0:0:0:0:
64,192,314457,1,0,0:0:0:45:tom3.wav
192,192,314579,1,0,0:0:0:0:
64,192,314701,1,8,0:0:0:0:
320,192,314701,1,4,0:0:0:0:
448,192,314701,1,0,0:0:0:0:
192,192,314823,1,2,0:0:0:0:
448,192,314823,1,0,0:0:0:0:
