osu file format v14

[General]
AudioFilename: audio.mp3
AudioLeadIn: 0
PreviewTime: 165557
Countdown: 0
SampleSet: Normal
StackLeniency: 0.7
Mode: 1
LetterboxInBreaks: 0
WidescreenStoryboard: 0

[Editor]
Bookmarks: 12032,31232
DistanceSpacing: 1.4
BeatDivisor: 4
GridSize: 32
TimelineZoom: 3.199999

[Metadata]
Title:A Desire to Disappear
TitleUnicode:消えていく望みを
Artist:Takamachi Walk
ArtistUnicode:Takamachi Walk
Creator:Akonine
Version:Calamity
Source:東方妖々夢 ~ Perfect Cherry Blossom.
Tags:天空の花の都 東方Project Team Shanghai Alice ZUN Tenkuu no Hana no Miyako Lily White リリーホワイト PCB Kieteiku Nozomi o Youyoumu Ghostly Dream The Capital City of Flowers in the Sky xandu kanachi metal metalcore english japanese jmetal j-metal touhou wither.
BeatmapID:3751800
BeatmapSetID:1828051

[Difficulty]
HPDrainRate:5
CircleSize:2
OverallDifficulty:7
ApproachRate:10
SliderMultiplier:1.4
SliderTickRate:1

[Events]
//Background and Video events
0,0,"taken from Seni.jpg",0,0
//Break Periods
//Storyboard Layer 0 (Background)
//Storyboard Layer 1 (Fail)
//Storyboard Layer 2 (Pass)
//Storyboard Layer 3 (Foreground)
//Storyboard Layer 4 (Overlay)
//Storyboard Sound Samples

[TimingPoints]
7232,300,4,1,1,95,1,0
31532,-105.263157894737,4,1,1,95,0,0
69632,-100,4,1,1,95,0,0
88832,-100,4,1,1,95,0,1
127232,-100,4,1,1,95,0,0
166832,333.333333333333,4,1,1,95,1,0
166832,-111.111111111111,4,1,1,95,0,0
176165,-105.263157894737,4,1,1,95,0,0
177498,-100,4,1,1,95,0,0
186831,300,4,1,1,95,1,0
186831,-111.111111111111,4,1,1,95,0,0
189231,300,4,1,1,95,1,0
189231,-100,4,1,1,95,0,1
227631,-100,4,1,1,95,0,0
246831,-100,4,1,1,95,0,1
268431,300,4,1,1,95,1,0
268431,-100,4,1,1,95,0,0
287628,487.80487804878,4,1,1,95,1,0
287628,-61.3496932515337,4,1,1,95,0,0
289579,-75.9259259259259,4,1,1,95,0,0
299335,487.80487804878,4,1,1,95,1,1
299335,-75.9259259259259,4,1,1,95,0,1
306774,-75.9259259259259,4,1,1,95,0,0
307139,-71.4285714285714,4,1,1,95,0,1
314822,-71.4285714285714,4,1,1,95,0,0

[HitObjects]
256,192,10832,5,8,0:0:0:0:
256,192,10982,1,0,0:0:0:0:
256,192,11057,1,0,0:0:0:0:
256,192,11132,1,0,0:0:0:0:
256,192,11282,1,0,0:0:0:0:
256,192,11432,1,8,0:0:0:0:
256,192,12032,1,0,0:0:0:0:
256,192,12182,1,0,0:0:0:0:
256,192,12332,1,0,0:0:0:0:
256,192,12632,5,8,0:0:0:0:
256,192,12782,1,0,0:0:0:0:
256,192,13082,1,0,0:0:0:0:
256,192,13232,1,8,0:0:0:0:
256,192,13532,1,0,0:0:0:0:
256,192,13682,1,0,0:0:0:0:
256,192,13832,1,8,0:0:0:0:
256,192,13982,1,0,0:0:0:0:
256,192,14132,1,8,0:0:0:0:
256,192,14282,1,8,0:0:0:0:
256,192,14432,1,0,0:0:0:0:
256,192,14582,1,0,0:0:0:0:
256,192,14732,1,8,0:0:0:0:
256,192,15032,1,8,0:0:0:0:
256,192,15182,1,0,0:0:0:0:
256,192,15482,1,0,0:0:0:0:
256,192,15632,1,8,0:0:0:0:
256,192,15932,1,0,0:0:0:0:
256,192,16082,1,0,0:0:0:0:
256,192,16232,1,8,0:0:0:0:
256,192,16382,1,0,0:0:0:0:
256,192,16532,1,8,0:0:0:0:
256,192,16682,1,8,0:0:0:0:
256,192,16832,1,0,0:0:0:0:
256,192,17132,1,0,0:0:0:0:
256,192,17432,1,8,0:0:0:0:
256,192,17582,1,0,0:0:0:0:
256,192,17882,1,0,0:0:0:0:
256,192,18032,1,8,0:0:0:0:
256,192,18332,1,0,0:0:0:0:
256,192,18482,1,0,0:0:0:0:
256,192,18632,1,8,0:0:0:0:
256,192,18782,1,0,0:0:0:0:
256,192,18932,1,8,0:0:0:0:
256,192,19082,1,8,0:0:0:0:
256,192,19232,1,0,0:0:0:0:
256,192,19382,1,8,0:0:0:0:
256,192,19532,1,0,0:0:0:0:
256,192,19832,1,8,0:0:0:0:
256,192,19982,1,0,0:0:0:0:
256,192,20282,1,0,0:0:0:0:
256,192,20357,1,0,0:0:0:0:
256,192,20432,1,8,0:0:0:0:
256,192,20582,1,0,0:0:0:0:
256,192,20732,1,0,0:0:0:0:
256,192,20882,1,8,0:0:0:0:
256,192,21032,1,0,0:0:0:0:
256,192,21182,1,0,0:0:0:0:
256,192,21257,1,0,0:0:0:0:
256,192,21332,1,8,0:0:0:0:
256,192,21407,1,0,0:0:0:0:
256,192,21482,1,8,0:0:0:0:
256,192,21557,1,8,0:0:0:0:
256,192,21632,1,0,0:0:0:0:
256,192,21782,1,0,0:0:0:0:
256,192,21932,1,0,0:0:0:0:
256,192,22232,5,8,0:0:0:0:
256,192,22382,1,0,0:0:0:0:
256,192,22682,1,0,0:0:0:0:
256,192,22832,1,8,0:0:0:0:
256,192,23132,1,0,0:0:0:0:
256,192,23282,1,0,0:0:0:0:
256,192,23432,1,8,0:0:0:0:
256,192,23582,1,0,0:0:0:0:
256,192,23732,1,8,0:0:0:0:
256,192,23882,1,8,0:0:0:0:
256,192,24032,1,0,0:0:0:0:
256,192,24182,1,0,0:0:0:0:
256,192,24332,1,8,0:0:0:0:
256,192,24632,1,8,0:0:0:0:
256,192,24782,1,0,0:0:0:0:
256,192,25082,1,0,0:0:0:0:
256,192,25232,1,8,0:0:0:0:
256,192,25532,1,0,0:0:0:0:
256,192,25682,1,0,0:0:0:0:
256,192,25832,1,8,0:0:0:0:
256,192,25982,1,0,0:0:0:0:
256,192,26132,1,8,0:0:0:0:
256,192,26282,1,8,0:0:0:0:
256,192,26432,1,0,0:0:0:0:
256,192,26732,1,0,0:0:0:0:
256,192,27032,1,8,0:0:0:0:
256,192,27182,1,0,0:0:0:0:
256,192,27482,1,0,0:0:0:0:
256,192,27632,1,8,0:0:0:0:
256,192,27932,1,0,0:0:0:0:
256,192,28082,1,0,0:0:0:0:
256,192,28232,1,8,0:0:0:0:
256,192,28382,1,0,0:0:0:0:
256,192,28532,1,8,0:0:0:0:
256,192,28682,1,8,0:0:0:0:
256,192,28832,1,0,0:0:0:0:
256,192,28982,1,0,0:0:0:0:
256,192,29132,1,8,0:0:0:0:
256,192,29282,1,0,0:0:0:0:
256,192,29432,1,8,0:0:0:0:
256,192,29582,1,0,0:0:0:0:
256,192,29732,1,0,0:0:0:0:
256,192,29882,1,8,0:0:0:0:
256,192,30032,1,0,0:0:0:0:
256,192,30107,1,0,0:0:0:0:
256,192,30182,1,0,0:0:0:0:
256,192,30332,1,0,0:0:0:0:
256,192,30482,1,0,0:0:0:0:
256,192,30557,1,0,0:0:0:0:
256,192,30632,1,8,0:0:0:0:
256,192,30782,1,0,0:0:0:0:
256,192,30932,1,8,0:0:0:0:
256,192,31007,1,0,0:0:0:0:
256,192,31082,1,8,0:0:0:0:
256,192,31232,1,4,0:0:0:0:
256,192,31532,1,0,0:0:0:0:
256,192,31982,1,0,0:0:0:0:
256,192,32282,1,0,0:0:0:0:
256,192,32432,1,8,0:0:0:0:
256,192,33332,1,0,0:0:0:0:
256,192,33632,1,0,0:0:0:0:
256,192,33932,1,0,0:0:0:0:
256,192,34382,1,0,0:0:0:0:
256,192,34682,1,0,0:0:0:0:
256,192,34832,1,8,0:0:0:0:
256,192,35132,1,0,0:0:0:0:
256,192,35432,1,8,0:0:0:0:
256,192,35732,1,0,0:0:0:0:
256,192,36032,1,4,0:0:0:0:
256,192,36332,1,0,0:0:0:0:
256,192,36782,1,0,0:0:0:0:
256,192,37082,1,0,0:0:0:0:
256,192,37232,1,8,0:0:0:0:
256,192,38132,1,0,0:0:0:0:
256,192,38432,1,0,0:0:0:0:
256,192,38732,1,0,0:0:0:0:
256,192,39182,1,0,0:0:0:0:
256,192,39482,1,0,0:0:0:0:
256,192,39632,1,8,0:0:0:0:
256,192,39932,1,0,0:0:0:0:
256,192,40232,1,8,0:0:0:0:
256,192,40382,1,8,0:0:0:0:
256,192,40532,1,0,0:0:0:0:
256,192,40682,1,8,0:0:0:0:
256,192,40832,1,4,0:0:0:0:
256,192,41132,1,0,0:0:0:0:
256,192,41582,1,0,0:0:0:0:
256,192,41882,1,0,0:0:0:0:
256,192,42032,1,8,0:0:0:0:
256,192,42932,1,0,0:0:0:0:
256,192,43082,1,0,0:0:0:0:
256,192,43232,1,0,0:0:0:0:
256,192,43532,1,0,0:0:0:0:
256,192,43982,1,0,0:0:0:0:
256,192,44282,1,0,0:0:0:0:
256,192,44432,1,8,0:0:0:0:
256,192,44882,1,0,0:0:0:0:
256,192,44957,1,0,0:0:0:0:
256,192,45032,1,8,0:0:0:0:
256,192,45332,1,0,0:0:0:0:
256,192,45482,1,8,0:0:0:0:
256,192,45632,1,4,0:0:0:0:
256,192,45932,1,0,0:0:0:0:
256,192,46382,1,0,0:0:0:0:
256,192,46682,1,0,0:0:0:0:
256,192,46832,1,8,0:0:0:0:
256,192,47732,1,0,0:0:0:0:
256,192,48032,1,0,0:0:0:0:
256,192,48332,1,0,0:0:0:0:
256,192,48782,1,0,0:0:0:0:
256,192,49082,1,0,0:0:0:0:
256,192,49232,1,8,0:0:0:0:
256,192,49382,1,0,0:0:0:0:
256,192,49457,1,0,0:0:0:0:
256,192,49532,1,0,0:0:0:0:
256,192,49682,1,0,0:0:0:0:
256,192,49832,1,8,0:0:0:0:
256,192,49982,1,0,0:0:0:0:
256,192,50132,1,8,0:0:0:0:
256,192,50282,1,8,0:0:0:0:
256,192,50432,1,4,0:0:0:0:
256,192,50732,1,0,0:0:0:0:
256,192,51182,1,0,0:0:0:0:
256,192,51482,1,0,0:0:0:0:
256,192,51632,1,8,0:0:0:0:
256,192,51932,1,0,0:0:0:0:
256,192,52082,1,0,0:0:0:0:
256,192,52232,1,8,0:0:0:0:
256,192,52382,1,8,0:0:0:0:
256,192,52532,1,0,0:0:0:0:
256,192,52682,1,8,0:0:0:0:
256,192,52832,1,0,0:0:0:0:
256,192,53132,1,0,0:0:0:0:
256,192,53582,1,0,0:0:0:0:
256,192,53882,1,0,0:0:0:0:
256,192,54032,1,8,0:0:0:0:
256,192,54332,1,0,0:0:0:0:
256,192,54482,1,0,0:0:0:0:
256,192,54632,1,8,0:0:0:0:
256,192,54932,1,8,0:0:0:0:
256,192,55082,1,8,0:0:0:0:
256,192,55232,1,4,0:0:0:0:
256,192,55532,1,0,0:0:0:0:
256,192,55982,1,0,0:0:0:0:
256,192,56282,1,0,0:0:0:0:
256,192,56432,1,8,0:0:0:0:
256,192,56732,1,8,0:0:0:0:
256,192,56882,1,8,0:0:0:0:
256,192,57032,1,0,0:0:0:0:
256,192,57182,1,8,0:0:0:0:
256,192,57332,1,0,0:0:0:0:
256,192,57632,1,0,0:0:0:0:
256,192,57932,1,8,0:0:0:0:
256,192,58382,1,8,0:0:0:0:
256,192,58682,1,0,0:0:0:0:
256,192,58757,1,0,0:0:0:0:
256,192,58832,1,8,0:0:0:0:
256,192,59132,1,0,0:0:0:0:
256,192,59432,1,8,0:0:0:0:
256,192,59582,1,8,0:0:0:0:
256,192,59732,1,0,0:0:0:0:
256,192,59882,1,8,0:0:0:0:
256,192,60032,1,4,0:0:0:0:
256,192,60332,1,0,0:0:0:0:
256,192,60782,1,0,0:0:0:0:
256,192,61082,1,0,0:0:0:0:
256,192,61232,1,8,0:0:0:0:
256,192,61532,1,0,0:0:0:0:
256,192,61682,1,0,0:0:0:0:
256,192,61832,1,8,0:0:0:0:
256,192,61982,1,0,0:0:0:0:
256,192,62132,1,8,0:0:0:0:
256,192,62282,1,8,0:0:0:0:
256,192,62432,1,0,0:0:0:0:
256,192,62732,1,0,0:0:0:0:
256,192,63182,1,0,0:0:0:0:
256,192,63482,1,0,0:0:0:0:
256,192,63632,1,8,0:0:0:0:
256,192,63932,1,8,0:0:0:0:
256,192,64082,1,0,0:0:0:0:
256,192,64157,1,0,0:0:0:0:
256,192,64232,1,8,0:0:0:0:
256,192,64532,1,0,0:0:0:0:
256,192,64682,1,8,0:0:0:0:
256,192,64832,1,4,0:0:0:0:
256,192,65132,1,0,0:0:0:0:
256,192,65582,1,0,0:0:0:0:
256,192,65882,1,0,0:0:0:0:
256,192,66032,1,8,0:0:0:0:
256,192,66332,1,8,0:0:0:0:
256,192,66482,1,8,0:0:0:0:
256,192,66632,1,0,0:0:0:0:
256,192,66782,1,8,0:0:0:0:
256,192,66932,1,0,0:0:0:0:
256,192,67082,1,0,0:0:0:0:
256,192,67157,1,0,0:0:0:0:
256,192,67232,1,0,0:0:0:0:
256,192,67532,1,0,0:0:0:0:
256,192,67682,1,0,0:0:0:0:
256,192,67982,1,0,0:0:0:0:
256,192,68282,1,0,0:0:0:0:
256,192,68432,1,8,0:0:0:0:
256,192,68582,1,8,0:0:0:0:
256,192,68657,1,8,0:0:0:0:
256,192,68732,1,8,0:0:0:0:
256,192,68882,1,0,0:0:0:0:
256,192,69032,1,8,0:0:0:0:
256,192,69182,1,0,0:0:0:0:
256,192,69332,1,8,0:0:0:0:
256,192,69407,1,8,0:0:0:0:
256,192,69482,1,8,0:0:0:0:
256,192,69632,1,4,0:0:0:0:
256,192,69782,1,0,0:0:0:0:
256,192,70082,1,0,0:0:0:0:
256,192,70232,1,8,0:0:0:0:
256,192,70532,1,0,0:0:0:0:
256,192,70682,1,0,0:0:0:0:
256,192,70982,1,0,0:0:0:0:
256,192,71132,1,0,0:0:0:0:
256,192,71432,1,8,0:0:0:0:
256,192,72032,1,0,0:0:0:0:
256,192,72182,1,0,0:0:0:0:
256,192,72482,1,0,0:0:0:0:
256,192,72632,1,8,0:0:0:0:
256,192,72932,1,0,0:0:0:0:
256,192,73082,1,0,0:0:0:0:
256,192,73382,1,0,0:0:0:0:
256,192,73532,1,0,0:0:0:0:
256,192,73832,1,12,0:0:0:0:
256,192,74432,1,4,0:0:0:0:
256,192,74582,1,0,0:0:0:0:
256,192,74882,1,0,0:0:0:0:
256,192,75032,1,8,0:0:0:0:
256,192,75332,1,0,0:0:0:0:
256,192,75482,1,0,0:0:0:0:
256,192,75782,1,0,0:0:0:0:
256,192,75932,1,0,0:0:0:0:
256,192,76232,1,8,0:0:0:0:
256,192,76832,1,0,0:0:0:0:
256,192,76982,1,0,0:0:0:0:
256,192,77282,1,0,0:0:0:0:
256,192,77432,1,8,0:0:0:0:
256,192,77732,1,0,0:0:0:0:
256,192,77882,1,0,0:0:0:0:
256,192,78182,1,0,0:0:0:0:
256,192,78332,1,0,0:0:0:0:
256,192,78632,1,12,0:0:0:0:
256,192,78782,1,0,0:0:0:0:
256,192,78932,1,8,0:0:0:0:
256,192,79082,1,8,0:0:0:0:
256,192,79232,1,4,0:0:0:0:
256,192,79382,1,0,0:0:0:0:
256,192,79682,1,0,0:0:0:0:
256,192,79832,1,8,0:0:0:0:
256,192,80132,1,0,0:0:0:0:
256,192,80282,1,0,0:0:0:0:
256,192,80582,1,0,0:0:0:0:
256,192,80732,1,0,0:0:0:0:
256,192,81032,1,8,0:0:0:0:
256,192,81632,1,0,0:0:0:0:
256,192,81782,1,0,0:0:0:0:
256,192,82082,1,0,0:0:0:0:
256,192,82232,1,8,0:0:0:0:
256,192,82532,1,0,0:0:0:0:
256,192,82682,1,0,0:0:0:0:
256,192,82982,1,0,0:0:0:0:
256,192,83132,1,0,0:0:0:0:
256,192,83432,1,12,0:0:0:0:
256,192,83732,1,8,0:0:0:0:
256,192,83882,1,8,0:0:0:0:
256,192,84032,1,4,0:0:0:0:
256,192,84182,1,0,0:0:0:0:
256,192,84482,1,0,0:0:0:0:
256,192,84632,1,8,0:0:0:0:
256,192,84932,1,0,0:0:0:0:
256,192,85082,1,0,0:0:0:0:
256,192,85382,1,0,0:0:0:0:
256,192,85532,1,0,0:0:0:0:
256,192,85832,1,8,0:0:0:0:
256,192,86132,1,0,0:0:0:0:
256,192,86282,1,0,0:0:0:0:
256,192,86432,1,8,0:0:0:0:
256,192,86582,1,0,0:0:0:0:
256,192,86732,1,0,0:0:0:0:
256,192,86882,1,8,0:0:0:0:
256,192,87032,1,0,0:0:0:0:
256,192,87182,1,0,0:0:0:0:
256,192,87332,1,8,0:0:0:0:
256,192,87482,1,8,0:0:0:0:
256,192,87632,1,0,0:0:0:0:
256,192,87782,1,8,0:0:0:0:
256,192,87932,1,8,0:0:0:0:
256,192,88082,1,0,0:0:0:0:
256,192,88232,1,8,0:0:0:0:
256,192,88307,1,8,0:0:0:0:
256,192,88382,1,0,0:0:0:0:
256,192,88457,1,0,0:0:0:0:
256,192,88532,1,8,0:0:0:0:
256,192,88682,1,8,0:0:0:0:
256,192,88832,1,4,0:0:0:0:
256,192,89132,1,8,0:0:0:0:
256,192,89282,1,0,0:0:0:0:
256,192,89582,1,0,0:0:0:0:
256,192,89882,1,0,0:0:0:0:
256,192,90032,1,8,0:0:0:0:
256,192,90332,1,0,0:0:0:0:
256,192,90632,1,8,0:0:0:0:
256,192,90932,1,0,0:0:0:0:
256,192,91082,1,0,0:0:0:0:
256,192,91232,1,8,0:0:0:0:
256,192,91532,1,8,0:0:0:0:
256,192,91682,1,0,0:0:0:0:
256,192,91982,1,0,0:0:0:0:
256,192,92132,1,8,0:0:0:0:
256,192,92207,1,8,0:0:0:0:
256,192,92282,1,0,0:0:0:0:
256,192,92432,1,8,0:0:0:0:
256,192,92732,1,0,0:0:0:0:
256,192,93032,1,8,0:0:0:0:
256,192,93332,1,8,0:0:0:0:
256,192,93482,1,8,0:0:0:0:
256,192,93632,1,4,0:0:0:0:
256,192,93932,1,8,0:0:0:0:
256,192,94082,1,0,0:0:0:0:
256,192,94382,1,0,0:0:0:0:
256,192,94682,1,0,0:0:0:0:
256,192,94832,1,8,0:0:0:0:
256,192,95132,1,0,0:0:0:0:
256,192,95432,1,8,0:0:0:0:
256,192,95732,1,0,0:0:0:0:
256,192,95882,1,0,0:0:0:0:
256,192,96032,1,8,0:0:0:0:
256,192,96332,1,8,0:0:0:0:
256,192,96482,1,0,0:0:0:0:
256,192,96782,1,0,0:0:0:0:
256,192,97082,1,0,0:0:0:0:
256,192,97232,1,8,0:0:0:0:
256,192,97532,1,0,0:0:0:0:
256,192,97832,1,8,0:0:0:0:
256,192,97982,1,0,0:0:0:0:
256,192,98057,1,0,0:0:0:0:
256,192,98132,1,8,0:0:0:0:
256,192,98282,1,8,0:0:0:0:
256,192,98432,1,4,0:0:0:0:
256,192,98732,1,8,0:0:0:0:
256,192,98882,1,0,0:0:0:0:
256,192,99182,1,0,0:0:0:0:
256,192,99482,1,0,0:0:0:0:
256,192,99632,1,8,0:0:0:0:
256,192,99932,1,0,0:0:0:0:
256,192,100232,1,8,0:0:0:0:
256,192,100532,1,0,0:0:0:0:
256,192,100682,1,0,0:0:0:0:
256,192,100832,1,8,0:0:0:0:
256,192,101132,1,8,0:0:0:0:
256,192,101282,1,0,0:0:0:0:
256,192,101582,1,0,0:0:0:0:
256,192,101882,1,0,0:0:0:0:
256,192,102032,1,8,0:0:0:0:
256,192,102332,1,0,0:0:0:0:
256,192,102632,1,8,0:0:0:0:
256,192,102782,1,8,0:0:0:0:
256,192,102857,1,8,0:0:0:0:
256,192,102932,1,0,0:0:0:0:
256,192,103082,1,8,0:0:0:0:
256,192,103232,1,4,0:0:0:0:
256,192,103532,1,8,0:0:0:0:
256,192,103682,1,0,0:0:0:0:
256,192,103982,1,0,0:0:0:0:
256,192,104282,1,0,0:0:0:0:
256,192,104432,1,8,0:0:0:0:
256,192,104732,1,0,0:0:0:0:
256,192,105032,1,8,0:0:0:0:
256,192,105332,1,0,0:0:0:0:
256,192,105482,1,0,0:0:0:0:
256,192,105632,1,8,0:0:0:0:
256,192,105932,1,8,0:0:0:0:
256,192,106082,1,0,0:0:0:0:
256,192,106382,1,0,0:0:0:0:
256,192,106682,1,0,0:0:0:0:
256,192,106757,1,0,0:0:0:0:
256,192,106832,1,8,0:0:0:0:
256,192,106982,1,0,0:0:0:0:
256,192,107132,1,8,0:0:0:0:
256,192,107282,1,0,0:0:0:0:
256,192,107357,1,0,0:0:0:0:
256,192,107432,1,8,0:0:0:0:
256,192,107507,1,0,0:0:0:0:
256,192,107582,1,8,0:0:0:0:
256,192,107732,1,0,0:0:0:0:
256,192,107882,1,8,0:0:0:0:
256,192,108032,1,4,0:0:0:0:
256,192,108332,1,8,0:0:0:0:
256,192,108482,1,0,0:0:0:0:
256,192,108632,1,8,0:0:0:0:
256,192,108707,1,8,0:0:0:0:
256,192,108782,1,0,0:0:0:0:
256,192,108932,1,8,0:0:0:0:
256,192,109082,1,0,0:0:0:0:
256,192,109232,1,8,0:0:0:0:
256,192,109532,1,0,0:0:0:0:
256,192,109682,1,0,0:0:0:0:
256,192,109832,1,8,0:0:0:0:
256,192,109907,1,0,0:0:0:0:
256,192,109982,1,8,0:0:0:0:
256,192,110057,1,8,0:0:0:0:
256,192,110132,1,0,0:0:0:0:
256,192,110282,1,0,0:0:0:0:
256,192,110432,1,8,0:0:0:0:
256,192,110732,1,8,0:0:0:0:
256,192,110882,1,0,0:0:0:0:
256,192,111032,1,8,0:0:0:0:
256,192,111107,1,8,0:0:0:0:
256,192,111182,1,0,0:0:0:0:
256,192,111332,1,8,0:0:0:0:
256,192,111482,1,0,0:0:0:0:
256,192,111632,1,8,0:0:0:0:
256,192,111932,1,0,0:0:0:0:
256,192,112232,1,8,0:0:0:0:
256,192,112382,1,0,0:0:0:0:
256,192,112457,1,0,0:0:0:0:
256,192,112532,1,8,0:0:0:0:
256,192,112682,1,8,0:0:0:0:
256,192,112832,1,4,0:0:0:0:
256,192,113132,1,8,0:0:0:0:
256,192,113282,1,0,0:0:0:0:
256,192,113432,1,0,0:0:0:0:
256,192,113507,1,0,0:0:0:0:
256,192,113582,1,8,0:0:0:0:
256,192,113732,1,0,0:0:0:0:
256,192,113882,1,0,0:0:0:0:
256,192,114032,1,8,0:0:0:0:
256,192,114332,1,0,0:0:0:0:
256,192,114482,1,0,0:0:0:0:
256,192,114557,1,0,0:0:0:0:
256,192,114632,1,8,0:0:0:0:
256,192,114782,1,0,0:0:0:0:
256,192,114932,1,8,0:0:0:0:
256,192,115007,1,8,0:0:0:0:
256,192,115082,1,0,0:0:0:0:
256,192,115232,1,8,0:0:0:0:
256,192,115532,1,8,0:0:0:0:
256,192,115682,1,0,0:0:0:0:
256,192,115832,1,8,0:0:0:0:
256,192,115907,1,8,0:0:0:0:
256,192,115982,1,0,0:0:0:0:
256,192,116132,1,8,0:0:0:0:
256,192,116282,1,0,0:0:0:0:
256,192,116432,1,8,0:0:0:0:
256,192,116582,1,8,0:0:0:0:
256,192,116657,1,8,0:0:0:0:
256,192,116732,1,0,0:0:0:0:
256,192,116882,1,0,0:0:0:0:
256,192,117032,1,8,0:0:0:0:
256,192,117182,1,0,0:0:0:0:
256,192,117257,1,0,0:0:0:0:
256,192,117332,1,8,0:0:0:0:
256,192,117482,1,8,0:0:0:0:
256,192,117632,1,4,0:0:0:0:
256,192,117932,1,8,0:0:0:0:
256,192,118082,1,0,0:0:0:0:
256,192,118232,1,0,0:0:0:0:
256,192,118307,1,0,0:0:0:0:
256,192,118382,1,8,0:0:0:0:
256,192,118532,1,0,0:0:0:0:
256,192,118682,1,0,0:0:0:0:
256,192,118832,1,8,0:0:0:0:
256,192,119132,1,0,0:0:0:0:
256,192,119432,1,8,0:0:0:0:
256,192,119732,1,0,0:0:0:0:
256,192,119882,1,0,0:0:0:0:
256,192,120032,1,8,0:0:0:0:
256,192,120332,1,8,0:0:0:0:
256,192,120482,1,0,0:0:0:0:
256,192,120632,1,8,0:0:0:0:
256,192,120707,1,8,0:0:0:0:
256,192,120782,1,0,0:0:0:0:
256,192,120932,1,8,0:0:0:0:
256,192,121082,1,0,0:0:0:0:
256,192,121232,1,8,0:0:0:0:
256,192,121307,1,0,0:0:0:0:
256,192,121382,1,8,0:0:0:0:
256,192,121457,1,8,0:0:0:0:
256,192,121532,1,0,0:0:0:0:
256,192,121682,1,8,0:0:0:0:
256,192,121832,1,0,0:0:0:0:
256,192,121907,1,8,0:0:0:0:
256,192,121982,1,0,0:0:0:0:
256,192,122057,1,0,0:0:0:0:
256,192,122132,1,8,0:0:0:0:
256,192,122282,1,0,0:0:0:0:
256,192,122432,1,4,0:0:0:0:
256,192,122732,1,8,0:0:0:0:
256,192,122882,1,0,0:0:0:0:
256,192,123182,1,0,0:0:0:0:
256,192,123482,1,0,0:0:0:0:
256,192,123632,1,8,0:0:0:0:
256,192,123932,1,0,0:0:0:0:
256,192,124232,1,8,0:0:0:0:
256,192,124532,1,8,0:0:0:0:
256,192,124682,1,8,0:0:0:0:
256,192,124832,1,4,0:0:0:0:
256,192,125132,1,8,0:0:0:0:
256,192,125282,1,0,0:0:0:0:
256,192,125582,1,0,0:0:0:0:
256,192,125882,1,0,0:0:0:0:
256,192,125957,1,0,0:0:0:0:
256,192,126032,1,8,0:0:0:0:
256,192,126182,1,0,0:0:0:0:
256,192,126332,1,8,0:0:0:0:
256,192,126482,1,0,0:0:0:0:
256,192,126557,1,0,0:0:0:0:
256,192,126632,1,8,0:0:0:0:
256,192,126707,1,0,0:0:0:0:
256,192,126782,1,8,0:0:0:0:
256,192,126932,1,0,0:0:0:0:
256,192,127082,1,8,0:0:0:0:
256,192,127232,1,0,0:0:0:0:
256,192,127382,1,0,0:0:0:0:
256,192,127532,1,0,0:0:0:0:
256,192,127832,1,8,0:0:0:0:
256,192,127982,1,0,0:0:0:0:
256,192,128282,1,0,0:0:0:0:
256,192,128432,1,8,0:0:0:0:
256,192,128732,1,0,0:0:0:0:
256,192,128882,1,0,0:0:0:0:
256,192,129032,1,8,0:0:0:0:
256,192,129182,1,0,0:0:0:0:
256,192,129332,1,8,0:0:0:0:
256,192,129482,1,8,0:0:0:0:
256,192,129632,1,0,0:0:0:0:
256,192,129782,1,0,0:0:0:0:
256,192,129932,1,8,0:0:0:0:
256,192,130232,1,8,0:0:0:0:
256,192,130382,1,0,0:0:0:0:
256,192,130682,1,0,0:0:0:0:
256,192,130832,1,8,0:0:0:0:
256,192,131132,1,0,0:0:0:0:
256,192,131282,1,0,0:0:0:0:
256,192,131432,1,8,0:0:0:0:
256,192,131582,1,0,0:0:0:0:
256,192,131732,1,8,0:0:0:0:
256,192,131882,1,8,0:0:0:0:
256,192,132032,1,0,0:0:0:0:
256,192,132332,1,0,0:0:0:0:
256,192,132632,1,8,0:0:0:0:
256,192,132782,1,0,0:0:0:0:
256,192,133082,1,0,0:0:0:0:
256,192,133232,1,8,0:0:0:0:
256,192,133532,1,0,0:0:0:0:
256,192,133682,1,0,0:0:0:0:
256,192,133832,1,8,0:0:0:0:
256,192,133982,1,0,0:0:0:0:
256,192,134132,1,8,0:0:0:0:
256,192,134282,1,8,0:0:0:0:
256,192,134432,1,0,0:0:0:0:
256,192,134582,1,8,0:0:0:0:
256,192,134732,1,0,0:0:0:0:
256,192,135032,1,8,0:0:0:0:
256,192,135182,1,0,0:0:0:0:
256,192,135482,1,0,0:0:0:0:
256,192,135557,1,0,0:0:0:0:
256,192,135632,1,8,0:0:0:0:
256,192,135782,1,0,0:0:0:0:
256,192,135932,1,0,0:0:0:0:
256,192,136082,1,8,0:0:0:0:
256,192,136232,1,0,0:0:0:0:
256,192,136382,1,0,0:0:0:0:
256,192,136457,1,0,0:0:0:0:
256,192,136532,1,8,0:0:0:0:
256,192,136607,1,0,0:0:0:0:
256,192,136682,1,8,0:0:0:0:
256,192,136757,1,8,0:0:0:0:
256,192,136832,1,0,0:0:0:0:
256,192,136982,1,0,0:0:0:0:
256,192,137132,1,0,0:0:0:0:
256,192,137432,1,8,0:0:0:0:
256,192,137582,1,0,0:0:0:0:
256,192,137882,1,0,0:0:0:0:
256,192,138032,1,8,0:0:0:0:
256,192,138332,1,0,0:0:0:0:
256,192,138482,1,0,0:0:0:0:
256,192,138632,1,8,0:0:0:0:
256,192,138782,1,0,0:0:0:0:
256,192,138932,1,8,0:0:0:0:
256,192,139082,1,8,0:0:0:0:
256,192,139232,1,0,0:0:0:0:
256,192,139382,1,0,0:0:0:0:
256,192,139532,1,8,0:0:0:0:
256,192,139832,1,8,0:0:0:0:
256,192,139982,1,0,0:0:0:0:
256,192,140282,1,0,0:0:0:0:
256,192,140432,1,8,0:0:0:0:
256,192,140732,1,0,0:0:0:0:
256,192,140882,1,0,0:0:0:0:
256,192,141032,1,8,0:0:0:0:
256,192,141182,1,0,0:0:0:0:
256,192,141332,1,8,0:0:0:0:
256,192,141482,1,8,0:0:0:0:
256,192,141632,1,0,0:0:0:0:
256,192,141932,1,0,0:0:0:0:
256,192,142232,1,8,0:0:0:0:
256,192,142382,1,0,0:0:0:0:
256,192,142682,1,0,0:0:0:0:
256,192,142832,1,8,0:0:0:0:
256,192,143132,1,0,0:0:0:0:
256,192,143282,1,0,0:0:0:0:
256,192,143432,1,8,0:0:0:0:
256,192,143582,1,0,0:0:0:0:
256,192,143732,1,8,0:0:0:0:
256,192,143882,1,8,0:0:0:0:
256,192,144032,1,0,0:0:0:0:
256,192,144107,1,0,0:0:0:0:
256,192,144182,1,0,0:0:0:0:
256,192,144332,1,8,0:0:0:0:
256,192,144482,1,0,0:0:0:0:
256,192,144557,1,0,0:0:0:0:
256,192,144632,1,0,0:0:0:0:
256,192,144782,1,8,0:0:0:0:
256,192,144932,1,0,0:0:0:0:
256,192,145007,1,0,0:0:0:0:
256,192,145082,1,0,0:0:0:0:
256,192,145157,1,0,0:0:0:0:
256,192,145232,1,8,0:0:0:0:
256,192,145307,1,0,0:0:0:0:
256,192,145382,1,8,0:0:0:0:
256,192,145457,1,8,0:0:0:0:
256,192,145532,1,0,0:0:0:0:
256,192,145607,1,0,0:0:0:0:
256,192,145682,1,8,0:0:0:0:
256,192,145757,1,0,0:0:0:0:
256,192,145832,1,8,0:0:0:0:
256,192,145907,1,8,0:0:0:0:
256,192,145982,1,0,0:0:0:0:
256,192,146057,1,0,0:0:0:0:
256,192,146132,1,8,0:0:0:0:
256,192,146207,1,8,0:0:0:0:
256,192,146282,1,8,0:0:0:0:
256,192,146357,1,8,0:0:0:0:
256,192,146432,1,0,0:0:0:0:
256,192,146582,1,0,0:0:0:0:
256,192,146732,1,8,0:0:0:0:
256,192,146807,1,8,0:0:0:0:
256,192,146882,1,0,0:0:0:0:
256,192,146957,1,0,0:0:0:0:
256,192,147032,1,8,0:0:0:0:
256,192,147182,1,0,0:0:0:0:
256,192,147332,1,8,0:0:0:0:
256,192,147407,1,0,0:0:0:0:
256,192,147482,1,8,0:0:0:0:
256,192,147557,1,8,0:0:0:0:
256,192,147632,1,0,0:0:0:0:
256,192,147782,1,0,0:0:0:0:
256,192,147932,1,8,0:0:0:0:
256,192,148082,1,0,0:0:0:0:
256,192,148157,1,0,0:0:0:0:
256,192,148232,1,8,0:0:0:0:
256,192,148382,1,0,0:0:0:0:
256,192,148532,1,8,0:0:0:0:
256,192,148607,1,0,0:0:0:0:
256,192,148682,1,8,0:0:0:0:
256,192,148757,1,8,0:0:0:0:
256,192,148832,1,0,0:0:0:0:
256,192,148982,1,0,0:0:0:0:
256,192,149132,1,8,0:0:0:0:
256,192,149207,1,8,0:0:0:0:
256,192,149282,1,0,0:0:0:0:
256,192,149357,1,0,0:0:0:0:
256,192,149432,1,8,0:0:0:0:
256,192,149582,1,0,0:0:0:0:
256,192,149732,1,8,0:0:0:0:
256,192,149807,1,0,0:0:0:0:
256,192,149882,1,8,0:0:0:0:
256,192,149957,1,8,0:0:0:0:
256,192,150032,1,0,0:0:0:0:
256,192,150182,1,0,0:0:0:0:
256,192,150332,1,8,0:0:0:0:
256,192,150407,1,8,0:0:0:0:
256,192,150482,1,8,0:0:0:0:
256,192,150557,1,8,0:0:0:0:
256,192,150632,1,0,0:0:0:0:
256,192,150707,1,0,0:0:0:0:
256,192,150782,1,0,0:0:0:0:
256,192,150857,1,0,0:0:0:0:
256,192,150932,1,8,0:0:0:0:
256,192,151007,1,0,0:0:0:0:
256,192,151082,1,8,0:0:0:0:
256,192,151157,1,8,0:0:0:0:
256,192,151232,1,0,0:0:0:0:
256,192,151382,1,0,0:0:0:0:
256,192,151532,1,8,0:0:0:0:
256,192,151682,1,8,0:0:0:0:
256,192,151757,1,8,0:0:0:0:
256,192,151832,1,0,0:0:0:0:
256,192,151982,1,0,0:0:0:0:
256,192,152132,1,8,0:0:0:0:
256,192,152207,1,8,0:0:0:0:
256,192,152282,1,0,0:0:0:0:
256,192,152357,1,0,0:0:0:0:
256,192,152432,1,8,0:0:0:0:
256,192,152507,1,0,0:0:0:0:
256,192,152582,1,0,0:0:0:0:
256,192,152732,1,8,0:0:0:0:
256,192,152882,1,0,0:0:0:0:
256,192,152957,1,0,0:0:0:0:
256,192,153032,1,8,0:0:0:0:
256,192,153182,1,0,0:0:0:0:
256,192,153332,1,8,0:0:0:0:
256,192,153407,1,0,0:0:0:0:
256,192,153482,1,8,0:0:0:0:
256,192,153557,1,8,0:0:0:0:
256,192,153632,1,0,0:0:0:0:
256,192,153782,1,8,0:0:0:0:
256,192,153857,1,8,0:0:0:0:
256,192,153932,1,0,0:0:0:0:
256,192,154007,1,8,0:0:0:0:
256,192,154082,1,0,0:0:0:0:
256,192,154157,1,0,0:0:0:0:
256,192,154232,1,8,0:0:0:0:
256,192,154382,1,0,0:0:0:0:
256,192,154532,1,8,0:0:0:0:
256,192,154607,1,8,0:0:0:0:
256,192,154682,1,0,0:0:0:0:
256,192,154757,1,0,0:0:0:0:
256,192,154832,1,8,0:0:0:0:
256,192,154982,1,0,0:0:0:0:
256,192,155132,1,0,0:0:0:0:
256,192,155207,1,0,0:0:0:0:
256,192,155282,1,8,0:0:0:0:
256,192,155357,1,0,0:0:0:0:
256,192,155432,1,8,0:0:0:0:
256,192,155507,1,8,0:0:0:0:
256,192,155582,1,0,0:0:0:0:
256,192,155657,1,0,0:0:0:0:
256,192,155732,1,0,0:0:0:0:
256,192,155807,1,0,0:0:0:0:
256,192,155882,1,8,0:0:0:0:
256,192,155957,1,8,0:0:0:0:
256,192,156032,1,0,0:0:0:0:
256,192,156182,1,0,0:0:0:0:
256,192,156332,1,8,0:0:0:0:
256,192,156407,1,0,0:0:0:0:
256,192,156482,1,8,0:0:0:0:
256,192,156557,1,8,0:0:0:0:
256,192,156632,1,0,0:0:0:0:
256,192,156782,1,0,0:0:0:0:
256,192,156932,1,8,0:0:0:0:
256,192,157007,1,0,0:0:0:0:
256,192,157082,1,8,0:0:0:0:
256,192,157157,1,8,0:0:0:0:
256,192,157232,1,0,0:0:0:0:
256,192,157307,1,0,0:0:0:0:
256,192,157382,1,0,0:0:0:0:
256,192,157457,1,0,0:0:0:0:
256,192,157532,1,8,0:0:0:0:
256,192,157607,1,8,0:0:0:0:
256,192,157682,1,0,0:0:0:0:
256,192,157757,1,0,0:0:0:0:
256,192,157832,1,8,0:0:0:0:
256,192,157982,1,0,0:0:0:0:
256,192,158132,1,8,0:0:0:0:
256,192,158207,1,0,0:0:0:0:
256,192,158282,1,8,0:0:0:0:
256,192,158357,1,8,0:0:0:0:
256,192,158432,1,0,0:0:0:0:
256,192,158507,1,0,0:0:0:0:
256,192,158582,1,0,0:0:0:0:
256,192,158732,1,8,0:0:0:0:
256,192,158807,1,0,0:0:0:0:
256,192,158882,1,8,0:0:0:0:
256,192,158957,1,8,0:0:0:0:
256,192,159032,1,0,0:0:0:0:
256,192,159182,1,0,0:0:0:0:
256,192,159332,1,8,0:0:0:0:
256,192,159407,1,8,0:0:0:0:
256,192,159482,1,8,0:0:0:0:
256,192,159557,1,8,0:0:0:0:
256,192,159632,1,0,0:0:0:0:
256,192,159782,1,0,0:0:0:0:
256,192,159932,1,8,0:0:0:0:
256,192,160007,1,8,0:0:0:0:
256,192,160082,1,0,0:0:0:0:
256,192,160157,1,0,0:0:0:0:
256,192,160232,1,8,0:0:0:0:
256,192,160307,1,8,0:0:0:0:
256,192,160382,1,8,0:0:0:0:
256,192,160457,1,8,0:0:0:0:
256,192,160532,1,0,0:0:0:0:
256,192,160607,1,0,0:0:0:0:
256,192,160682,1,8,0:0:0:0:
256,192,160757,1,0,0:0:0:0:
256,192,160832,1,8,0:0:0:0:
256,192,160982,1,0,0:0:0:0:
256,192,161132,1,8,0:0:0:0:
256,192,161207,1,8,0:0:0:0:
256,192,161282,1,0,0:0:0:0:
256,192,161357,1,8,0:0:0:0:
256,192,161432,1,0,0:0:0:0:
256,192,161507,1,0,0:0:0:0:
256,192,161582,1,8,0:0:0:0:
256,192,161732,1,0,0:0:0:0:
256,192,161807,1,0,0:0:0:0:
256,192,161882,1,8,0:0:0:0:
256,192,161957,1,8,0:0:0:0:
256,192,162032,1,0,0:0:0:0:
256,192,162107,1,0,0:0:0:0:
256,192,162182,1,0,0:0:0:0:
256,192,162332,1,8,0:0:0:0:
256,192,162407,1,8,0:0:0:0:
256,192,162482,1,0,0:0:0:0:
256,192,162557,1,0,0:0:0:0:
256,192,162632,1,8,0:0:0:0:
256,192,162782,1,0,0:0:0:0:
256,192,162932,1,8,0:0:0:0:
256,192,163007,1,0,0:0:0:0:
256,192,163082,1,8,0:0:0:0:
256,192,163157,1,8,0:0:0:0:
256,192,163232,1,0,0:0:0:0:
256,192,163307,1,0,0:0:0:0:
256,192,163382,1,0,0:0:0:0:
256,192,163457,1,0,0:0:0:0:
256,192,163532,1,8,0:0:0:0:
256,192,163682,1,8,0:0:0:0:
256,192,163757,1,0,0:0:0:0:
256,192,163832,1,8,0:0:0:0:
256,192,163907,1,8,0:0:0:0:
256,192,163982,1,0,0:0:0:0:
256,192,164057,1,0,0:0:0:0:
256,192,164132,1,8,0:0:0:0:
256,192,164282,1,0,0:0:0:0:
256,192,164432,1,8,0:0:0:0:
256,192,164507,1,0,0:0:0:0:
256,192,164582,1,0,0:0:0:0:
256,192,164732,1,0,0:0:0:0:
256,192,164882,1,8,0:0:0:0:
256,192,165032,1,0,0:0:0:0:
256,192,165107,1,8,0:0:0:0:
256,192,165182,1,0,0:0:0:0:
256,192,165257,1,0,0:0:0:0:
256,192,165332,1,8,0:0:0:0:
256,192,165407,1,8,0:0:0:0:
256,192,165482,1,0,0:0:0:0:
256,192,166832,1,0,0:0:0:0:
256,192,166915,1,0,0:0:0:0:
256,192,166998,1,0,0:0:0:0:
256,192,167165,1,0,0:0:0:0:
256,192,167248,1,0,0:0:0:0:
256,192,167332,1,0,0:0:0:0:
256,192,167498,1,8,0:0:0:0:
256,192,167665,1,0,0:0:0:0:
256,192,167748,1,0,0:0:0:0:
256,192,167832,1,0,0:0:0:0:
256,192,167998,1,0,0:0:0:0:
256,192,168165,1,0,0:0:0:0:
256,192,168248,1,0,0:0:0:0:
256,192,168415,1,0,0:0:0:0:
256,192,168498,1,0,0:0:0:0:
256,192,168665,1,0,0:0:0:0:
256,192,168748,1,0,0:0:0:0:
256,192,168832,1,8,0:0:0:0:
256,192,168915,1,0,0:0:0:0:
256,192,168998,1,0,0:0:0:0:
256,192,169165,1,0,0:0:0:0:
256,192,169248,1,0,0:0:0:0:
256,192,169332,1,0,0:0:0:0:
256,192,169415,1,0,0:0:0:0:
256,192,169498,1,0,0:0:0:0:
256,192,169582,1,0,0:0:0:0:
256,192,169665,1,0,0:0:0:0:
256,192,169832,1,0,0:0:0:0:
256,192,169915,1,0,0:0:0:0:
256,192,169998,1,0,0:0:0:0:
256,192,170165,1,8,0:0:0:0:
256,192,170332,1,0,0:0:0:0:
256,192,170415,1,0,0:0:0:0:
256,192,170498,1,0,0:0:0:0:
256,192,170665,1,0,0:0:0:0:
256,192,170832,1,8,0:0:0:0:
256,192,170998,1,0,0:0:0:0:
256,192,171082,1,0,0:0:0:0:
256,192,171248,1,0,0:0:0:0:
256,192,171332,1,0,0:0:0:0:
256,192,171498,1,8,0:0:0:0:
256,192,171665,1,0,0:0:0:0:
256,192,171748,1,8,0:0:0:0:
256,192,171915,1,0,0:0:0:0:
256,192,171998,1,8,0:0:0:0:
256,192,172082,1,8,0:0:0:0:
256,192,172165,1,0,0:0:0:0:
256,192,172248,1,0,0:0:0:0:
256,192,172332,1,0,0:0:0:0:
256,192,172498,1,0,0:0:0:0:
256,192,172582,1,0,0:0:0:0:
256,192,172665,1,0,0:0:0:0:
256,192,172832,1,8,0:0:0:0:
256,192,172998,1,0,0:0:0:0:
256,192,173082,1,0,0:0:0:0:
256,192,173165,1,0,0:0:0:0:
256,192,173332,1,0,0:0:0:0:
256,192,173498,1,0,0:0:0:0:
256,192,173582,1,0,0:0:0:0:
256,192,173665,1,0,0:0:0:0:
256,192,173748,1,0,0:0:0:0:
256,192,173915,1,0,0:0:0:0:
256,192,173998,1,0,0:0:0:0:
256,192,174165,1,8,0:0:0:0:
256,192,174248,1,0,0:0:0:0:
256,192,174332,1,0,0:0:0:0:
256,192,174415,1,0,0:0:0:0:
256,192,174582,1,0,0:0:0:0:
256,192,174665,1,0,0:0:0:0:
256,192,174832,1,0,0:0:0:0:
256,192,174915,1,0,0:0:0:0:
256,192,174998,1,0,0:0:0:0:
256,192,175165,1,0,0:0:0:0:
256,192,175248,1,0,0:0:0:0:
256,192,175332,1,0,0:0:0:0:
256,192,175498,1,8,0:0:0:0:
256,192,175665,1,0,0:0:0:0:
256,192,175748,1,0,0:0:0:0:
256,192,175832,1,0,0:0:0:0:
256,192,175998,1,0,0:0:0:0:
256,192,176165,1,8,0:0:0:0:
256,192,176332,1,0,0:0:0:0:
256,192,176415,1,0,0:0:0:0:
256,192,176498,1,0,0:0:0:0:
256,192,176665,1,8,0:0:0:0:
256,192,176748,1,0,0:0:0:0:
256,192,176915,1,0,0:0:0:0:
256,192,176998,1,0,0:0:0:0:
256,192,177165,1,8,0:0:0:0:
256,192,177332,1,0,0:0:0:0:
256,192,177498,1,0,0:0:0:0:
256,192,177581,1,0,0:0:0:0:
256,192,177664,1,0,0:0:0:0:
256,192,177831,1,0,0:0:0:0:
256,192,177914,1,0,0:0:0:0:
256,192,177998,1,0,0:0:0:0:
256,192,178164,1,8,0:0:0:0:
256,192,178331,1,0,0:0:0:0:
256,192,178414,1,0,0:0:0:0:
256,192,178498,1,8,0:0:0:0:
256,192,178664,1,0,0:0:0:0:
256,192,178831,1,0,0:0:0:0:
256,192,178914,1,8,0:0:0:0:
256,192,179081,1,8,0:0:0:0:
256,192,179164,1,0,0:0:0:0:
256,192,179331,1,0,0:0:0:0:
256,192,179414,1,0,0:0:0:0:
256,192,179498,1,8,0:0:0:0:
256,192,179581,1,0,0:0:0:0:
256,192,179664,1,0,0:0:0:0:
256,192,179831,1,0,0:0:0:0:
256,192,179914,1,0,0:0:0:0:
256,192,179998,1,0,0:0:0:0:
256,192,180081,1,0,0:0:0:0:
256,192,180164,1,8,0:0:0:0:
256,192,180248,1,8,0:0:0:0:
256,192,180331,1,0,0:0:0:0:
256,192,180498,1,0,0:0:0:0:
256,192,180581,1,0,0:0:0:0:
256,192,180664,1,0,0:0:0:0:
256,192,180831,1,8,0:0:0:0:
256,192,180998,1,0,0:0:0:0:
256,192,181081,1,0,0:0:0:0:
256,192,181164,1,0,0:0:0:0:
256,192,181331,1,0,0:0:0:0:
256,192,181498,1,8,0:0:0:0:
256,192,181664,1,8,0:0:0:0:
256,192,181748,1,0,0:0:0:0:
256,192,181914,1,0,0:0:0:0:
256,192,181998,1,8,0:0:0:0:
256,192,182164,1,8,0:0:0:0:
256,192,182248,1,0,0:0:0:0:
256,192,182415,1,0,0:0:0:0:
256,192,182498,1,8,0:0:0:0:
256,192,182581,1,0,0:0:0:0:
256,192,182665,1,0,0:0:0:0:
256,192,182748,1,0,0:0:0:0:
256,192,182831,1,0,0:0:0:0:
256,192,182915,1,0,0:0:0:0:
256,192,182998,1,0,0:0:0:0:
256,192,183164,1,0,0:0:0:0:
256,192,183248,1,0,0:0:0:0:
256,192,183331,1,0,0:0:0:0:
256,192,183498,1,8,0:0:0:0:
256,192,183664,1,0,0:0:0:0:
256,192,183748,1,0,0:0:0:0:
256,192,183831,1,0,0:0:0:0:
256,192,183998,1,0,0:0:0:0:
256,192,184164,1,0,0:0:0:0:
256,192,184248,1,8,0:0:0:0:
256,192,184331,1,8,0:0:0:0:
256,192,184414,1,0,0:0:0:0:
256,192,184581,1,0,0:0:0:0:
256,192,184664,1,0,0:0:0:0:
256,192,184831,1,8,0:0:0:0:
256,192,184914,1,8,0:0:0:0:
256,192,184998,1,8,0:0:0:0:
256,192,185081,1,0,0:0:0:0:
256,192,185248,1,0,0:0:0:0:
256,192,185331,1,0,0:0:0:0:
256,192,185498,1,8,0:0:0:0:
256,192,185581,1,8,0:0:0:0:
256,192,185664,1,0,0:0:0:0:
256,192,185831,1,0,0:0:0:0:
256,192,185914,1,0,0:0:0:0:
256,192,185998,1,0,0:0:0:0:
256,192,186164,1,8,0:0:0:0:
256,192,186331,1,0,0:0:0:0:
256,192,186414,1,0,0:0:0:0:
256,192,186498,1,0,0:0:0:0:
256,192,186664,1,0,0:0:0:0:
256,192,186748,1,0,0:0:0:0:
256,192,186831,1,8,0:0:0:0:
256,192,186981,1,0,0:0:0:0:
256,192,187131,1,0,0:0:0:0:
256,192,187281,1,8,0:0:0:0:
256,192,187431,1,0,0:0:0:0:
256,192,187581,1,0,0:0:0:0:
256,192,187731,1,12,0:0:0:0:
256,192,187881,1,0,0:0:0:0:
256,192,187956,1,0,0:0:0:0:
256,192,188031,1,8,0:0:0:0:
256,192,188106,1,0,0:0:0:0:
256,192,188181,1,8,0:0:0:0:
256,192,188256,1,8,0:0:0:0:
256,192,188331,1,0,0:0:0:0:
256,192,188406,1,0,0:0:0:0:
256,192,188481,1,8,0:0:0:0:
256,192,188556,1,0,0:0:0:0:
256,192,188631,1,8,0:0:0:0:
256,192,188706,1,8,0:0:0:0:
256,192,188781,1,0,0:0:0:0:
256,192,188856,1,0,0:0:0:0:
256,192,188931,1,8,0:0:0:0:
256,192,189081,1,8,0:0:0:0:
256,192,189231,1,4,0:0:0:0:
256,192,189531,1,8,0:0:0:0:
256,192,189681,1,0,0:0:0:0:
256,192,189981,1,0,0:0:0:0:
256,192,190281,1,0,0:0:0:0:
256,192,190431,1,8,0:0:0:0:
256,192,190731,1,0,0:0:0:0:
256,192,191031,1,8,0:0:0:0:
256,192,191331,1,0,0:0:0:0:
256,192,191481,1,0,0:0:0:0:
256,192,191631,1,8,0:0:0:0:
256,192,191931,1,8,0:0:0:0:
256,192,192081,1,0,0:0:0:0:
256,192,192381,1,0,0:0:0:0:
256,192,192531,1,8,0:0:0:0:
256,192,192606,1,8,0:0:0:0:
256,192,192681,1,0,0:0:0:0:
256,192,192831,1,8,0:0:0:0:
256,192,193131,1,0,0:0:0:0:
256,192,193431,1,8,0:0:0:0:
256,192,193731,1,8,0:0:0:0:
256,192,193881,1,8,0:0:0:0:
256,192,194031,1,4,0:0:0:0:
256,192,194331,1,8,0:0:0:0:
256,192,194481,1,0,0:0:0:0:
256,192,194781,1,0,0:0:0:0:
256,192,195081,1,0,0:0:0:0:
256,192,195231,1,8,0:0:0:0:
256,192,195531,1,0,0:0:0:0:
256,192,195831,1,8,0:0:0:0:
256,192,196131,1,0,0:0:0:0:
256,192,196281,1,0,0:0:0:0:
256,192,196431,1,8,0:0:0:0:
256,192,196731,1,8,0:0:0:0:
256,192,196881,1,0,0:0:0:0:
256,192,197181,1,0,0:0:0:0:
256,192,197481,1,0,0:0:0:0:
256,192,197631,1,8,0:0:0:0:
256,192,197931,1,0,0:0:0:0:
256,192,198231,1,8,0:0:0:0:
256,192,198381,1,0,0:0:0:0:
256,192,198456,1,0,0:0:0:0:
256,192,198531,1,8,0:0:0:0:
256,192,198681,1,8,0:0:0:0:
256,192,198831,1,4,0:0:0:0:
256,192,199131,1,8,0:0:0:0:
256,192,199281,1,0,0:0:0:0:
256,192,199581,1,0,0:0:0:0:
256,192,199881,1,0,0:0:0:0:
256,192,200031,1,8,0:0:0:0:
256,192,200331,1,0,0:0:0:0:
256,192,200631,1,8,0:0:0:0:
256,192,200931,1,0,0:0:0:0:
256,192,201081,1,0,0:0:0:0:
256,192,201231,1,8,0:0:0:0:
256,192,201531,1,8,0:0:0:0:
256,192,201681,1,0,0:0:0:0:
256,192,201981,1,0,0:0:0:0:
256,192,202281,1,0,0:0:0:0:
256,192,202431,1,8,0:0:0:0:
256,192,202731,1,0,0:0:0:0:
256,192,203031,1,8,0:0:0:0:
256,192,203181,1,8,0:0:0:0:
256,192,203256,1,8,0:0:0:0:
256,192,203331,1,0,0:0:0:0:
256,192,203481,1,8,0:0:0:0:
256,192,203631,1,4,0:0:0:0:
256,192,203931,1,8,0:0:0:0:
256,192,204081,1,0,0:0:0:0:
256,192,204381,1,0,0:0:0:0:
256,192,204681,1,0,0:0:0:0:
256,192,204831,1,8,0:0:0:0:
256,192,205131,1,0,0:0:0:0:
256,192,205431,1,8,0:0:0:0:
256,192,205731,1,0,0:0:0:0:
256,192,205881,1,0,0:0:0:0:
256,192,206031,1,8,0:0:0:0:
256,192,206331,1,8,0:0:0:0:
256,192,206481,1,0,0:0:0:0:
256,192,206781,1,0,0:0:0:0:
256,192,207081,1,0,0:0:0:0:
256,192,207156,1,0,0:0:0:0:
256,192,207231,1,8,0:0:0:0:
256,192,207381,1,0,0:0:0:0:
256,192,207531,1,8,0:0:0:0:
256,192,207681,1,0,0:0:0:0:
256,192,207756,1,0,0:0:0:0:
256,192,207831,1,8,0:0:0:0:
256,192,207906,1,0,0:0:0:0:
256,192,207981,1,8,0:0:0:0:
256,192,208131,1,0,0:0:0:0:
256,192,208281,1,8,0:0:0:0:
256,192,208431,1,4,0:0:0:0:
256,192,208731,1,8,0:0:0:0:
256,192,208881,1,0,0:0:0:0:
256,192,209031,1,8,0:0:0:0:
256,192,209106,1,8,0:0:0:0:
256,192,209181,1,0,0:0:0:0:
256,192,209331,1,8,0:0:0:0:
256,192,209481,1,0,0:0:0:0:
256,192,209631,1,8,0:0:0:0:
256,192,209931,1,0,0:0:0:0:
256,192,210081,1,0,0:0:0:0:
256,192,210231,1,8,0:0:0:0:
256,192,210306,1,0,0:0:0:0:
256,192,210381,1,8,0:0:0:0:
256,192,210456,1,8,0:0:0:0:
256,192,210531,1,0,0:0:0:0:
256,192,210681,1,0,0:0:0:0:
256,192,210831,1,8,0:0:0:0:
256,192,211131,1,8,0:0:0:0:
256,192,211281,1,0,0:0:0:0:
256,192,211431,1,8,0:0:0:0:
256,192,211506,1,8,0:0:0:0:
256,192,211581,1,0,0:0:0:0:
256,192,211731,1,8,0:0:0:0:
256,192,211881,1,0,0:0:0:0:
256,192,212031,1,8,0:0:0:0:
256,192,212331,1,0,0:0:0:0:
256,192,212631,1,8,0:0:0:0:
256,192,212781,1,0,0:0:0:0:
256,192,212856,1,0,0:0:0:0:
256,192,212931,1,8,0:0:0:0:
256,192,213081,1,8,0:0:0:0:
256,192,213231,1,4,0:0:0:0:
256,192,213531,1,8,0:0:0:0:
256,192,213681,1,0,0:0:0:0:
256,192,213831,1,0,0:0:0:0:
256,192,213906,1,0,0:0:0:0:
256,192,213981,1,8,0:0:0:0:
256,192,214131,1,0,0:0:0:0:
256,192,214281,1,0,0:0:0:0:
256,192,214431,1,8,0:0:0:0:
256,192,214731,1,0,0:0:0:0:
256,192,214881,1,0,0:0:0:0:
256,192,214956,1,0,0:0:0:0:
256,192,215031,1,8,0:0:0:0:
256,192,215181,1,0,0:0:0:0:
256,192,215331,1,8,0:0:0:0:
256,192,215406,1,8,0:0:0:0:
256,192,215481,1,0,0:0:0:0:
256,192,215631,1,8,0:0:0:0:
256,192,215931,1,8,0:0:0:0:
256,192,216081,1,0,0:0:0:0:
256,192,216231,1,8,0:0:0:0:
256,192,216306,1,8,0:0:0:0:
256,192,216381,1,0,0:0:0:0:
256,192,216531,1,8,0:0:0:0:
256,192,216681,1,0,0:0:0:0:
256,192,216831,1,8,0:0:0:0:
256,192,216981,1,8,0:0:0:0:
256,192,217056,1,8,0:0:0:0:
256,192,217131,1,0,0:0:0:0:
256,192,217281,1,0,0:0:0:0:
256,192,217431,1,8,0:0:0:0:
256,192,217581,1,0,0:0:0:0:
256,192,217656,1,0,0:0:0:0:
256,192,217731,1,8,0:0:0:0:
256,192,217881,1,8,0:0:0:0:
256,192,218031,1,4,0:0:0:0:
256,192,218331,1,8,0:0:0:0:
256,192,218481,1,0,0:0:0:0:
256,192,218631,1,0,0:0:0:0:
256,192,218706,1,0,0:0:0:0:
256,192,218781,1,8,0:0:0:0:
256,192,218931,1,0,0:0:0:0:
256,192,219081,1,0,0:0:0:0:
256,192,219231,1,8,0:0:0:0:
256,192,219531,1,0,0:0:0:0:
256,192,219831,1,8,0:0:0:0:
256,192,220131,1,0,0:0:0:0:
256,192,220281,1,0,0:0:0:0:
256,192,220431,1,8,0:0:0:0:
256,192,220731,1,8,0:0:0:0:
256,192,220881,1,0,0:0:0:0:
256,192,221031,1,8,0:0:0:0:
256,192,221106,1,8,0:0:0:0:
256,192,221181,1,0,0:0:0:0:
256,192,221331,1,8,0:0:0:0:
256,192,221481,1,0,0:0:0:0:
256,192,221631,1,8,0:0:0:0:
256,192,221706,1,0,0:0:0:0:
256,192,221781,1,8,0:0:0:0:
256,192,221856,1,8,0:0:0:0:
256,192,221931,1,0,0:0:0:0:
256,192,222081,1,8,0:0:0:0:
256,192,222231,1,0,0:0:0:0:
256,192,222306,1,8,0:0:0:0:
256,192,222381,1,0,0:0:0:0:
256,192,222456,1,0,0:0:0:0:
256,192,222531,1,8,0:0:0:0:
256,192,222681,1,0,0:0:0:0:
256,192,222831,1,4,0:0:0:0:
256,192,223131,1,8,0:0:0:0:
256,192,223281,1,0,0:0:0:0:
256,192,223581,1,0,0:0:0:0:
256,192,223881,1,0,0:0:0:0:
256,192,224031,1,8,0:0:0:0:
256,192,224331,1,0,0:0:0:0:
256,192,224631,1,8,0:0:0:0:
256,192,224931,1,8,0:0:0:0:
256,192,225081,1,8,0:0:0:0:
256,192,225231,1,4,0:0:0:0:
256,192,225531,1,8,0:0:0:0:
256,192,225681,1,0,0:0:0:0:
256,192,225981,1,0,0:0:0:0:
256,192,226281,1,0,0:0:0:0:
256,192,226356,1,0,0:0:0:0:
256,192,226431,1,8,0:0:0:0:
256,192,226581,1,0,0:0:0:0:
256,192,226731,1,8,0:0:0:0:
256,192,226881,1,0,0:0:0:0:
256,192,226956,1,0,0:0:0:0:
256,192,227031,1,8,0:0:0:0:
256,192,227106,1,0,0:0:0:0:
256,192,227181,1,8,0:0:0:0:
256,192,227331,1,0,0:0:0:0:
256,192,227481,1,8,0:0:0:0:
256,192,227631,1,4,0:0:0:0:
256,192,227931,5,8,0:0:0:0:
256,192,228081,1,8,0:0:0:0:
256,192,228231,1,0,0:0:0:0:
256,192,228381,1,8,0:0:0:0:
256,192,228531,1,0,0:0:0:0:
256,192,228681,1,0,0:0:0:0:
256,192,228831,1,8,0:0:0:0:
256,192,228981,1,0,0:0:0:0:
256,192,229131,1,8,0:0:0:0:
256,192,229281,1,8,0:0:0:0:
256,192,229431,1,0,0:0:0:0:
256,192,229581,1,0,0:0:0:0:
256,192,229731,1,8,0:0:0:0:
256,192,229881,1,0,0:0:0:0:
256,192,230031,1,8,0:0:0:0:
256,192,230181,1,8,0:0:0:0:
256,192,230331,1,0,0:0:0:0:
256,192,230481,1,8,0:0:0:0:
256,192,230631,1,0,0:0:0:0:
256,192,230781,1,0,0:0:0:0:
256,192,230931,1,8,0:0:0:0:
256,192,231081,1,0,0:0:0:0:
256,192,231231,1,8,0:0:0:0:
256,192,231381,1,8,0:0:0:0:
256,192,231531,1,0,0:0:0:0:
256,192,231681,1,0,0:0:0:0:
256,192,231831,1,8,0:0:0:0:
256,192,231981,1,0,0:0:0:0:
256,192,232131,1,8,0:0:0:0:
256,192,232281,1,8,0:0:0:0:
256,192,232431,1,0,0:0:0:0:
256,192,232581,1,0,0:0:0:0:
256,192,232731,1,8,0:0:0:0:
256,192,232881,1,0,0:0:0:0:
256,192,233031,1,8,0:0:0:0:
256,192,233181,1,8,0:0:0:0:
256,192,233331,1,0,0:0:0:0:
256,192,233481,1,8,0:0:0:0:
256,192,233631,1,0,0:0:0:0:
256,192,233781,1,0,0:0:0:0:
256,192,233931,1,8,0:0:0:0:
256,192,234081,1,8,0:0:0:0:
256,192,234231,1,0,0:0:0:0:
256,192,234381,1,8,0:0:0:0:
256,192,234531,1,0,0:0:0:0:
256,192,234681,1,0,0:0:0:0:
256,192,234831,1,8,0:0:0:0:
256,192,234981,1,8,0:0:0:0:
256,192,235131,1,0,0:0:0:0:
256,192,235281,1,8,0:0:0:0:
256,192,235431,1,0,0:0:0:0:
256,192,235581,1,0,0:0:0:0:
256,192,235731,1,8,0:0:0:0:
256,192,235881,1,0,0:0:0:0:
256,192,236031,1,8,0:0:0:0:
256,192,236181,1,8,0:0:0:0:
256,192,236331,1,0,0:0:0:0:
256,192,236481,1,0,0:0:0:0:
256,192,236631,1,8,0:0:0:0:
256,192,236781,1,0,0:0:0:0:
256,192,236931,1,8,0:0:0:0:
256,192,237081,1,8,0:0:0:0:
256,192,237231,1,4,0:0:0:0:
256,192,237531,1,8,0:0:0:0:
256,192,237681,1,8,0:0:0:0:
256,192,237831,1,0,0:0:0:0:
256,192,237981,1,8,0:0:0:0:
256,192,238131,1,0,0:0:0:0:
256,192,238281,1,0,0:0:0:0:
256,192,238431,1,8,0:0:0:0:
256,192,238581,1,0,0:0:0:0:
256,192,238731,1,8,0:0:0:0:
256,192,238881,1,8,0:0:0:0:
256,192,239031,1,0,0:0:0:0:
256,192,239181,1,0,0:0:0:0:
256,192,239331,1,8,0:0:0:0:
256,192,239481,1,0,0:0:0:0:
256,192,239631,1,8,0:0:0:0:
256,192,239781,1,8,0:0:0:0:
256,192,239931,1,0,0:0:0:0:
256,192,240081,1,8,0:0:0:0:
256,192,240231,1,0,0:0:0:0:
256,192,240381,1,0,0:0:0:0:
256,192,240531,1,8,0:0:0:0:
256,192,240681,1,0,0:0:0:0:
256,192,240831,1,8,0:0:0:0:
256,192,240981,1,8,0:0:0:0:
256,192,241131,1,0,0:0:0:0:
256,192,241281,1,0,0:0:0:0:
256,192,241431,1,8,0:0:0:0:
256,192,241581,1,0,0:0:0:0:
256,192,241731,1,8,0:0:0:0:
256,192,241881,1,8,0:0:0:0:
256,192,242031,1,0,0:0:0:0:
256,192,242181,1,0,0:0:0:0:
256,192,242331,1,8,0:0:0:0:
256,192,242481,1,0,0:0:0:0:
256,192,242631,1,8,0:0:0:0:
256,192,242781,1,8,0:0:0:0:
256,192,242931,1,0,0:0:0:0:
256,192,243081,1,8,0:0:0:0:
256,192,243231,1,0,0:0:0:0:
256,192,243381,1,0,0:0:0:0:
256,192,243531,1,8,0:0:0:0:
256,192,243681,1,8,0:0:0:0:
256,192,243831,1,0,0:0:0:0:
256,192,243981,1,8,0:0:0:0:
256,192,244131,1,0,0:0:0:0:
256,192,244281,1,0,0:0:0:0:
256,192,244356,1,0,0:0:0:0:
256,192,244431,1,8,0:0:0:0:
256,192,244581,1,8,0:0:0:0:
256,192,244656,1,8,0:0:0:0:
256,192,244731,1,0,0:0:0:0:
256,192,244881,1,8,0:0:0:0:
256,192,245031,1,0,0:0:0:0:
256,192,245106,1,0,0:0:0:0:
256,192,245181,1,0,0:0:0:0:
256,192,245331,1,8,0:0:0:0:
256,192,245481,1,0,0:0:0:0:
256,192,245556,1,0,0:0:0:0:
256,192,245631,1,8,0:0:0:0:
256,192,245781,1,8,0:0:0:0:
256,192,245856,1,8,0:0:0:0:
256,192,245931,1,0,0:0:0:0:
256,192,246081,1,0,0:0:0:0:
256,192,246231,1,8,0:0:0:0:
256,192,246381,1,0,0:0:0:0:
256,192,246531,1,8,0:0:0:0:
256,192,246606,1,8,0:0:0:0:
256,192,246681,1,8,0:0:0:0:
256,192,246831,1,4,0:0:0:0:
256,192,247131,1,8,0:0:0:0:
256,192,247281,1,8,0:0:0:0:
256,192,247431,1,0,0:0:0:0:
256,192,247581,1,8,0:0:0:0:
256,192,247731,1,0,0:0:0:0:
256,192,247806,1,0,0:0:0:0:
256,192,247881,1,0,0:0:0:0:
256,192,247956,1,0,0:0:0:0:
256,192,248031,1,8,0:0:0:0:
256,192,248181,1,0,0:0:0:0:
256,192,248331,1,8,0:0:0:0:
256,192,248406,1,8,0:0:0:0:
256,192,248481,1,8,0:0:0:0:
256,192,248556,1,8,0:0:0:0:
256,192,248631,1,0,0:0:0:0:
256,192,248781,1,0,0:0:0:0:
256,192,248931,1,8,0:0:0:0:
256,192,249006,1,8,0:0:0:0:
256,192,249081,1,0,0:0:0:0:
256,192,249156,1,0,0:0:0:0:
256,192,249231,1,8,0:0:0:0:
256,192,249381,1,8,0:0:0:0:
256,192,249531,1,0,0:0:0:0:
256,192,249681,1,8,0:0:0:0:
256,192,249831,1,0,0:0:0:0:
256,192,249981,1,0,0:0:0:0:
256,192,250131,1,8,0:0:0:0:
256,192,250206,1,8,0:0:0:0:
256,192,250281,1,0,0:0:0:0:
256,192,250356,1,0,0:0:0:0:
256,192,250431,1,8,0:0:0:0:
256,192,250581,1,8,0:0:0:0:
256,192,250731,1,0,0:0:0:0:
256,192,250806,1,8,0:0:0:0:
256,192,250881,1,0,0:0:0:0:
256,192,250956,1,0,0:0:0:0:
256,192,251031,1,8,0:0:0:0:
256,192,251181,1,0,0:0:0:0:
256,192,251331,1,8,0:0:0:0:
256,192,251406,1,0,0:0:0:0:
256,192,251481,1,8,0:0:0:0:
256,192,251556,1,8,0:0:0:0:
256,192,251631,1,0,0:0:0:0:
256,192,251781,1,0,0:0:0:0:
256,192,251931,1,8,0:0:0:0:
256,192,252081,1,0,0:0:0:0:
256,192,252231,1,8,0:0:0:0:
256,192,252381,1,8,0:0:0:0:
256,192,252531,1,0,0:0:0:0:
256,192,252606,1,0,0:0:0:0:
256,192,252681,1,8,0:0:0:0:
256,192,252756,1,8,0:0:0:0:
256,192,252831,1,0,0:0:0:0:
256,192,252981,1,0,0:0:0:0:
256,192,253056,1,0,0:0:0:0:
256,192,253131,1,8,0:0:0:0:
256,192,253206,1,0,0:0:0:0:
256,192,253281,1,8,0:0:0:0:
256,192,253356,1,8,0:0:0:0:
256,192,253431,1,0,0:0:0:0:
256,192,253581,1,8,0:0:0:0:
256,192,253656,1,8,0:0:0:0:
256,192,253731,1,0,0:0:0:0:
256,192,253806,1,8,0:0:0:0:
256,192,253881,1,0,0:0:0:0:
256,192,253956,1,0,0:0:0:0:
256,192,254031,1,8,0:0:0:0:
256,192,254181,1,8,0:0:0:0:
256,192,254331,1,0,0:0:0:0:
256,192,254406,1,0,0:0:0:0:
256,192,254481,1,8,0:0:0:0:
256,192,254631,1,0,0:0:0:0:
256,192,254781,1,0,0:0:0:0:
256,192,254931,1,8,0:0:0:0:
256,192,255006,1,8,0:0:0:0:
256,192,255081,1,0,0:0:0:0:
256,192,255231,1,8,0:0:0:0:
256,192,255306,1,0,0:0:0:0:
256,192,255381,1,8,0:0:0:0:
256,192,255456,1,8,0:0:0:0:
256,192,255531,1,0,0:0:0:0:
256,192,255681,1,0,0:0:0:0:
256,192,255831,1,8,0:0:0:0:
256,192,255981,1,0,0:0:0:0:
256,192,256131,1,8,0:0:0:0:
256,192,256206,1,8,0:0:0:0:
256,192,256281,1,8,0:0:0:0:
256,192,256431,1,4,0:0:0:0:
256,192,256731,1,8,0:0:0:0:
256,192,256881,1,8,0:0:0:0:
256,192,257031,1,0,0:0:0:0:
256,192,257181,1,8,0:0:0:0:
256,192,257331,1,0,0:0:0:0:
256,192,257406,1,0,0:0:0:0:
256,192,257481,1,0,0:0:0:0:
256,192,257556,1,0,0:0:0:0:
256,192,257631,1,8,0:0:0:0:
256,192,257781,1,0,0:0:0:0:
256,192,257931,1,8,0:0:0:0:
256,192,258006,1,8,0:0:0:0:
256,192,258081,1,8,0:0:0:0:
256,192,258156,1,8,0:0:0:0:
256,192,258231,1,0,0:0:0:0:
256,192,258381,1,0,0:0:0:0:
256,192,258531,1,8,0:0:0:0:
256,192,258606,1,8,0:0:0:0:
256,192,258681,1,0,0:0:0:0:
256,192,258756,1,0,0:0:0:0:
256,192,258831,1,8,0:0:0:0:
256,192,258981,1,8,0:0:0:0:
256,192,259131,1,0,0:0:0:0:
256,192,259281,1,8,0:0:0:0:
256,192,259431,1,0,0:0:0:0:
256,192,259581,1,0,0:0:0:0:
256,192,259731,1,8,0:0:0:0:
256,192,259806,1,8,0:0:0:0:
256,192,259881,1,0,0:0:0:0:
256,192,259956,1,0,0:0:0:0:
256,192,260031,1,8,0:0:0:0:
256,192,260181,1,8,0:0:0:0:
256,192,260331,1,0,0:0:0:0:
256,192,260406,1,8,0:0:0:0:
256,192,260481,1,0,0:0:0:0:
256,192,260556,1,0,0:0:0:0:
256,192,260631,1,8,0:0:0:0:
256,192,260781,1,0,0:0:0:0:
256,192,260931,1,8,0:0:0:0:
256,192,261006,1,0,0:0:0:0:
256,192,261081,1,8,0:0:0:0:
256,192,261156,1,8,0:0:0:0:
256,192,261231,1,0,0:0:0:0:
256,192,261381,1,0,0:0:0:0:
256,192,261531,1,8,0:0:0:0:
256,192,261681,1,0,0:0:0:0:
256,192,261831,1,8,0:0:0:0:
256,192,261981,1,8,0:0:0:0:
256,192,262131,1,0,0:0:0:0:
256,192,262206,1,0,0:0:0:0:
256,192,262281,1,8,0:0:0:0:
256,192,262356,1,8,0:0:0:0:
256,192,262431,1,0,0:0:0:0:
256,192,262581,1,0,0:0:0:0:
256,192,262656,1,0,0:0:0:0:
256,192,262731,1,8,0:0:0:0:
256,192,262806,1,0,0:0:0:0:
256,192,262881,1,8,0:0:0:0:
256,192,262956,1,8,0:0:0:0:
256,192,263031,1,0,0:0:0:0:
256,192,263181,1,8,0:0:0:0:
256,192,263256,1,8,0:0:0:0:
256,192,263331,1,0,0:0:0:0:
256,192,263406,1,8,0:0:0:0:
256,192,263481,1,0,0:0:0:0:
256,192,263556,1,0,0:0:0:0:
256,192,263631,1,8,0:0:0:0:
256,192,263781,1,8,0:0:0:0:
256,192,263931,1,0,0:0:0:0:
256,192,264006,1,0,0:0:0:0:
256,192,264081,1,8,0:0:0:0:
256,192,264231,1,0,0:0:0:0:
256,192,264381,1,0,0:0:0:0:
256,192,264531,1,8,0:0:0:0:
256,192,264606,1,8,0:0:0:0:
256,192,264681,1,0,0:0:0:0:
256,192,264756,1,0,0:0:0:0:
256,192,264831,1,8,0:0:0:0:
256,192,264981,1,8,0:0:0:0:
256,192,265131,1,0,0:0:0:0:
256,192,265206,1,8,0:0:0:0:
256,192,265281,1,0,0:0:0:0:
256,192,265356,1,0,0:0:0:0:
256,192,265431,1,8,0:0:0:0:
256,192,265581,1,8,0:0:0:0:
256,192,265731,1,0,0:0:0:0:
256,192,265881,1,0,0:0:0:0:
256,192,266031,1,8,0:0:0:0:
256,192,266106,1,8,0:0:0:0:
256,192,266181,1,8,0:0:0:0:
256,192,266256,1,8,0:0:0:0:
256,192,266331,1,0,0:0:0:0:
256,192,266406,1,0,0:0:0:0:
256,192,266481,1,0,0:0:0:0:
256,192,266556,1,0,0:0:0:0:
256,192,266631,1,8,0:0:0:0:
256,192,266706,1,8,0:0:0:0:
256,192,266781,1,0,0:0:0:0:
256,192,266856,1,0,0:0:0:0:
256,192,266931,1,8,0:0:0:0:
256,192,267006,1,0,0:0:0:0:
256,192,267081,1,8,0:0:0:0:
256,192,267231,1,4,0:0:0:0:
256,192,267831,1,4,0:0:0:0:
256,192,268431,1,0,0:0:0:0:
256,192,268581,1,0,0:0:0:0:
256,192,268731,1,0,0:0:0:0:
256,192,269031,1,8,0:0:0:0:
256,192,269181,1,0,0:0:0:0:
256,192,269481,1,0,0:0:0:0:
256,192,269631,1,8,0:0:0:0:
256,192,269931,1,0,0:0:0:0:
256,192,270081,1,0,0:0:0:0:
256,192,270231,1,8,0:0:0:0:
256,192,270381,1,0,0:0:0:0:
256,192,270531,1,8,0:0:0:0:
256,192,270681,1,8,0:0:0:0:
256,192,270831,1,0,0:0:0:0:
256,192,270981,1,0,0:0:0:0:
256,192,271131,1,8,0:0:0:0:
256,192,271431,1,8,0:0:0:0:
256,192,271581,1,0,0:0:0:0:
256,192,271881,1,0,0:0:0:0:
256,192,272031,1,8,0:0:0:0:
256,192,272331,1,0,0:0:0:0:
256,192,272481,1,0,0:0:0:0:
256,192,272631,1,8,0:0:0:0:
256,192,272781,1,0,0:0:0:0:
256,192,272931,1,8,0:0:0:0:
256,192,273081,1,8,0:0:0:0:
256,192,273231,1,0,0:0:0:0:
256,192,273531,1,0,0:0:0:0:
256,192,273831,1,8,0:0:0:0:
256,192,273981,1,0,0:0:0:0:
256,192,274281,1,0,0:0:0:0:
256,192,274431,1,8,0:0:0:0:
256,192,274731,1,0,0:0:0:0:
256,192,274881,1,0,0:0:0:0:
256,192,275031,1,8,0:0:0:0:
256,192,275181,1,0,0:0:0:0:
256,192,275331,1,8,0:0:0:0:
256,192,275481,1,8,0:0:0:0:
256,192,275631,1,0,0:0:0:0:
256,192,275781,1,8,0:0:0:0:
256,192,275931,1,0,0:0:0:0:
256,192,276231,1,8,0:0:0:0:
256,192,276381,1,0,0:0:0:0:
256,192,276681,1,0,0:0:0:0:
256,192,276756,1,0,0:0:0:0:
256,192,276831,1,8,0:0:0:0:
256,192,276981,1,0,0:0:0:0:
256,192,277131,1,0,0:0:0:0:
256,192,277281,1,8,0:0:0:0:
256,192,277431,1,0,0:0:0:0:
256,192,277581,1,0,0:0:0:0:
256,192,277656,1,0,0:0:0:0:
256,192,277731,1,8,0:0:0:0:
256,192,277806,1,0,0:0:0:0:
256,192,277881,1,8,0:0:0:0:
256,192,277956,1,8,0:0:0:0:
256,192,278031,1,0,0:0:0:0:
256,192,278181,1,0,0:0:0:0:
256,192,278331,1,0,0:0:0:0:
256,192,278631,1,8,0:0:0:0:
256,192,278781,1,0,0:0:0:0:
256,192,279081,1,0,0:0:0:0:
256,192,279231,1,8,0:0:0:0:
256,192,279531,1,0,0:0:0:0:
256,192,279681,1,0,0:0:0:0:
256,192,279831,1,8,0:0:0:0:
256,192,279981,1,0,0:0:0:0:
256,192,280131,1,8,0:0:0:0:
256,192,280281,1,8,0:0:0:0:
256,192,280431,1,0,0:0:0:0:
256,192,280581,1,0,0:0:0:0:
256,192,280731,1,8,0:0:0:0:
256,192,281031,1,8,0:0:0:0:
256,192,281181,1,0,0:0:0:0:
256,192,281481,1,0,0:0:0:0:
256,192,281631,1,8,0:0:0:0:
256,192,281781,1,0,0:0:0:0:
256,192,281856,1,0,0:0:0:0:
256,192,281931,1,0,0:0:0:0:
256,192,282081,1,8,0:0:0:0:
256,192,282231,1,0,0:0:0:0:
256,192,282306,1,0,0:0:0:0:
256,192,282381,1,0,0:0:0:0:
256,192,282531,1,8,0:0:0:0:
256,192,282606,1,8,0:0:0:0:
256,192,282681,1,8,0:0:0:0:
256,192,282756,1,8,0:0:0:0:
256,192,282831,1,0,0:0:0:0:
256,192,283131,1,0,0:0:0:0:
256,192,283431,1,8,0:0:0:0:
256,192,283581,1,0,0:0:0:0:
256,192,283881,1,0,0:0:0:0:
256,192,284031,1,8,0:0:0:0:
256,192,284331,1,0,0:0:0:0:
256,192,284481,1,0,0:0:0:0:
256,192,284631,1,8,0:0:0:0:
256,192,284781,1,8,0:0:0:0:
256,192,284931,1,0,0:0:0:0:
256,192,285081,1,0,0:0:0:0:
256,192,285231,1,8,0:0:0:0:
256,192,285381,1,0,0:0:0:0:
256,192,285531,1,0,0:0:0:0:
256,192,285681,1,8,0:0:0:0:
256,192,285831,1,0,0:0:0:0:
256,192,285981,1,0,0:0:0:0:
256,192,286131,1,8,0:0:0:0:
256,192,286281,1,0,0:0:0:0:
256,192,286431,1,8,0:0:0:0:
256,192,286506,1,0,0:0:0:0:
256,192,286581,1,0,0:0:0:0:
256,192,286731,1,0,0:0:0:0:
256,192,286881,1,8,0:0:0:0:
256,192,286956,1,8,0:0:0:0:
256,192,287031,1,0,0:0:0:0:
256,192,287181,1,0,0:0:0:0:
256,192,287331,1,8,0:0:0:0:
256,192,287406,1,0,0:0:0:0:
256,192,287481,1,0,0:0:0:0:
256,192,287628,1,4,0:0:0:0:
256,192,290554,1,0,0:0:0:0:
256,192,291042,1,0,0:0:0:0:
256,192,291530,1,8,0:0:0:0:
256,192,291652,1,8,0:0:0:0:
256,192,291774,1,8,0:0:0:0:
256,192,291896,1,8,0:0:0:0:
256,192,292018,1,8,0:0:0:0:
256,192,292140,1,8,0:0:0:0:
256,192,292262,1,8,0:0:0:0:
256,192,292506,1,0,0:0:0:0:
256,192,292993,1,0,0:0:0:0:
256,192,293237,1,0,0:0:0:0:
256,192,293359,1,0,0:0:0:0:
256,192,293481,1,8,0:0:0:0:
256,192,293603,1,0,0:0:0:0:
256,192,293725,1,0,0:0:0:0:
256,192,293847,1,8,0:0:0:0:
256,192,293969,1,0,0:0:0:0:
256,192,294091,1,0,0:0:0:0:
256,192,294213,1,8,0:0:0:0:
256,192,294335,1,0,0:0:0:0:
256,192,294457,1,8,0:0:0:0:
256,192,294518,1,8,0:0:0:0:
256,192,294579,1,8,0:0:0:0:
256,192,294701,1,8,0:0:0:0:
256,192,294823,1,0,0:0:0:0:
256,192,294884,1,0,0:0:0:0:
256,192,294945,1,0,0:0:0:0:
256,192,295067,1,0,0:0:0:0:
256,192,295188,1,8,0:0:0:0:
256,192,295310,1,0,0:0:0:0:
256,192,295432,1,8,0:0:0:0:
256,192,295554,1,8,0:0:0:0:
256,192,295676,1,8,0:0:0:0:
256,192,295798,1,8,0:0:0:0:
256,192,295920,1,8,0:0:0:0:
256,192,296042,1,8,0:0:0:0:
256,192,296164,1,8,0:0:0:0:
256,192,296408,1,0,0:0:0:0:
256,192,296652,1,0,0:0:0:0:
256,192,296774,1,0,0:0:0:0:
256,192,296896,1,8,0:0:0:0:
256,192,297018,1,0,0:0:0:0:
256,192,297140,1,8,0:0:0:0:
256,192,297262,1,8,0:0:0:0:
256,192,297384,1,0,0:0:0:0:
256,192,298664,1,0,0:0:0:0:
256,192,298725,1,0,0:0:0:0:
256,192,298786,1,0,0:0:0:0:
256,192,298847,1,8,0:0:0:0:
256,192,299335,1,4,0:0:0:0:
256,192,299457,1,0,0:0:0:0:
256,192,299701,1,0,0:0:0:0:
256,192,299945,1,0,0:0:0:0:
256,192,300188,1,0,0:0:0:0:
256,192,300310,1,8,0:0:0:0:
256,192,300554,1,0,0:0:0:0:
256,192,300798,1,0,0:0:0:0:
256,192,301042,1,0,0:0:0:0:
256,192,301164,1,0,0:0:0:0:
256,192,301286,1,0,0:0:0:0:
256,192,301408,1,0,0:0:0:0:
256,192,301530,1,0,0:0:0:0:
256,192,301652,1,0,0:0:0:0:
256,192,301896,1,0,0:0:0:0:
256,192,302140,1,0,0:0:0:0:
256,192,302262,1,8,0:0:0:0:
256,192,302506,1,0,0:0:0:0:
256,192,302749,1,0,0:0:0:0:
256,192,302871,1,0,0:0:0:0:
256,192,303115,1,0,0:0:0:0:
256,192,303237,1,0,0:0:0:0:
256,192,303359,1,0,0:0:0:0:
256,192,303603,1,0,0:0:0:0:
256,192,303847,1,0,0:0:0:0:
256,192,304091,1,0,0:0:0:0:
256,192,304213,1,8,0:0:0:0:
256,192,304457,1,0,0:0:0:0:
256,192,304701,1,0,0:0:0:0:
256,192,304945,1,0,0:0:0:0:
256,192,305067,1,0,0:0:0:0:
256,192,305188,1,0,0:0:0:0:
256,192,305310,1,0,0:0:0:0:
256,192,305432,1,0,0:0:0:0:
256,192,305554,1,0,0:0:0:0:
256,192,305798,1,0,0:0:0:0:
256,192,306042,1,0,0:0:0:0:
256,192,306164,1,8,0:0:0:0:
256,192,306408,1,0,0:0:0:0:
256,192,306530,1,0,0:0:0:0:
256,192,306591,1,0,0:0:0:0:
256,192,306652,1,8,0:0:0:0:
256,192,306774,1,0,0:0:0:0:
256,192,307140,1,4,0:0:0:0:
256,192,307262,1,0,0:0:0:0:
256,192,307506,1,0,0:0:0:0:
256,192,307628,1,8,0:0:0:0:
256,192,307749,1,0,0:0:0:0:
256,192,307993,1,0,0:0:0:0:
256,192,308115,1,0,0:0:0:0:
256,192,308359,1,0,0:0:0:0:
256,192,308603,1,8,0:0:0:0:
256,192,308847,1,0,0:0:0:0:
256,192,308969,1,0,0:0:0:0:
256,192,309091,1,0,0:0:0:0:
256,192,309213,1,0,0:0:0:0:
256,192,309335,1,0,0:0:0:0:
256,192,309457,1,0,0:0:0:0:
256,192,309579,1,8,0:0:0:0:
256,192,309701,1,0,0:0:0:0:
256,192,309945,1,0,0:0:0:0:
256,192,310067,1,0,0:0:0:0:
256,192,310310,1,0,0:0:0:0:
256,192,310554,1,8,0:0:0:0:
256,192,310676,1,0,0:0:0:0:
256,192,310920,1,0,0:0:0:0:
256,192,310981,1,0,0:0:0:0:
256,192,311042,1,0,0:0:0:0:
256,192,311164,1,0,0:0:0:0:
256,192,311408,1,0,0:0:0:0:
256,192,311530,1,8,0:0:0:0:
256,192,311652,1,0,0:0:0:0:
256,192,311896,1,0,0:0:0:0:
256,192,312018,1,0,0:0:0:0:
256,192,312262,1,0,0:0:0:0:
256,192,312506,1,8,0:0:0:0:
256,192,312749,1,0,0:0:0:0:
256,192,312871,1,0,0:0:0:0:
256,192,312932,1,0,0:0:0:0:
256,192,312993,1,0,0:0:0:0:
256,192,313115,1,0,0:0:0:0:
256,192,313237,1,0,0:0:0:0:
256,192,313359,1,0,0:0:0:0:
256,192,313481,1,8,0:0:0:0:
256,192,313603,1,0,0:0:0:0:
256,192,313847,1,0,0:0:0:0:
256,192,313908,1,0,0:0:0:0:
256,192,313969,1,8,0:0:0:0:
256,192,314091,1,0,0:0:0:0:
256,192,314213,1,0,0:0:0:0:
256,192,314335,1,8,0:0:0:0:
256,192,314457,1,0,0:0:0:0:
256,192,314579,1,0,0:0:0:0:
256,192,314701,1,8,0:0:0:0:
256,192,314823,1,0,0:0:0:0:
