osu file format v14

[General]
AudioFilename: audio.mp3
AudioLeadIn: 0
PreviewTime: 60736
Countdown: 0
SampleSet: Soft
StackLeniency: 0.7
Mode: 0
LetterboxInBreaks: 0
WidescreenStoryboard: 0

[Editor]
DistanceSpacing: 1
BeatDivisor: 2
GridSize: 4
TimelineZoom: 1

[Metadata]
Title:Happy*Material
TitleUnicode:ハッピー☆マテリアル
Artist:Takakura Yuka, Hirose Yuuki, Kayano Ai, Ogura Yui, Harada Sayaka, Kito Akari
ArtistUnicode:高倉有加, 広瀬ゆうき, 茅野愛衣, 小倉唯, 原田彩楓, 鬼頭明里
Creator:Yasaija 714
Version:Normal
Source:UQ HOLDER! ~魔法先生ネギま!2~
Tags:uq holder mahou sensei negima 2 opening Touta Konoe Kuroumaru Tokisaka Kirie Sakuraame Shinobu Yuuki Mizore Yukihiro Kibbleru
BeatmapID:1437803
BeatmapSetID:679940

[Difficulty]
HPDrainRate:4
CircleSize:3
OverallDifficulty:4
ApproachRate:5.5
SliderMultiplier:1.15
SliderTickRate:1

[Events]
//Background and Video events
0,0,"BG.jpg",0,0
//Break Periods
//Storyboard Layer 0 (Background)
//Storyboard Layer 1 (Fail)
//Storyboard Layer 2 (Pass)
//Storyboard Layer 3 (Foreground)
//Storyboard Sound Samples

[TimingPoints]
-557,368.098159509202,4,2,1,40,1,0
915,-100,4,2,1,40,0,0
6804,-100,4,2,1,50,0,0
12326,-100,4,2,2,50,0,0
12694,-100,4,2,1,60,0,0
24473,-100,4,2,1,50,0,0
36252,-100,4,2,1,55,0,0
48031,-100,4,2,1,60,0,0
60915,-100,4,2,2,60,0,0
61283,-100,4,2,1,80,0,1
62571,-100,4,2,2,80,0,1
62663,-100,4,2,1,80,0,1
65516,-100,4,2,2,80,0,1
65608,-100,4,2,1,80,0,1
77295,-100,4,2,2,80,0,1
77387,-100,4,2,1,80,0,1
84473,-100,4,2,2,80,0,1
84841,-100,4,2,1,80,0,0

[Colours]
Combo1 : 0,213,213
Combo2 : 255,255,117
Combo3 : 89,164,255
Combo4 : 255,153,104

[HitObjects]
162,320,915,6,0,P|212:311|281:317,2,115,2|2|2,0:0|0:0|0:0,0:0:0:0:
55,357,2019,1,2,0:0:0:0:
55,357,2203,2,0,P|41:277|49:236,1,115,2|2,0:0|0:0,0:0:0:0:
76,195,2755,2,0,L|133:204,2,57.5,0|2|2,0:0|0:0|0:0,0:0:0:0:
212,89,3676,1,2,0:0:0:0:
212,89,3860,6,0,P|276:84|329:96,1,115,2|2,0:0|0:0,0:0:0:0:
442,162,4596,2,0,P|424:222|424:283,1,115,2|0,0:0|0:0,0:0:0:0:
429,331,5148,2,0,P|369:313|308:313,1,115,2|2,0:0|0:0,0:0:0:0:
266,339,5700,1,0,0:0:0:0:
266,339,5884,2,0,P|206:357|145:357,1,115,2|4,0:0|0:3,0:0:0:0:
103,330,6436,1,4,0:0:0:0:
150,225,6804,6,0,P|160:151|154:99,1,115,6|0,0:0|0:0,0:0:0:0:
133,57,7357,2,0,P|188:54|252:61,2,115,0|2|2,0:0|0:0|0:0,0:0:0:0:
78,75,8277,1,6,0:0:0:0:
78,75,8461,1,0,0:0:0:0:
150,225,9013,2,0,P|206:215|272:225,1,115,0|8,0:0|0:0,0:0:0:0:
343,304,9749,6,0,P|374:244|362:166,1,115,4|8,0:0|0:0,0:0:0:0:
342,149,10301,2,0,P|282:118|204:130,1,115,4|4,0:0|0:3,0:0:0:0:
123,143,11038,1,4,0:0:0:0:
55,235,11406,6,0,L|54:314,2,57.5,0|8|0,0:0|0:0|0:0,0:0:0:0:
23,187,11958,2,0,P|6:132|13:72,1,115,8|8,0:0|0:0,0:0:0:0:
121,39,12694,6,0,L|239:53,1,115,2|8,0:0|0:0,0:0:0:0:
298,148,13430,2,0,L|400:138,2,57.5,2|2|10,0:0|0:0|0:0,0:0:0:0:
247,174,13982,2,0,P|242:239|257:311,1,115,6|0,0:0|0:0,0:0:0:0:
269,342,14535,1,8,0:0:0:0:
155,326,14903,2,0,L|53:316,1,57.5,2|2,0:0|0:0,0:0:0:0:
43,300,15271,1,8,0:0:0:0:
43,300,15455,6,0,P|69:220|67:168,1,115,6|0,0:0|0:0,0:0:0:0:
48,136,16007,1,8,0:0:0:0:
132,60,16375,2,0,L|72:40,2,57.5,2|2|10,0:0|0:0|0:0,0:0:0:0:
184,88,16927,6,0,P|245:105|345:91,1,115,4|4,0:0|0:0,0:0:0:0:
350,208,17663,2,0,P|289:225|189:211,1,115,2|2,0:0|0:0,0:0:0:0:
181,211,18216,1,10,0:0:0:0:
80,266,18584,6,0,P|67:197|89:142,1,115,4|8,0:0|0:0,0:0:0:0:
158,71,19320,2,0,L|101:61,2,57.5,2|2|10,0:0|0:0|0:0,0:0:0:0:
195,114,19872,2,0,P|308:130|355:110,1,115,4|0,0:0|0:0,0:0:0:0:
349,92,20424,1,8,0:0:0:0:
422,180,20792,2,0,L|409:298,1,115,8|2,0:3|0:0,0:0:0:0:
298,325,21528,6,0,P|272:318|223:316,1,57.5,8|8,0:0|0:0,0:0:0:0:
138,366,22081,2,0,P|112:372|63:375,1,57.5,8|8,0:0|0:0,0:0:0:0:
10,285,22633,2,0,L|18:212,1,57.5,8|8,0:0|0:0,0:0:0:0:
125,192,23185,2,0,L|117:119,1,57.5,8|8,0:0|0:0,0:0:0:0:
16,81,23737,1,8,0:0:0:0:
244,52,24473,6,0,P|309:50|377:73,1,115,4|8,0:0|0:0,0:0:0:0:
399,101,25025,2,0,P|395:159|403:218,1,115,0|0,0:0|0:0,0:0:0:0:
424,328,25762,2,0,B|370:348|370:348|309:335,1,115,2|2,0:0|0:0,0:0:0:0:
258,321,26314,1,8,0:0:0:0:
258,321,26498,2,0,B|204:301|204:301|143:314,1,115,0|2,0:0|0:0,0:0:0:0:
96,338,27050,1,8,0:0:0:0:
41,236,27418,6,0,P|62:177|64:125,1,115,2|8,0:0|0:0,0:0:0:0:
77,69,27970,2,0,P|143:65|206:77,1,115,0|2,0:0|0:0,0:0:0:0:
297,117,28706,1,2,0:0:0:0:
361,211,29074,1,2,0:0:0:0:
361,325,29442,2,0,P|294:328|232:317,1,115,0|2,0:0|0:0,0:0:0:0:
202,284,29995,1,8,0:0:0:0:
103,343,30363,6,0,P|90:296|106:218,1,115,2|8,0:0|0:0,0:0:0:0:
146,198,30915,2,0,P|159:151|143:73,1,115,0|2,0:0|0:0,0:0:0:0:
256,44,31651,2,0,B|326:55|326:55|366:94,1,115,2|2,0:0|0:0,0:0:0:0:
390,132,32203,1,8,0:0:0:0:
390,132,32387,2,0,P|376:187|386:270,1,115,0|2,0:0|0:0,0:0:0:0:
400,298,32939,1,8,0:0:0:0:
303,361,33308,6,0,P|224:344|170:331,1,115,2|8,0:0|0:0,0:0:0:0:
143,303,33860,1,0,0:0:0:0:
225,223,34228,1,2,0:0:0:0:
334,258,34596,2,0,P|392:261|446:237,1,115,6|0,0:0|0:0,0:0:0:0:
479,194,35148,1,8,0:0:0:0:
373,149,35516,2,0,P|382:121|383:78,2,57.5,2|2|8,0:0|0:0|0:0,0:0:0:0:
270,96,36252,6,0,P|198:83|123:95,1,115,4|8,0:0|0:0,0:0:0:0:
107,116,36804,2,0,B|117:174|117:174|110:238,1,115,0|2,0:0|0:0,0:0:0:0:
64,335,37541,2,0,P|140:340|192:314,1,115,2|2,0:0|0:0,0:0:0:0:
216,286,38093,1,8,0:0:0:0:
216,286,38277,2,0,P|270:268|326:276,1,115,0|2,0:0|0:0,0:0:0:0:
377,303,38829,1,8,0:0:0:0:
466,231,39197,6,0,P|486:170|474:113,1,115,2|8,0:0|0:0,0:0:0:0:
440,76,39749,1,0,0:0:0:0:
366,164,40117,2,0,L|237:152,1,115,2|2,0:0|0:0,0:0:0:0:
182,245,40854,2,0,L|67:255,1,115,2|0,0:0|0:0,0:0:0:0:
6,158,41590,1,2,0:0:0:0:
70,62,41958,1,0,0:0:0:0:
70,62,42142,6,0,P|161:74|207:62,1,115,2|8,0:0|0:0,0:0:0:0:
238,55,42694,2,0,B|258:108|258:108|248:176,1,115,0|2,0:0|0:0,0:0:0:0:
163,242,43430,2,0,B|154:299|154:299|174:352,1,115,2|2,0:0|0:0,0:0:0:0:
230,366,43982,1,8,0:0:0:0:
230,366,44166,2,0,P|293:341|343:341,1,115,0|2,0:0|0:0,0:0:0:0:
396,351,44719,1,8,0:0:0:0:
489,283,45087,6,0,B|468:230|468:230|477:169,1,115,2|8,0:0|0:0,0:0:0:0:
491,117,45639,1,0,0:0:0:0:
383,75,46007,1,2,0:0:0:0:
275,115,46375,2,0,B|283:172|283:172|262:225,1,115,4|2,0:0|0:0,0:0:0:0:
228,271,46927,2,0,L|101:265,2,115,10|10|10,0:0|0:0|0:0,0:0:0:0:
333,316,48031,5,4,0:0:0:0:
433,259,48400,2,0,L|429:194,2,57.5,8|0|6,0:0|0:0|0:0,0:0:0:0:
333,316,49136,2,0,L|336:373,2,57.5,8|0|6,0:0|0:0|0:0,0:0:0:0:
228,271,49872,1,8,0:0:0:0:
303,184,50240,1,2,0:0:0:0:
216,108,50608,2,0,L|154:113,1,57.5,8|0,0:0|0:0,0:0:0:0:
103,128,50976,6,0,P|88:184|114:275,1,115,6|8,0:0|0:0,0:0:0:0:
192,304,51712,2,0,P|207:248|181:157,1,115,6|8,0:0|0:0,0:0:0:0:
272,104,52449,5,6,0:0:0:0:
384,88,52817,1,14,0:0:0:0:
484,148,53185,1,6,0:0:0:0:
504,260,53553,1,14,0:0:0:0:
439,355,53921,6,0,P|350:363|297:332,1,115,4|8,0:0|0:0,0:0:0:0:
284,316,54473,1,0,0:0:0:0:
284,316,54657,2,0,P|228:302|173:315,1,115,2|8,0:0|0:0,0:0:0:0:
59,332,55393,6,0,P|47:275|48:215,1,115,2|8,0:0|0:0,0:0:0:0:
162,217,56130,2,0,P|193:168|236:126,1,115,2|8,0:0|0:0,0:0:0:0:
316,208,56866,2,0,L|325:275,1,57.5,2|2,0:0|0:0,0:0:0:0:
367,301,57234,2,0,P|407:260|439:212,1,115,4|2,0:0|0:0,0:0:0:0:
445,97,57970,1,4,0:0:0:0:
339,51,58338,6,0,L|269:61,1,57.5,4|2,0:3|0:0,0:0:0:0:
229,82,58706,1,8,0:0:0:0:
229,82,58890,2,0,P|249:154|234:219,1,115,4|8,0:3|0:0,0:0:0:0:
216,243,59442,1,4,0:3:0:0:
134,324,59811,6,0,L|197:333,1,57.5,4|2,0:3|0:0,0:0:0:0:
244,352,60179,2,0,L|307:343,1,57.5,2|2,0:0|0:0,0:0:0:0:
471,315,60915,1,8,0:0:0:0:
418,212,61283,6,0,P|361:197|291:204,1,115,4|8,0:0|0:0,0:0:0:0:
191,211,62019,2,0,P|180:180|176:141,1,57.5,2|2,0:0|0:0,0:0:0:0:
183,98,62387,1,10,0:0:0:0:
183,98,62571,2,0,P|240:83|310:90,1,115,8|2,0:0|0:0,0:0:0:0:
351,72,63123,2,0,P|407:87|464:128,2,115,8|2|8,0:0|0:0|0:0,0:0:0:0:
363,186,64228,6,0,P|374:247|366:309,1,115,4|8,0:0|0:0,0:0:0:0:
268,355,64964,2,0,P|240:362|191:362,1,57.5,2|2,0:0|0:0,0:0:0:0:
157,344,65332,1,10,0:0:0:0:
157,344,65516,2,0,P|135:282|133:232,1,115,8|2,0:0|0:0,0:0:0:0:
88,197,66068,2,0,P|99:132|123:88,2,115,8|2|8,0:0|0:0|0:0,0:0:0:0:
201,174,67173,6,0,P|275:179|332:165,1,115,4|8,0:0|0:0,0:0:0:0:
411,109,67909,2,0,L|422:181,2,57.5,2|2|10,0:0|0:0|0:0,0:0:0:0:
365,73,68461,2,0,P|291:68|234:82,1,115,4|2,0:0|0:0,0:0:0:0:
201,174,69197,2,0,P|210:236|223:302,1,115,2|2,0:0|0:0,0:0:0:0:
316,349,69933,1,0,0:0:0:0:
316,349,70117,6,0,P|397:340|442:304,1,115,4|8,0:0|0:0,0:0:0:0:
472,292,70669,1,4,0:0:0:0:
396,209,71038,2,0,L|409:153,1,57.5,4|2,0:3|0:0,0:0:0:0:
430,99,71406,6,0,P|375:109|269:89,1,115,4|4,0:0|0:0,0:0:0:0:
264,79,71958,2,0,P|206:74|150:84,1,115,8|4,0:0|0:3,0:0:0:0:
119,133,72510,2,0,L|151:220,2,57.5,8|8|8,0:3|0:3|0:3,0:0:0:0:
65,111,73062,5,4,0:0:0:0:
37,222,73430,2,0,L|83:343,1,115,12|2,0:0|0:0,0:0:0:0:
188,361,74166,1,8,0:0:0:0:
188,361,74350,2,0,P|264:354|308:325,1,115,4|2,0:0|0:0,0:0:0:0:
351,351,74903,2,0,P|413:306|436:259,2,115,8|2|8,0:0|0:0|0:0,0:0:0:0:
292,251,76007,6,0,P|290:186|274:137,1,115,4|8,0:0|0:0,0:0:0:0:
179,73,76743,2,0,L|106:89,1,57.5,2|2,0:0|0:0,0:0:0:0:
71,110,77111,1,8,0:0:0:0:
71,110,77295,2,0,P|73:175|89:224,1,115,8|2,0:0|0:0,0:0:0:0:
140,245,77847,1,8,0:0:0:0:
140,245,78031,2,0,P|138:310|122:359,2,115,2|2|0,0:0|0:0|0:0,0:0:0:0:
180,203,78952,6,0,P|248:178|299:176,1,115,4|8,0:0|0:0,0:0:0:0:
336,209,79504,2,0,P|404:234|455:236,1,115,2|2,0:0|0:0,0:0:0:0:
495,206,80056,1,8,0:0:0:0:
488,94,80424,1,4,0:0:0:0:
488,94,80608,2,0,P|423:104|374:108,1,115,2|2,0:0|0:0,0:0:0:0:
320,86,81160,2,0,P|255:76|206:72,1,115,0|8,0:0|0:0,0:0:0:0:
99,115,81896,6,0,L|112:234,1,115,4|8,0:0|0:0,0:0:0:0:
146,275,82449,2,0,P|198:250|281:250,1,115,4|0,0:0|0:0,0:0:0:0:
352,305,83185,2,0,P|408:300|460:275,1,115,4|2,0:0|0:0,0:0:0:0:
493,228,83737,2,0,L|505:113,1,115,8|8,0:0|0:3,0:0:0:0:
423,32,84473,1,8,0:0:0:0:
316,76,84841,6,0,L|328:190,1,115,8|8,0:0|0:0,0:0:0:0:
291,299,85577,2,0,P|255:295|217:297,1,57.5,8|2,0:0|0:0,0:0:0:0:
180,316,85946,1,8,0:0:0:0:
180,316,86130,2,0,P|159:269|157:197,1,115,4|2,0:0|0:0,0:0:0:0:
199,169,86682,2,0,P|220:122|222:50,2,115,8|8|2,0:0|0:3|0:0,0:0:0:0:
84,169,87786,6,0,L|20:189,1,57.5,14|8,0:0|0:0,0:0:0:0:
58,75,88338,2,0,L|72:9,1,57.5,8|8,0:0|0:0,0:0:0:0:
158,92,88890,2,0,L|207:137,1,57.5,8|8,0:0|0:0,0:0:0:0:
