osu file format v14

[General]
AudioFilename: audio.mp3
AudioLeadIn: 0
PreviewTime: 60736
Countdown: 0
SampleSet: Soft
StackLeniency: 0.7
Mode: 0
LetterboxInBreaks: 0
WidescreenStoryboard: 1

[Editor]
DistanceSpacing: 0.7
BeatDivisor: 2
GridSize: 4
TimelineZoom: 1.4

[Metadata]
Title:Happy*Material
TitleUnicode:ハッピー☆マテリアル
Artist:Takakura Yuka, Hirose Yuuki, Kayano Ai, Ogura Yui, Harada Sayaka, Kito Akari
ArtistUnicode:高倉有加, 広瀬ゆうき, 茅野愛衣, 小倉唯, 原田彩楓, 鬼頭明里
Creator:Yasaija 714
Version:Kibb's Insane
Source:UQ HOLDER! ~魔法先生ネギま!2~
Tags:uq holder mahou sensei negima 2 opening Touta Konoe Kuroumaru Tokisaka Kirie Sakuraame Shinobu Yuuki Mizore Yukihiro Kibbleru
BeatmapID:1508694
BeatmapSetID:679940

[Difficulty]
HPDrainRate:5
CircleSize:4
OverallDifficulty:8
ApproachRate:9
SliderMultiplier:1.7
SliderTickRate:1

[Events]
//Background and Video events
0,0,"BG.jpg",0,0
//Break Periods
//Storyboard Layer 0 (Background)
//Storyboard Layer 1 (Fail)
//Storyboard Layer 2 (Pass)
//Storyboard Layer 3 (Foreground)
//Storyboard Sound Samples

[TimingPoints]
-557,368.098159509202,4,2,1,40,1,0
915,-111.111111111111,4,2,1,40,0,0
6436,-100,4,2,1,40,0,0
6804,-100,4,2,1,50,0,0
12326,-133.333333333333,4,2,2,50,0,0
12694,-100,4,2,1,60,0,0
24473,-100,4,2,1,50,0,0
25025,-125,4,2,1,50,0,0
34596,-100,4,2,1,50,0,0
36252,-100,4,2,1,55,0,0
48031,-100,4,2,1,60,0,0
52449,-90.9090909090909,4,2,1,60,0,0
52817,-71.4285714285714,4,2,1,60,0,0
53921,-100,4,2,1,60,0,0
56866,-125,4,2,1,60,0,0
57234,-83.3333333333333,4,2,1,60,0,0
57602,-125,4,2,1,60,0,0
57970,-83.3333333333333,4,2,1,60,0,0
58338,-90.9090909090909,4,2,1,60,0,0
60915,-133.333333333333,4,2,2,60,0,0
61283,-90.9090909090909,4,2,1,80,0,1
62571,-90.9090909090909,4,2,2,80,0,1
62663,-90.9090909090909,4,2,1,80,0,1
65516,-90.9090909090909,4,2,2,80,0,1
65608,-90.9090909090909,4,2,1,80,0,1
73062,-90.9090909090909,4,2,1,80,0,1
77295,-90.9090909090909,4,2,2,80,0,1
77387,-90.9090909090909,4,2,1,80,0,1
84473,-133.333333333333,4,2,2,80,0,1
84841,-100,4,2,1,80,0,0
87418,-83.3333333333333,4,2,1,80,0,0
87786,-100,4,2,1,80,0,0

[Colours]
Combo1 : 0,213,213
Combo2 : 255,255,117
Combo3 : 89,164,255
Combo4 : 255,153,104

[HitObjects]
416,170,363,5,0,0:0:0:0:
341,229,547,2,0,P|333:270|329:313,1,85,0|0,0:0|0:0,0:0:0:0:
284,154,915,6,0,P|238:147|137:210,2,152.999995330811,2|2|2,0:0|0:0|0:0,0:0:0:0:
364,110,1835,1,0,0:0:0:0:
307,38,2019,1,2,0:0:0:0:
242,246,2203,6,0,P|239:284|235:322,1,76.4999976654053,2|0,0:0|0:0,0:0:0:0:
335,296,2571,1,2,0:0:0:0:
432,343,2755,2,0,P|427:304|425:266,1,76.4999976654053,0|2,0:0|0:0,0:0:0:0:
434,175,3123,1,2,0:0:0:0:
197,132,3676,1,2,0:0:0:0:
197,132,3860,6,0,P|160:172|64:180,2,152.999995330811,2|2|2,0:0|0:0|0:0,0:0:0:0:
271,187,4780,1,0,0:0:0:0:
341,125,4964,1,0,0:0:0:0:
118,19,5148,6,0,P|110:56|107:94,1,76.4999976654053,2|0,0:0|0:0,0:0:0:0:
57,284,5516,1,2,0:0:0:0:
125,202,5700,1,0,0:0:0:0:
213,272,5884,2,0,B|287:261|281:314|358:306,1,152.999995330811,2|4,0:0|0:3,0:0:0:0:
446,257,6436,2,0,L|464:370,1,85,4|0,0:0|0:0,0:0:0:0:
360,198,6804,6,0,L|374:72,1,127.5,6|0,0:0|0:0,0:0:0:0:
378,50,7173,1,0,0:0:0:0:
278,102,7357,2,0,P|235:106|193:108,1,85,0|2,0:0|0:0,0:0:0:0:
105,70,7725,2,0,P|96:111|92:153,1,85,2|0,0:0|0:0,0:0:0:0:
126,235,8093,1,2,0:0:0:0:
25,18,8277,5,6,0:0:0:0:
191,130,8461,2,0,P|274:133|338:80,1,170,0|0,0:0|0:0,0:0:0:0:
241,43,9013,1,0,0:0:0:0:
385,182,9197,1,0,0:0:0:0:
401,184,9289,1,0,0:0:0:0:
417,186,9381,1,8,0:0:0:0:
446,332,9565,1,8,0:3:0:0:
457,320,9657,1,0,0:0:0:0:
467,307,9749,6,0,L|318:315,1,127.5,4|0,0:0|0:0,0:0:0:0:
323,316,10117,1,8,0:0:0:0:
370,189,10301,2,0,B|379:147|379:147|365:92,1,85,4|0,0:0|0:0,0:0:0:0:
218,288,10669,2,0,L|209:366,2,42.5,4|8|8,0:3|0:0|0:0,0:0:0:0:
160,204,11038,6,0,P|78:197|12:248,1,170,4|0,0:0|0:0,0:0:0:0:
8,68,11590,1,8,0:0:0:0:
112,286,11774,1,0,0:0:0:0:
251,151,11958,1,8,0:0:0:0:
280,147,12050,1,8,0:0:0:0:
309,151,12142,1,8,0:0:0:0:
336,164,12234,1,8,0:0:0:0:
359,183,12326,1,8,0:0:0:0:
299,268,12694,6,0,L|305:352,1,85,2|0,0:0|0:0,0:0:0:0:
395,306,13062,1,8,0:0:0:0:
229,193,13246,1,0,0:0:0:0:
229,193,13338,1,0,0:0:0:0:
229,193,13430,1,2,0:0:0:0:
325,169,13614,1,2,0:0:0:0:
213,297,13798,1,10,0:0:0:0:
150,118,13982,6,0,P|68:122|12:184,1,170,6|0,0:0|0:0,0:0:0:0:
229,193,14535,1,8,0:0:0:0:
312,154,14719,1,0,0:0:0:0:
328,153,14811,1,0,0:0:0:0:
344,152,14903,1,2,0:0:0:0:
145,239,15087,2,0,L|102:232,2,42.5,2|0|8,0:0|0:0|0:0,0:0:0:0:
224,297,15455,6,0,B|275:307|315:282|315:282|349:298|365:336,1,170,6|0,0:0|0:0,0:0:0:0:
451,312,16007,2,0,P|464:272|464:229,1,85,8|0,0:0|0:0,0:0:0:0:
464,229,16283,1,0,0:0:0:0:
464,229,16375,1,2,0:0:0:0:
289,382,16559,1,2,0:0:0:0:
380,190,16743,1,10,0:0:0:0:
303,256,16927,6,0,L|183:265,1,85,4|0,0:0|0:0,0:0:0:0:
333,88,17295,2,0,L|213:79,1,85,4|0,0:0|0:0,0:0:0:0:
65,111,17663,2,0,L|56:63,2,42.5,2|0|2,0:0|0:0|0:0,0:0:0:0:
49,131,17939,1,0,0:0:0:0:
91,126,18031,1,2,0:0:0:0:
131,138,18123,1,0,0:0:0:0:
164,164,18216,1,10,0:0:0:0:
102,287,18400,1,0,0:0:0:0:
102,287,18492,1,2,0:0:0:0:
102,287,18584,6,0,L|243:279,1,127.5,4|0,0:0|0:0,0:0:0:0:
253,280,18952,1,8,0:0:0:0:
154,192,19136,1,0,0:0:0:0:
154,192,19228,1,0,0:0:0:0:
154,192,19320,1,2,0:0:0:0:
327,351,19504,1,2,0:0:0:0:
252,176,19688,1,10,0:0:0:0:
146,297,19872,6,0,P|96:303|59:321,1,85,4|0,0:0|0:0,0:0:0:0:
253,280,20240,1,0,0:0:0:0:
190,94,20424,1,8,0:0:0:0:
348,215,20608,5,8,0:3:0:0:
389,210,20700,1,8,0:3:0:0:
430,221,20792,1,8,0:3:0:0:
464,246,20884,1,0,0:0:0:0:
486,282,20976,1,0,0:0:0:0:
418,73,21160,1,2,0:0:0:0:
418,73,21252,1,2,0:0:0:0:
418,73,21344,1,2,0:0:0:0:
418,73,21436,1,2,0:0:0:0:
418,73,21528,6,0,L|327:80,1,85,8|8,0:0|0:0,0:0:0:0:
55,138,22081,6,0,L|139:144,1,85,8|8,0:0|0:0,0:0:0:0:
418,190,22633,6,0,L|327:197,1,85,8|8,0:0|0:0,0:0:0:0:
55,255,23186,6,0,L|139:261,1,85,8|0,0:0|0:0,0:0:0:0:
466,350,23737,5,8,0:0:0:0:
329,241,23921,1,2,0:0:0:0:
260,316,24105,1,2,0:0:0:0:
359,140,24289,1,0,0:0:0:0:
359,140,24381,1,0,0:0:0:0:
359,140,24473,6,0,B|415:152|415:152|436:203|429:263,1,170,4|8,0:0|0:0,0:0:0:0:
347,330,25025,1,0,0:0:0:0:
347,330,25117,1,0,0:0:0:0:
346,329,25209,2,0,P|313:323|279:320,1,68,0|0,0:0|0:0,0:0:0:0:
330,231,25577,1,8,0:0:0:0:
191,355,25762,6,0,P|157:298|160:231,1,136,2|2,0:0|0:0,0:0:0:0:
209,145,26314,2,0,L|117:133,1,68,8|0,0:0|0:0,0:0:0:0:
68,211,26682,1,2,0:0:0:0:
229,55,26866,1,2,0:0:0:0:
272,219,27050,2,0,P|328:221|410:162,1,136,8|2,0:0|0:0,0:0:0:0:
91,72,27786,5,8,0:0:0:0:
174,25,27970,2,0,P|179:67|180:103,1,68,0|2,0:0|0:0,0:0:0:0:
236,170,28338,2,0,P|230:212|229:248,1,68,2|8,0:0|0:0,0:0:0:0:
188,311,28706,6,0,P|248:282|316:278,1,136,2|2,0:0|0:0,0:0:0:0:
392,328,29258,1,8,0:0:0:0:
464,257,29442,1,0,0:0:0:0:
464,257,29535,1,0,0:0:0:0:
464,257,29627,1,2,0:0:0:0:
295,373,29811,1,2,0:0:0:0:
379,206,29995,2,0,L|384:147,2,34,8|0|0,0:0|0:0|0:0,0:0:0:0:
262,114,30363,6,0,L|274:264,1,136,2|8,0:0|0:0,0:0:0:0:
183,209,30915,2,0,P|149:204|115:203,1,68,0|0,0:0|0:0,0:0:0:0:
62,127,31283,1,2,0:0:0:0:
147,291,31467,1,8,0:0:0:0:
171,107,31651,6,0,P|237:72|321:88,1,136,2|2,0:0|0:0,0:0:0:0:
357,150,32203,1,8,0:0:0:0:
264,166,32387,1,0,0:0:0:0:
264,166,32479,1,0,0:0:0:0:
264,166,32571,1,2,0:0:0:0:
393,54,32755,1,2,0:0:0:0:
432,220,32939,1,8,0:0:0:0:
120,64,33308,6,0,P|135:130|142:202,1,136,2|8,0:0|0:0,0:0:0:0:
45,243,33860,2,0,P|52:209|53:175,1,68,0|2,0:0|0:0,0:0:0:0:
227,140,34228,2,0,P|237:172|243:205,1,68,2|8,0:0|0:0,0:0:0:0:
320,269,34596,6,0,B|422:282|422:282|449:255|453:223,1,170,6|0,0:0|0:0,0:0:0:0:
372,179,35148,1,8,0:0:0:0:
492,350,35332,1,2,0:0:0:0:
454,130,35516,2,0,L|459:87,2,42.5,2|2|2,0:0|0:0|0:0,0:0:0:0:
290,85,35884,1,8,0:0:0:0:
369,156,36068,1,8,0:0:0:0:
371,168,36160,1,8,0:0:0:0:
372,179,36252,6,0,P|302:132|210:145,1,170,4|8,0:0|0:0,0:0:0:0:
137,186,36804,2,0,P|128:144|125:102,1,85,0|0,0:0|0:0,0:0:0:0:
228,233,37173,1,2,0:0:0:0:
125,102,37357,1,8,0:0:0:0:
97,270,37541,6,0,P|56:282|10:287,1,85,2|0,0:0|0:0,0:0:0:0:
291,310,37909,1,2,0:0:0:0:
219,139,38093,1,8,0:0:0:0:
304,194,38277,1,0,0:0:0:0:
320,196,38369,1,0,0:0:0:0:
336,198,38461,1,2,0:0:0:0:
424,134,38645,1,2,0:0:0:0:
332,3,38829,2,0,P|326:44|323:87,1,85,8|0,0:0|0:0,0:0:0:0:
210,240,39197,6,0,P|213:158|156:98,1,170,2|8,0:0|0:0,0:0:0:0:
56,115,39749,2,0,L|13:119,2,42.5,0|0|2,0:0|0:0|0:0,0:0:0:0:
122,195,40117,1,2,0:0:0:0:
302,28,40301,1,8,0:0:0:0:
254,115,40485,6,0,L|338:123,1,85,2|0,0:0|0:0,0:0:0:0:
444,168,40854,2,0,P|456:127|460:84,1,85,2|8,0:0|0:0,0:0:0:0:
286,212,41222,2,0,P|274:252|270:295,1,85,0|2,0:0|0:0,0:0:0:0:
350,142,41590,1,2,0:0:0:0:
183,230,41774,1,8,0:0:0:0:
344,379,41958,1,0,0:0:0:0:
344,379,42050,1,0,0:0:0:0:
344,379,42142,6,0,P|280:325|197:327,1,170,2|8,0:0|0:0,0:0:0:0:
91,277,42694,2,0,L|83:235,2,42.5,0|0|2,0:0|0:0|0:0,0:0:0:0:
301,289,43062,2,0,L|311:204,1,85,2|8,0:0|0:0,0:0:0:0:
380,94,43430,6,0,B|300:74|305:144|216:125,1,170,2|2,0:0|0:0,0:0:0:0:
170,38,43982,1,8,0:0:0:0:
68,160,44166,2,0,P|74:118|77:75,1,85,0|2,0:0|0:0,0:0:0:0:
157,210,44535,1,2,0:0:0:0:
261,80,44719,2,0,P|267:121|270:164,1,85,8|0,0:0|0:0,0:0:0:0:
322,256,45087,6,0,P|260:201|176:197,1,170,2|8,0:0|0:0,0:0:0:0:
359,103,45639,1,0,0:0:0:0:
359,103,45731,1,0,0:0:0:0:
359,103,45823,1,2,0:0:0:0:
223,287,46007,1,2,0:0:0:0:
102,133,46191,1,8,0:0:0:0:
42,221,46375,5,4,0:0:0:0:
269,56,46743,1,2,0:0:0:0:
155,24,46927,6,0,L|159:91,3,42.5,10|2|2|2,0:0|0:0|0:0|0:0,0:0:0:0:
288,156,47295,2,0,L|284:223,3,42.5,10|2|10|2,0:0|0:0|0:0|0:0,0:0:0:0:
284,218,47663,1,10,0:0:0:0:
69,103,47847,1,10,0:0:0:0:
71,124,47939,1,10,0:0:0:0:
73,145,48031,1,4,0:0:0:0:
388,104,48400,6,0,P|391:147|391:189,1,85,8|0,0:0|0:0,0:0:0:0:
185,270,48768,2,0,P|181:227|181:185,1,85,6|2,0:0|0:0,0:0:0:0:
243,123,49136,1,8,0:0:0:0:
175,59,49320,1,0,0:0:0:0:
124,352,49504,6,0,P|190:300|274:297,1,170,6|8,0:0|0:0,0:0:0:0:
388,148,50056,1,0,0:0:0:0:
388,148,50148,1,0,0:0:0:0:
388,148,50240,2,0,P|345:144|304:135,1,85,2|2,0:0|0:0,0:0:0:0:
230,195,50608,1,8,0:0:0:0:
358,52,50792,1,0,0:0:0:0:
481,208,50976,6,0,L|490:110,1,85,6|2,0:0|0:0,0:0:0:0:
211,17,51344,2,0,L|218:101,1,85,8|0,0:0|0:0,0:0:0:0:
314,259,51712,1,6,0:0:0:0:
134,153,51896,1,2,0:0:0:0:
304,45,52081,1,8,0:0:0:0:
368,187,52449,6,0,B|281:161|281:161|250:199,1,140.25000428009,6|0,0:0|0:0,0:0:0:0:
92,245,52817,6,0,B|188:230|162:303|256:294,1,178.499994552612,14|0,0:0|0:0,0:0:0:0:
110,339,53185,6,0,L|190:314,1,59.4999981842042,6|0,0:0|0:0,0:0:0:0:
346,266,53369,1,0,0:0:0:0:
352,289,53461,1,2,0:0:0:0:
351,312,53553,1,10,0:0:0:0:
330,139,53921,6,0,P|412:132|475:186,2,170,4|8|2,0:0|0:0|0:0,0:0:0:0:
508,63,54841,1,2,0:0:0:0:
381,217,55025,1,8,0:0:0:0:
259,69,55209,1,0,0:0:0:0:
167,284,55393,6,0,P|175:242|178:199,1,85,2|0,0:0|0:0,0:0:0:0:
384,18,55762,2,0,P|375:59|372:102,1,85,8|0,0:0|0:0,0:0:0:0:
377,118,56038,1,0,0:0:0:0:
383,133,56130,1,2,0:0:0:0:
286,26,56314,1,2,0:0:0:0:
450,213,56498,1,8,0:0:0:0:
274,119,56682,1,0,0:0:0:0:
274,119,56774,1,0,0:0:0:0:
274,119,56866,6,0,L|203:110,1,68,2|2,0:0|0:0,0:0:0:0:
113,51,57234,2,0,B|80:84|80:84|86:190,1,152.999995330811,4|0,0:0|0:0,0:0:0:0:
66,277,57602,6,0,L|137:268,1,68,2|2,0:0|0:0,0:0:0:0:
227,209,57970,2,0,B|260:242|260:242|253:348,1,152.999995330811,4|0,0:0|0:0,0:0:0:0:
249,370,58338,5,4,0:3:0:0:
384,293,58522,1,2,0:0:0:0:
403,297,58614,1,2,0:0:0:0:
422,301,58706,1,8,0:0:0:0:
141,164,58890,6,0,P|209:172|270:140,1,140.25000428009,4|2,0:3|0:0,0:0:0:0:
270,140,59258,2,0,L|273:93,1,46.7500014266968,8|0,0:0|0:0,0:0:0:0:
407,73,59442,1,4,0:3:0:0:
407,73,59535,1,2,0:0:0:0:
407,73,59627,2,0,L|403:119,1,46.7500014266968,2|2,0:0|0:0,0:0:0:0:
464,198,59811,5,4,0:3:0:0:
272,93,59995,1,2,0:0:0:0:
500,19,60179,5,2,0:0:0:0:
244,93,60363,1,2,0:0:0:0:
374,132,60731,6,0,L|381:68,2,46.7500014266968,2|2|8,0:0|0:0|0:0,0:0:0:0:
412,259,61283,6,0,P|351:227|272:221,1,140.25000428009,4|0,0:0|0:0,0:0:0:0:
280,219,61651,2,0,P|271:173|270:126,1,93.5000028533936,8|0,0:0|0:0,0:0:0:0:
270,126,61927,1,0,0:0:0:0:
270,126,62019,1,2,0:0:0:0:
220,297,62203,1,2,0:0:0:0:
374,132,62387,1,10,0:0:0:0:
176,182,62571,6,0,B|119:189|75:162|75:162|45:182|33:232,1,187.000005706787,8|2,0:0|0:0,0:0:0:0:
125,368,63123,2,0,L|119:274,1,93.5000028533936,8|0,0:0|0:0,0:0:0:0:
257,116,63492,1,2,0:0:0:0:
257,116,63584,1,0,0:0:0:0:
257,116,63676,1,2,0:0:0:0:
278,220,63860,1,8,0:0:0:0:
162,73,64044,1,0,0:0:0:0:
344,64,64228,6,0,P|413:63|477:35,1,140.25000428009,4|0,0:0|0:0,0:0:0:0:
477,35,64596,2,0,P|485:81|488:127,1,93.5000028533936,8|0,0:0|0:0,0:0:0:0:
488,127,64872,1,0,0:0:0:0:
488,127,64964,1,2,0:0:0:0:
407,251,65148,2,0,P|398:205|396:158,1,93.5000028533936,2|10,0:0|0:0,0:0:0:0:
316,91,65516,6,0,B|261:76|261:76|205:119|213:191,1,187.000005706787,8|2,0:0|0:0,0:0:0:0:
156,267,66068,1,8,0:0:0:0:
315,178,66252,1,0,0:0:0:0:
333,177,66344,1,0,0:0:0:0:
351,176,66436,1,2,0:0:0:0:
108,129,66620,5,2,0:0:0:0:
257,276,66804,1,8,0:0:0:0:
336,84,66989,1,0,0:0:0:0:
336,84,67081,1,0,0:0:0:0:
336,83,67173,6,0,P|426:92|480:165,1,187.000005706787,4|8,0:0|0:0,0:0:0:0:
402,236,67725,1,0,0:0:0:0:
230,48,67909,2,0,L|236:141,1,93.5000028533936,2|2,0:0|0:0,0:0:0:0:
158,242,68277,1,10,0:0:0:0:
133,151,68461,6,0,B|225:132|213:211|307:193,1,187.000005706787,4|2,0:0|0:0,0:0:0:0:
375,122,69013,1,8,0:0:0:0:
274,297,69197,2,0,L|219:304,2,46.7500014266968,2|0|0,0:0|0:0|0:0,0:0:0:0:
361,361,69565,2,0,B|381:320|381:320|375:272,1,93.5000028533936,2|8,0:0|0:0,0:0:0:0:
157,236,69933,1,0,0:0:0:0:
241,9,70117,6,8,B|214:53|214:53|232:140,1,140.25000428009,4|0,0:0|0:0,0:0:0:0:
238,166,70485,1,8,0:0:0:0:
106,59,70669,2,0,L|9:48,1,93.5000028533936,4|0,0:0|0:0,0:0:0:0:
322,78,71038,1,4,0:3:0:0:
340,76,71130,1,2,0:0:0:0:
358,74,71222,1,2,0:0:0:0:
139,189,71406,6,0,P|226:185|297:254,1,187.000005706787,4|4,0:0|0:0,0:0:0:0:
200,279,71958,1,8,0:0:0:0:
150,75,72142,2,0,L|142:14,2,46.7500014266968,8|8|4,0:0|0:0|0:3,0:0:0:0:
368,111,72510,2,0,L|376:50,2,46.7500014266968,8|8|8,0:3|0:3|0:3,0:0:0:0:
413,222,72786,1,8,0:3:0:0:
413,222,72878,1,8,0:3:0:0:
413,222,72970,1,8,0:3:0:0:
413,222,73062,6,0,P|346:201|273:202,1,140.25000428009,4|0,0:0|0:0,0:0:0:0:
276,201,73430,2,0,P|266:132|267:102,1,93.5000028533936,12|0,0:0|0:0,0:0:0:0:
219,280,73798,1,2,0:0:0:0:
192,35,73982,1,2,0:0:0:0:
368,111,74166,1,8,0:0:0:0:
168,152,74350,6,0,B|109:137|109:137|61:173|61:249,1,187.000005706787,4|2,0:0|0:0,0:0:0:0:
249,227,74903,2,0,L|356:222,1,93.5000028533936,8|0,0:0|0:0,0:0:0:0:
445,256,75271,1,2,0:0:0:0:
447,237,75363,1,0,0:0:0:0:
449,218,75455,1,2,0:0:0:0:
309,18,75639,2,0,P|293:62|288:109,1,93.5000028533936,8|0,0:0|0:0,0:0:0:0:
315,361,76007,6,0,P|333:293|331:223,1,140.25000428009,4|0,0:0|0:0,0:0:0:0:
332,224,76375,2,0,P|285:220|239:213,1,93.5000028533936,8|0,0:0|0:0,0:0:0:0:
43,188,76743,1,2,0:0:0:0:
206,312,76927,1,2,0:0:0:0:
299,130,77111,1,8,0:0:0:0:
133,137,77295,6,0,P|138:183|140:230,1,93.5000028533936,8|0,0:0|0:0,0:0:0:0:
206,69,77663,1,2,0:0:0:0:
257,304,77847,1,8,0:0:0:0:
331,242,78031,1,2,0:0:0:0:
331,242,78123,2,0,P|332:195|338:148,1,93.5000028533936,0|0,0:0|0:0,0:0:0:0:
349,130,78400,1,2,0:0:0:0:
406,309,78584,1,8,0:0:0:0:
239,183,78768,1,0,0:0:0:0:
454,46,78952,5,4,0:0:0:0:
340,205,79136,1,0,0:0:0:0:
224,82,79320,1,8,0:0:0:0:
88,268,79504,6,0,L|227:285,1,140.25000428009,2|0,0:0|0:0,0:0:0:0:
227,285,79872,2,0,P|220:239|222:192,1,93.5000028533936,2|8,0:0|0:0,0:0:0:0:
313,44,80240,1,0,0:0:0:0:
317,62,80332,1,0,0:0:0:0:
318,80,80424,1,4,0:0:0:0:
392,157,80608,6,0,P|437:168|483:173,1,93.5000028533936,2|8,0:0|0:0,0:0:0:0:
321,228,80976,1,2,0:0:0:0:
212,69,81160,2,0,P|177:64|150:63,2,46.7500014266968,0|0|2,0:0|0:0|0:0,0:0:0:0:
203,167,81528,2,0,P|156:168|110:176,1,93.5000028533936,10|2,0:0|0:0,0:0:0:0:
92,183,81804,1,2,0:0:0:0:
75,191,81896,6,0,L|63:98,1,93.5000028533936,4|0,0:0|0:0,0:0:0:0:
63,98,82173,1,0,0:0:0:0:
63,98,82265,1,8,0:0:0:0:
212,69,82449,2,0,P|276:73|353:144,1,140.25000428009,4|0,0:0|0:0,0:0:0:0:
355,140,82817,1,0,0:0:0:0:
358,121,82909,1,0,0:0:0:0:
361,102,83001,1,0,0:0:0:0:
243,176,83185,6,0,B|179:162|179:162|130:201|135:270,1,187.000005706787,4|2,0:0|0:0,0:0:0:0:
83,106,83737,1,8,0:0:0:0:
223,328,83921,1,2,0:0:0:0:
298,260,84105,1,8,0:3:0:0:
335,252,84197,1,8,0:3:0:0:
373,261,84289,1,8,0:3:0:0:
405,284,84381,1,8,0:3:0:0:
424,317,84473,1,8,0:0:0:0:
446,51,84841,6,0,L|344:62,1,85,8|0,0:0|0:0,0:0:0:0:
174,61,85209,1,8,0:0:0:0:
269,37,85393,1,0,0:0:0:0:
268,58,85485,1,0,0:0:0:0:
267,79,85577,1,8,0:0:0:0:
209,180,85762,1,2,0:0:0:0:
361,60,85946,1,8,0:0:0:0:
157,68,86130,6,0,P|98:57|11:132,1,170,4|2,0:0|0:0,0:0:0:0:
34,303,86682,1,8,0:0:0:0:
93,230,86866,1,8,0:3:0:0:
123,225,86958,1,8,0:3:0:0:
152,229,87050,1,8,0:3:0:0:
179,242,87142,1,0,0:0:0:0:
200,263,87234,1,0,0:0:0:0:
324,325,87418,6,0,L|321:274,1,50.9999984436036,2|2,0:0|0:0,0:0:0:0:
465,281,87602,2,0,L|467:230,1,50.9999984436036,2|2,0:0|0:0,0:0:0:0:
486,99,87786,6,0,P|445:107|403:112,1,85,14|8,0:0|0:0,0:0:0:0:
181,54,88338,6,0,P|209:85|234:119,1,85,8|8,0:0|0:0,0:0:0:0:
282,339,88890,6,0,P|295:298|312:259,1,85,8|8,0:0|0:0,0:0:0:0:
