osu file format v14

[General]
AudioFilename: audio.mp3
AudioLeadIn: 0
PreviewTime: 60736
Countdown: 0
SampleSet: Soft
StackLeniency: 0.7
Mode: 0
LetterboxInBreaks: 0
WidescreenStoryboard: 0

[Editor]
DistanceSpacing: 1
BeatDivisor: 4
GridSize: 4
TimelineZoom: 1

[Metadata]
Title:Happy*Material
TitleUnicode:ハッピー☆マテリアル
Artist:Takakura Yuka, Hirose Yuuki, Kayano Ai, Ogura Yui, Harada Sayaka, Kito Akari
ArtistUnicode:高倉有加, 広瀬ゆうき, 茅野愛衣, 小倉唯, 原田彩楓, 鬼頭明里
Creator:Yasaija 714
Version:Easy
Source:UQ HOLDER! ~魔法先生ネギま!2~
Tags:uq holder mahou sensei negima 2 opening Touta Konoe Kuroumaru Tokisaka Kirie Sakuraame Shinobu Yuuki Mizore Yukihiro Kibbleru
BeatmapID:1437800
BeatmapSetID:679940

[Difficulty]
HPDrainRate:3
CircleSize:2.5
OverallDifficulty:3
ApproachRate:3
SliderMultiplier:0.9
SliderTickRate:1

[Events]
//Background and Video events
0,0,"BG.jpg",0,0
//Break Periods
//Storyboard Layer 0 (Background)
//Storyboard Layer 1 (Fail)
//Storyboard Layer 2 (Pass)
//Storyboard Layer 3 (Foreground)
//Storyboard Sound Samples

[TimingPoints]
-557,368.098159509202,4,2,1,40,1,0
915,-100,4,2,1,40,0,0
6804,-100,4,2,1,50,0,0
12326,-100,4,2,2,50,0,0
12694,-100,4,2,1,60,0,0
24473,-100,4,2,1,50,0,0
36252,-100,4,2,1,55,0,0
48031,-100,4,2,1,60,0,0
60915,-100,4,2,2,60,0,0
61283,-100,4,2,1,80,0,1
62571,-100,4,2,2,80,0,1
62663,-100,4,2,1,80,0,1
65516,-100,4,2,2,80,0,1
65608,-100,4,2,1,80,0,1
77295,-100,4,2,2,80,0,1
77387,-100,4,2,1,80,0,1
84473,-100,4,2,2,80,0,1
84841,-100,4,2,1,80,0,0

[Colours]
Combo1 : 0,213,213
Combo2 : 255,255,117
Combo3 : 89,164,255
Combo4 : 255,153,104

[HitObjects]
52,104,915,6,0,P|136:76|228:108,1,180,2|2,0:0|0:0,0:0:0:0:
271,275,2387,2,0,P|355:303|447:271,1,180,0|2,0:0|0:0,0:0:0:0:
473,99,3860,2,0,B|385:131|383:57|289:99,1,180,2|2,0:0|0:0,0:0:0:0:
150,198,5332,2,0,B|238:230|239:156|334:198,1,180,0|0,0:0|0:0,0:0:0:0:
454,318,6804,6,0,P|390:330|315:322,2,135,6|0|0,0:0|0:0|0:0,0:0:0:0:
497,239,8277,1,6,0:0:0:0:
409,81,9013,2,0,P|369:76|305:90,1,90,0|8,0:0|0:0,0:0:0:0:
238,120,9749,6,0,B|238:166|249:218|249:218|240:242|236:269,1,135,4|4,0:0|0:0,0:0:0:0:
60,231,11038,2,0,B|58:241|49:265|49:265|60:317|60:363,1,135,4|8,0:0|0:0,0:0:0:0:
150,361,11958,2,0,P|208:345|243:347,1,90,8|8,0:0|0:0,0:0:0:0:
326,360,12694,6,0,P|416:352|462:278,1,180,2|2,0:0|0:0,0:0:0:0:
448,147,13982,2,0,P|381:161|300:154,1,135,6|8,0:0|0:0,0:0:0:0:
230,124,14903,1,2,0:0:0:0:
103,77,15455,2,0,B|69:148|129:145|102:217,1,135,6|8,0:0|0:0,0:0:0:0:
55,282,16375,1,2,0:0:0:0:
170,352,16927,6,0,P|215:342|273:340,1,90,4|4,0:0|0:0,0:0:0:0:
347,351,17663,2,0,P|391:348|435:338,1,90,2|2,0:0|0:0,0:0:0:0:
452,203,18584,6,0,P|367:182|268:207,1,180,4|2,0:0|0:0,0:0:0:0:
158,263,19872,2,0,P|164:194|154:125,1,135,4|8,0:0|0:0,0:0:0:0:
106,53,20792,1,8,0:3:0:0:
28,215,21528,6,0,B|17:305|17:305|34:356,2,135,8|8|8,0:0|0:0|0:0,0:0:0:0:
158,263,23185,1,8,0:0:0:0:
248,163,23737,1,8,0:0:0:0:
216,340,24473,6,0,P|304:351|417:299,1,180,4|2,0:0|0:0,0:0:0:0:
505,252,25762,2,0,P|476:181|484:112,1,135,2|8,0:0|0:0,0:0:0:0:
509,38,26682,2,0,P|459:36|410:64,1,90,2|8,0:0|0:0,0:0:0:0:
351,105,27418,6,0,P|262:116|165:93,1,180,2|2,0:0|0:0,0:0:0:0:
37,74,28706,2,0,P|45:137|52:170,1,90,2|2,0:0|0:0,0:0:0:0:
135,191,29442,2,0,P|127:254|120:287,1,90,0|2,0:0|0:0,0:0:0:0:
229,362,30363,6,0,P|293:337|400:359,1,180,2|2,0:0|0:0,0:0:0:0:
459,237,31651,2,0,P|413:173|408:115,1,135,2|8,0:0|0:0,0:0:0:0:
322,88,32571,2,0,P|292:122|226:151,1,90,2|8,0:0|0:0,0:0:0:0:
164,131,33308,6,0,B|144:195|184:261|184:261|164:315,1,180,2|2,0:0|0:0,0:0:0:0:
50,367,34596,2,0,P|30:315|52:239,1,135,6|8,0:0|0:0,0:0:0:0:
134,208,35516,2,0,L|223:217,1,90,2|8,0:0|0:0,0:0:0:0:
275,290,36252,6,0,P|313:226|260:137,1,180,4|2,0:0|0:0,0:0:0:0:
156,62,37541,2,0,P|248:55|298:44,1,135,2|8,0:0|0:0,0:0:0:0:
378,61,38461,2,0,P|398:103|414:154,1,90,2|8,0:0|0:0,0:0:0:0:
375,226,39197,6,0,B|285:186|286:262|174:220,1,180,2|2,0:0|0:0,0:0:0:0:
89,150,40485,2,0,P|54:183|33:229,1,90,2|2,0:0|0:0,0:0:0:0:
107,274,41222,2,0,P|142:307|163:353,1,90,0|2,0:0|0:0,0:0:0:0:
294,362,42142,6,0,P|406:365|472:314,1,180,2|2,0:0|0:0,0:0:0:0:
463,194,43430,2,0,B|420:181|420:181|380:201|308:204,1,135,2|8,0:0|0:0,0:0:0:0:
249,169,44350,2,0,P|204:172|161:184,1,90,2|8,0:0|0:0,0:0:0:0:
95,246,45087,6,0,P|73:172|137:97,1,180,2|2,0:0|0:0,0:0:0:0:
268,99,46375,2,0,P|350:113|415:104,1,135,4|10,0:0|0:0,0:0:0:0:
475,157,47295,2,0,P|460:197|454:251,1,90,10|10,0:0|0:0,0:0:0:0:
465,333,48031,6,0,L|276:322,1,180,4|6,0:0|0:0,0:0:0:0:
196,316,49136,1,0,0:0:0:0:
176,228,49504,2,0,L|365:217,1,180,6|2,0:0|0:0,0:0:0:0:
396,136,50608,1,8,0:0:0:0:
335,69,50976,6,0,P|265:72|217:96,1,90,6|8,0:0|0:0,0:0:0:0:
206,159,51712,2,0,L|217:264,1,90,6|8,0:0|0:0,0:0:0:0:
302,273,52449,2,0,L|291:378,2,90,6|14|6,0:0|0:0|0:0,0:0:0:0:
351,197,53553,1,10,0:0:0:0:
407,267,53921,6,0,P|437:211|386:114,1,180,4|2,0:0|0:0,0:0:0:0:
209,92,55393,2,0,P|161:100|105:127,1,90,2|8,0:0|0:0,0:0:0:0:
69,188,56130,2,0,P|84:233|90:285,1,90,2|8,0:0|0:0,0:0:0:0:
59,359,56866,1,2,0:0:0:0:
147,342,57234,6,0,P|230:319|256:320,1,90,4|2,0:0|0:0,0:0:0:0:
322,332,57970,1,4,0:0:0:0:
390,273,58338,2,0,P|404:180|400:119,2,135,4|4|4,0:3|0:3|0:3,0:0:0:0:
322,332,59811,1,4,0:3:0:0:
59,359,61283,6,0,P|55:297|59:240,1,90,4|8,0:0|0:0,0:0:0:0:
87,184,62019,2,0,P|173:194|248:180,1,135,2|8,0:0|0:0,0:0:0:0:
338,122,63123,1,8,0:0:0:0:
409,177,63492,2,0,P|415:230|410:285,1,90,2|8,0:0|0:0,0:0:0:0:
365,343,64228,6,0,L|267:334,1,90,4|8,0:0|0:0,0:0:0:0:
192,300,64964,2,0,P|232:234|233:173,1,135,2|8,0:0|0:0,0:0:0:0:
118,107,66068,1,8,0:0:0:0:
49,165,66436,2,0,L|61:256,1,90,2|8,0:0|0:0,0:0:0:0:
98,336,67173,6,0,P|184:313|281:333,1,180,4|2,0:0|0:0,0:0:0:0:
402,362,68461,2,0,P|411:300|404:266,1,90,4|2,0:0|0:0,0:0:0:0:
374,189,69197,2,0,P|311:180|278:187,1,90,2|2,0:0|0:0,0:0:0:0:
157,228,70117,6,0,P|145:169|151:92,1,135,4|4,0:0|0:0,0:0:0:0:
223,41,71038,1,4,0:3:0:0:
298,90,71406,2,0,P|386:100|454:90,1,135,4|8,0:0|0:0,0:0:0:0:
500,37,72326,1,4,0:3:0:0:
488,216,73062,6,0,P|440:208|396:209,1,90,4|12,0:0|0:0,0:0:0:0:
325,261,73798,2,0,P|250:274|167:261,1,135,2|4,0:0|0:0,0:0:0:0:
86,182,74903,1,8,0:0:0:0:
29,252,75271,2,0,P|22:298|31:357,1,90,2|8,0:0|0:0,0:0:0:0:
114,359,76007,6,0,L|214:348,1,90,4|8,0:0|0:0,0:0:0:0:
282,306,76743,2,0,P|264:220|268:158,1,135,2|8,0:0|0:0,0:0:0:0:
300,90,77663,2,0,L|397:99,1,90,2|2,0:0|0:0,0:0:0:0:
476,202,78584,1,8,0:0:0:0:
406,259,78952,6,0,P|330:237|245:257,1,135,4|2,0:0|0:0,0:0:0:0:
192,277,79872,2,0,P|168:221|169:137,1,135,2|4,0:0|0:0,0:0:0:0:
324,60,81160,2,0,P|338:108|338:159,1,90,0|10,0:0|0:0,0:0:0:0:
284,219,81896,6,0,P|210:240|111:230,1,135,4|4,0:0|0:0,0:0:0:0:
48,92,83185,2,0,P|122:71|221:81,1,135,4|8,0:0|0:0,0:0:0:0:
251,126,84105,2,0,P|319:134|357:128,1,90,8|8,0:3|0:0,0:0:0:0:
422,94,84841,6,0,P|442:182|401:268,1,180,8|8,0:0|0:0,0:0:0:0:
293,333,86130,2,0,P|226:323|150:333,1,135,4|8,0:0|0:0,0:0:0:0:
75,362,87050,2,0,P|60:316|61:260,1,90,8|2,0:3|0:0,0:0:0:0:
89,190,87786,6,0,L|239:204,1,135,14|8,0:0|0:0,0:0:0:0:
355,175,88890,2,0,L|413:161,1,45,8|8,0:0|0:0,0:0:0:0:
