osu file format v14

[General]
AudioFilename: audio.mp3
AudioLeadIn: 0
PreviewTime: 60736
Countdown: 0
SampleSet: Soft
StackLeniency: 0.7
Mode: 0
LetterboxInBreaks: 0
WidescreenStoryboard: 0

[Editor]
DistanceSpacing: 0.4
BeatDivisor: 4
GridSize: 4
TimelineZoom: 1

[Metadata]
Title:Happy*Material
TitleUnicode:ハッピー☆マテリアル
Artist:Takakura Yuka, Hirose Yuuki, Kayano Ai, Ogura Yui, Harada Sayaka, Kito Akari
ArtistUnicode:高倉有加, 広瀬ゆうき, 茅野愛衣, 小倉唯, 原田彩楓, 鬼頭明里
Creator:Yasaija 714
Version:Insane
Source:UQ HOLDER! ~魔法先生ネギま!2~
Tags:uq holder mahou sensei negima 2 opening Touta Konoe Kuroumaru Tokisaka Kirie Sakuraame Shinobu Yuuki Mizore Yukihiro Kibbleru
BeatmapID:1437802
BeatmapSetID:679940

[Difficulty]
HPDrainRate:5
CircleSize:4
OverallDifficulty:8
ApproachRate:9
SliderMultiplier:1.5
SliderTickRate:1

[Events]
//Background and Video events
0,0,"BG.jpg",0,0
//Break Periods
//Storyboard Layer 0 (Background)
//Storyboard Layer 1 (Fail)
//Storyboard Layer 2 (Pass)
//Storyboard Layer 3 (Foreground)
//Storyboard Sound Samples

[TimingPoints]
-557,368.098159509202,4,2,1,40,1,0
915,-111.111111111111,4,2,1,40,0,0
6436,-100,4,2,1,40,0,0
6804,-100,4,2,1,50,0,0
12326,-133.333333333333,4,2,2,50,0,0
12694,-100,4,2,1,60,0,0
24473,-100,4,2,1,50,0,0
36252,-100,4,2,1,55,0,0
48031,-100,4,2,1,60,0,0
52449,-76.9230769230769,4,2,1,60,0,0
52725,-76.9230769230769,4,2,1,5,0,0
52817,-76.9230769230769,4,2,1,60,0,0
53093,-76.9230769230769,4,2,1,5,0,0
53185,-76.9230769230769,4,2,1,60,0,0
53461,-76.9230769230769,4,2,1,5,0,0
53553,-76.9230769230769,4,2,1,60,0,0
53829,-76.9230769230769,4,2,1,5,0,0
53921,-100,4,2,1,60,0,0
56866,-133.333333333333,4,2,1,60,0,0
57234,-100,4,2,1,60,0,0
57602,-133.333333333333,4,2,1,60,0,0
57970,-100,4,2,1,60,0,0
60915,-133.333333333333,4,2,2,60,0,0
61283,-83.3333333333333,4,2,1,80,0,1
62571,-83.3333333333333,4,2,2,80,0,1
62663,-83.3333333333333,4,2,1,80,0,1
65516,-83.3333333333333,4,2,2,80,0,1
65608,-83.3333333333333,4,2,1,80,0,1
73062,-133.333333333333,4,2,1,80,0,1
73430,-83.3333333333333,4,2,1,80,0,1
77295,-83.3333333333333,4,2,2,80,0,1
77387,-83.3333333333333,4,2,1,80,0,1
84473,-66.6666666666667,4,2,2,80,0,1
84841,-100,4,2,1,80,0,0

[Colours]
Combo1 : 0,213,213
Combo2 : 255,255,117
Combo3 : 89,164,255
Combo4 : 255,153,104

[HitObjects]
204,332,915,6,0,P|196:288|200:247,1,67.4999979400635,2|0,0:0|0:0,0:0:0:0:
261,131,1283,2,0,P|234:157|213:190,1,67.4999979400635,2|0,0:0|0:0,0:0:0:0:
341,93,1651,2,0,P|378:86|417:87,1,67.4999979400635,2|0,0:0|0:0,0:0:0:0:
261,131,2019,1,2,0:0:0:0:
496,95,2203,6,0,P|505:170|488:256,1,134.999995880127,2|2,0:0|0:0,0:0:0:0:
404,287,2755,2,0,L|327:281,1,67.4999979400635,0|2,0:0|0:0,0:0:0:0:
252,197,3123,2,0,L|409:209,1,134.999995880127,2|0,0:0|0:0,0:0:0:0:
496,228,3676,1,2,0:0:0:0:
421,360,3860,6,0,P|344:368|262:343,1,134.999995880127,2|2,0:0|0:0,0:0:0:0:
220,267,4412,1,0,0:0:0:0:
220,267,4596,2,0,P|186:267|153:275,2,67.4999979400635,2|0|0,0:0|0:0|0:0,0:0:0:0:
96,215,5148,6,0,P|72:253|110:345,1,134.999995880127,2|2,0:0|0:0,0:0:0:0:
199,366,5700,1,0,0:0:0:0:
220,267,5884,2,0,B|246:192|185:192|230:110,1,134.999995880127,2|4,0:0|0:3,0:0:0:0:
262,45,6436,2,0,P|308:47|380:72,1,112.5,4|0,0:0|0:0,0:0:0:0:
413,104,6804,6,0,P|408:149|446:252,1,150,6|0,0:0|0:0,0:0:0:0:
484,356,7357,2,0,L|402:346,1,75,0|2,0:0|0:0,0:0:0:0:
300,243,7725,2,0,L|225:253,1,75,2|0,0:0|0:0,0:0:0:0:
139,329,8093,1,2,0:0:0:0:
289,170,8277,6,0,P|299:209|299:258,1,75,6|0,0:0|0:0,0:0:0:0:
191,157,8645,1,2,0:0:0:0:
297,66,8829,1,0,0:0:0:0:
386,183,9013,2,0,P|442:184|481:177,1,75,0|0,0:0|0:0,0:0:0:0:
460,181,9289,1,0,0:0:0:0:
460,181,9381,1,8,0:0:0:0:
500,94,9565,1,8,0:3:0:0:
502,261,9749,6,0,P|417:272|337:261,1,150,4|8,0:0|0:0,0:0:0:0:
249,195,10301,2,0,B|224:269|281:268|249:348,1,150,4|4,0:0|0:3,0:0:0:0:
251,340,10762,1,8,0:0:0:0:
251,340,10854,1,8,0:0:0:0:
111,362,11038,6,0,P|60:326|108:244,1,150,4|0,0:0|0:0,0:0:0:0:
177,184,11590,2,0,L|171:267,1,75,8|0,0:0|0:0,0:0:0:0:
85,172,11958,1,8,0:0:0:0:
91,142,12050,1,8,0:0:0:0:
97,112,12142,1,8,0:0:0:0:
102,82,12234,1,8,0:0:0:0:
107,52,12326,6,0,P|164:63|209:48,1,84.3750032186509,8|0,0:0|0:0,0:0:0:0:
272,26,12694,6,0,P|276:76|294:125,1,75,2|0,0:0|0:0,0:0:0:0:
402,195,13062,2,0,P|411:158|412:121,1,75,8|0,0:0|0:0,0:0:0:0:
296,198,13430,1,2,0:0:0:0:
360,318,13614,1,2,0:0:0:0:
296,198,13798,1,10,0:0:0:0:
481,168,13982,6,0,P|494:241|484:322,1,150,6|0,0:0|0:0,0:0:0:0:
370,359,14535,2,0,P|330:347|288:346,1,75,8|0,0:0|0:0,0:0:0:0:
169,371,14903,1,2,0:0:0:0:
213,244,15087,1,2,0:0:0:0:
85,281,15271,1,8,0:0:0:0:
129,114,15455,6,0,P|218:120|285:102,1,150,6|0,0:0|0:0,0:0:0:0:
395,77,16007,2,0,P|391:120|396:168,1,75,8|0,0:0|0:0,0:0:0:0:
393,151,16283,1,0,0:0:0:0:
393,151,16375,1,2,0:0:0:0:
490,254,16559,1,2,0:0:0:0:
330,244,16743,1,10,0:0:0:0:
495,179,16927,6,0,L|487:280,1,75,4|0,0:0|0:0,0:0:0:0:
335,318,17295,2,0,L|327:217,1,75,4|0,0:0|0:0,0:0:0:0:
167,196,17663,2,0,L|159:297,1,75,2|2,0:0|0:0,0:0:0:0:
100,357,18031,1,2,0:0:0:0:
273,347,18216,2,0,P|344:317|404:320,1,112.5,10|2,0:0|0:0,0:0:0:0:
470,324,18584,6,0,P|458:268|459:240,1,75,4|0,0:0|0:0,0:0:0:0:
481,129,18952,2,0,P|425:141|397:140,1,75,8|0,0:0|0:0,0:0:0:0:
281,114,19320,1,2,0:0:0:0:
328,243,19504,1,2,0:0:0:0:
281,114,19688,1,10,0:0:0:0:
237,284,19872,6,0,P|155:264|85:281,1,150,4|0,0:0|0:0,0:0:0:0:
21,366,20424,1,8,0:0:0:0:
9,230,20608,1,8,0:3:0:0:
9,230,20700,1,8,0:3:0:0:
9,230,20792,1,8,0:3:0:0:
92,277,20976,1,0,0:0:0:0:
16,128,21160,6,0,L|56:131,1,37.5,2|2,0:0|0:0,0:0:0:0:
169,68,21344,2,0,L|129:71,1,37.5,2|2,0:0|0:0,0:0:0:0:
248,138,21528,5,8,0:0:0:0:
292,18,21712,1,8,0:0:0:0:
129,193,22081,5,8,0:0:0:0:
173,313,22265,1,8,0:0:0:0:
290,139,22633,5,8,0:0:0:0:
334,19,22817,1,8,0:0:0:0:
89,205,23185,5,8,0:0:0:0:
133,325,23369,1,8,0:0:0:0:
333,141,23737,5,8,0:0:0:0:
174,98,23921,1,2,0:0:0:0:
249,193,24105,1,2,0:0:0:0:
313,38,24289,1,0,0:0:0:0:
313,38,24381,1,0,0:0:0:0:
313,38,24473,6,0,L|394:53,1,75,4|0,0:0|0:0,0:0:0:0:
476,120,24841,1,8,0:0:0:0:
476,120,25025,2,0,P|484:194|466:271,1,150,0|0,0:0|0:0,0:0:0:0:
378,336,25577,1,8,0:0:0:0:
318,194,25762,6,0,B|243:207|243:207|166:189,1,150,2|2,0:0|0:0,0:0:0:0:
82,128,26314,1,8,0:0:0:0:
125,251,26498,1,0,0:0:0:0:
235,135,26682,1,2,0:0:0:0:
237,153,26774,1,0,0:0:0:0:
239,171,26866,1,2,0:0:0:0:
241,189,26958,1,0,0:0:0:0:
243,207,27050,1,8,0:0:0:0:
227,315,27234,1,0,0:0:0:0:
318,194,27418,6,0,P|395:191|466:245,1,150,2|8,0:0|0:0,0:0:0:0:
472,384,27970,2,0,P|462:333|465:299,1,75,0|2,0:0|0:0,0:0:0:0:
311,271,28338,2,0,P|301:322|304:356,1,75,2|8,0:0|0:0,0:0:0:0:
391,190,28706,6,0,P|401:139|398:105,1,75,2|0,0:0|0:0,0:0:0:0:
246,47,29074,2,0,P|297:57|331:54,1,75,2|8,0:0|0:0,0:0:0:0:
160,110,29442,2,0,P|150:161|153:195,1,75,0|2,0:0|0:0,0:0:0:0:
201,272,29811,1,2,0:0:0:0:
87,259,29995,1,8,0:0:0:0:
165,361,30179,1,0,0:0:0:0:
257,200,30363,6,0,P|287:245|292:293,1,75,2|0,0:0|0:0,0:0:0:0:
165,361,30731,1,8,0:0:0:0:
270,350,30915,2,0,P|345:340|379:274,1,150,0|2,0:0|0:0,0:0:0:0:
333,152,31467,1,8,0:0:0:0:
478,280,31651,6,0,B|484:234|473:210|473:210|481:196|481:196|465:167|477:122,1,150,2|2,0:0|0:0,0:0:0:0:
482,34,32203,2,0,P|433:41|378:41,1,75,8|0,0:0|0:0,0:0:0:0:
270,39,32571,1,2,0:0:0:0:
272,57,32663,1,0,0:0:0:0:
274,75,32755,1,2,0:0:0:0:
276,93,32847,1,0,0:0:0:0:
278,111,32939,1,8,0:0:0:0:
228,216,33123,1,0,0:0:0:0:
149,94,33308,6,0,P|73:88|1:144,1,150,2|8,0:0|0:0,0:0:0:0:
44,254,33860,2,0,L|63:327,1,75,0|2,0:0|0:0,0:0:0:0:
209,288,34228,2,0,L|228:215,1,75,2|8,0:0|0:0,0:0:0:0:
146,349,34596,6,0,P|222:373|289:325,1,150,6|0,0:0|0:0,0:0:0:0:
279,340,35056,1,0,0:0:0:0:
279,340,35148,1,8,0:0:0:0:
366,240,35332,1,2,0:0:0:0:
418,336,35516,1,2,0:0:0:0:
418,336,35608,1,2,0:0:0:0:
418,336,35700,1,2,0:0:0:0:
478,217,35884,1,8,0:0:0:0:
358,153,36068,2,0,L|317:160,1,37.5,8|8,0:0|0:0,0:0:0:0:
239,183,36252,6,0,P|218:118|219:82,1,75,4|0,0:0|0:0,0:0:0:0:
141,25,36620,1,8,0:0:0:0:
141,25,36804,2,0,P|101:95|137:187,1,150,0|2,0:0|0:0,0:0:0:0:
155,266,37357,1,8,0:0:0:0:
239,183,37541,6,0,P|311:166|394:189,1,150,2|2,0:0|0:0,0:0:0:0:
446,312,38093,2,0,L|457:234,1,75,8|0,0:0|0:0,0:0:0:0:
309,268,38461,1,2,0:0:0:0:
313,286,38553,1,0,0:0:0:0:
317,304,38645,1,2,0:0:0:0:
320,322,38737,1,0,0:0:0:0:
323,340,38829,1,8,0:0:0:0:
216,363,39013,1,0,0:0:0:0:
239,183,39197,6,0,P|242:98|217:16,1,150,2|8,0:0|0:0,0:0:0:0:
92,24,39749,1,0,0:0:0:0:
25,113,39933,2,0,L|109:105,2,75,2|2|8,0:0|0:0|0:0,0:0:0:0:
151,180,40485,6,0,P|154:219|165:260,1,75,2|0,0:0|0:0,0:0:0:0:
319,255,40854,2,0,P|328:218|330:181,1,75,2|8,0:0|0:0,0:0:0:0:
211,79,41222,1,0,0:0:0:0:
254,168,41406,1,2,0:0:0:0:
360,63,41590,2,0,L|438:76,2,75,2|8|0,0:0|0:0|0:0,0:0:0:0:
472,153,42142,6,0,P|472:248|444:316,1,150,2|8,0:0|0:0,0:0:0:0:
351,363,42694,1,0,0:0:0:0:
351,363,42878,2,0,P|304:345|269:345,1,75,2|2,0:0|0:0,0:0:0:0:
168,374,43246,1,8,0:0:0:0:
250,265,43430,6,0,B|262:192|262:192|240:117,1,150,2|2,0:0|0:0,0:0:0:0:
97,177,43982,2,0,P|153:177|197:166,1,75,8|0,0:0|0:0,0:0:0:0:
307,76,44350,1,2,0:0:0:0:
313,93,44442,1,0,0:0:0:0:
319,110,44535,1,2,0:0:0:0:
325,127,44627,1,0,0:0:0:0:
330,144,44719,1,8,0:0:0:0:
250,265,44903,1,0,0:0:0:0:
422,253,45087,6,0,P|465:188|441:93,1,150,2|8,0:0|0:0,0:0:0:0:
378,31,45639,1,0,0:0:0:0:
378,31,45731,1,0,0:0:0:0:
378,31,45823,1,2,0:0:0:0:
373,167,46007,1,2,0:0:0:0:
259,87,46191,1,8,0:0:0:0:
308,249,46375,6,0,B|271:245|242:252|242:252|226:243|226:243|196:252|158:250,1,150,4|2,0:0|0:0,0:0:0:0:
37,160,46927,2,0,L|42:121,3,37.5,10|2|2|2,0:0|0:0|0:0|0:0,0:0:0:0:
117,61,47295,2,0,L|121:98,3,37.5,10|2|10|2,0:0|0:0|0:0|0:0,0:0:0:0:
183,172,47663,1,10,0:0:0:0:
198,161,47755,1,2,0:0:0:0:
215,153,47847,1,10,0:0:0:0:
233,149,47939,1,10,0:0:0:0:
251,148,48031,6,0,P|305:147|346:137,1,75,4|0,0:0|0:0,0:0:0:0:
285,244,48400,2,0,P|286:298|296:339,1,75,8|0,0:0|0:0,0:0:0:0:
189,278,48768,2,0,P|135:279|94:289,1,75,6|2,0:0|0:0,0:0:0:0:
155,182,49136,2,0,P|154:128|144:87,1,75,8|0,0:0|0:0,0:0:0:0:
24,66,49504,5,6,0:0:0:0:
7,185,49688,1,2,0:0:0:0:
150,107,49872,1,8,0:0:0:0:
167,226,50056,1,0,0:0:0:0:
24,66,50240,6,0,P|77:52|119:52,1,75,2|2,0:0|0:0,0:0:0:0:
228,158,50608,1,8,0:0:0:0:
245,39,50792,1,0,0:0:0:0:
146,153,50976,6,0,L|170:238,1,75,6|2,0:0|0:0,0:0:0:0:
345,225,51344,2,0,L|366:153,1,75,8|0,0:0|0:0,0:0:0:0:
166,225,51712,6,0,L|190:310,1,75,6|2,0:0|0:0,0:0:0:0:
366,153,52081,2,0,L|386:80,1,75,8|0,0:0|0:0,0:0:0:0:
170,46,52449,6,0,P|98:49|45:104,1,146.249993305207,6|0,0:0|0:0,0:0:0:0:
33,187,52817,2,0,B|63:258|-2:255|35:335,1,146.249993305207,14|0,0:0|0:0,0:0:0:0:
108,373,53185,2,0,B|154:356|186:316|186:316|210:327|245:325,1,146.249993305207,6|2,0:0|0:0,0:0:0:0:
320,344,53553,2,0,B|338:298|338:298|329:251|329:251|349:192,1,146.249993305207,10|0,0:0|0:0,0:0:0:0:
378,117,53921,6,0,P|290:132|228:120,1,150,4|8,0:0|0:0,0:0:0:0:
134,58,54473,1,0,0:0:0:0:
134,58,54657,2,0,L|148:140,1,75,2|2,0:0|0:0,0:0:0:0:
227,219,55025,2,0,P|171:214|117:230,1,112.5,8|0,0:0|0:0,0:0:0:0:
54,293,55393,6,0,P|33:260|33:205,1,75,2|0,0:0|0:0,0:0:0:0:
127,328,55762,2,0,P|160:307|215:307,1,75,8|0,0:0|0:0,0:0:0:0:
281,334,56130,1,2,0:0:0:0:
340,204,56314,1,2,0:0:0:0:
281,334,56498,2,0,P|277:266|232:220,1,112.5,8|0,0:0|0:0,0:0:0:0:
176,224,56866,6,0,L|165:149,1,56.2500021457673,2|2,0:0|0:0,0:0:0:0:
271,41,57234,2,0,L|255:152,1,112.5,4|0,0:0|0:0,0:0:0:0:
177,235,57602,6,0,L|168:165,1,56.2500021457673,2|2,0:0|0:0,0:0:0:0:
273,30,57970,2,0,L|257:141,1,112.5,4|0,0:0|0:0,0:0:0:0:
179,245,58338,5,4,0:3:0:0:
337,222,58522,2,0,L|348:158,2,37.5,2|2|8,0:0|0:0|0:0,0:0:0:0:
282,312,58890,1,4,0:3:0:0:
440,289,59074,2,0,L|451:225,2,37.5,2|2|8,0:0|0:0|0:0,0:0:0:0:
465,105,59442,5,4,0:3:0:0:
427,107,59535,1,2,0:0:0:0:
389,110,59627,1,2,0:0:0:0:
351,113,59719,1,2,0:0:0:0:
313,117,59811,1,4,0:3:0:0:
136,204,59995,1,2,0:0:0:0:
331,240,60179,1,2,0:0:0:0:
194,102,60363,1,2,0:0:0:0:
229,298,60731,5,2,0:0:0:0:
229,298,60823,1,2,0:0:0:0:
229,298,60915,2,0,L|217:385,1,84.3750032186509,8|0,0:0|0:0,0:0:0:0:
137,314,61283,6,0,P|92:304|40:308,1,89.9999972534181,4|0,0:0|0:0,0:0:0:0:
231,216,61651,2,0,P|276:206|328:210,1,89.9999972534181,8|0,0:0|0:0,0:0:0:0:
133,128,62019,1,2,0:0:0:0:
264,36,62203,1,2,0:0:0:0:
133,128,62387,1,10,0:0:0:0:
343,111,62571,6,0,B|379:202|303:202|342:301,1,179.999994506836,8|2,0:0|0:0,0:0:0:0:
466,357,63123,2,0,P|410:360|370:373,1,89.9999972534181,8|0,0:0|0:0,0:0:0:0:
238,384,63492,2,0,L|245:286,1,89.9999972534181,2|2,0:0|0:0,0:0:0:0:
324,185,63860,1,8,0:0:0:0:
336,285,64044,1,0,0:0:0:0:
201,190,64228,6,0,P|110:198|34:148,1,179.999994506836,4|8,0:0|0:0,0:0:0:0:
35,42,64780,1,0,0:0:0:0:
5,176,64964,2,0,L|12:269,2,89.9999972534181,2|2|10,0:0|0:0|0:0,0:0:0:0:
151,76,65516,6,0,B|274:60|274:60|247:81|230:104,1,179.999994506836,8|2,0:0|0:0,0:0:0:0:
201,190,66068,2,0,P|200:238|226:315,1,89.9999972534181,8|0,0:0|0:0,0:0:0:0:
317,355,66436,1,2,0:0:0:0:
348,217,66620,1,2,0:0:0:0:
209,278,66804,1,8,0:0:0:0:
352,330,66989,1,0,0:0:0:0:
154,365,67173,6,0,P|112:287|149:195,1,179.999994506836,4|8,0:0|0:0,0:0:0:0:
234,136,67725,1,0,0:0:0:0:
234,136,67909,2,0,P|286:138|339:129,2,89.9999972534181,2|2|10,0:0|0:0|0:0,0:0:0:0:
73,33,68461,6,0,L|85:131,1,89.9999972534181,4|0,0:0|0:0,0:0:0:0:
234,136,68829,2,0,L|222:234,1,89.9999972534181,2|8,0:0|0:0,0:0:0:0:
74,244,69197,2,0,L|86:342,1,89.9999972534181,2|0,0:0|0:0,0:0:0:0:
234,354,69565,1,2,0:0:0:0:
296,261,69749,1,8,0:0:0:0:
234,354,69933,1,0,0:0:0:0:
162,186,70117,6,0,B|252:224|250:146|354:186,1,179.999994506836,4|8,0:0|0:0,0:0:0:0:
470,255,70669,2,0,B|380:217|381:295|278:255,1,179.999994506836,4|4,0:0|0:3,0:0:0:0:
295,260,71130,1,2,0:0:0:0:
295,260,71222,1,2,0:0:0:0:
207,106,71406,6,0,P|114:112|70:206,1,179.999994506836,4|4,0:0|0:0,0:0:0:0:
147,331,71958,1,8,0:0:0:0:
162,186,72142,1,8,0:0:0:0:
162,186,72234,1,8,0:0:0:0:
162,186,72326,1,4,0:3:0:0:
40,336,72510,6,0,L|49:292,1,44.999998626709,8|8,0:3|0:3,0:0:0:0:
83,223,72694,6,0,L|92:268,1,44.999998626709,8|8,0:3|0:3,0:0:0:0:
146,330,72878,6,0,L|138:286,1,44.999998626709,8|8,0:3|0:3,0:0:0:0:
195,180,73062,6,0,L|183:264,1,84.3750032186509,4|0,0:0|0:0,0:0:0:0:
288,188,73430,6,0,P|270:146|261:103,1,89.9999972534181,12|0,0:0|0:0,0:0:0:0:
408,251,73798,1,2,0:0:0:0:
433,118,73982,1,2,0:0:0:0:
408,251,74166,1,8,0:0:0:0:
336,62,74350,6,0,P|281:26|172:96,1,179.999994506836,4|2,0:0|0:0,0:0:0:0:
105,175,74903,2,0,P|65:146|38:90,1,89.9999972534181,8|0,0:0|0:0,0:0:0:0:
207,170,75271,5,2,0:0:0:0:
88,274,75455,1,2,0:0:0:0:
263,316,75639,1,8,0:0:0:0:
207,170,75823,1,0,0:0:0:0:
8,224,76007,6,0,P|1:312|78:368,1,179.999994506836,4|8,0:0|0:0,0:0:0:0:
179,317,76559,1,0,0:0:0:0:
88,274,76743,2,0,P|84:214|91:177,2,89.9999972534181,2|2|8,0:0|0:0|0:0,0:0:0:0:
189,128,77295,6,0,B|236:126|278:142|278:142|316:122|367:121,1,179.999994506836,8|2,0:0|0:0,0:0:0:0:
509,200,77847,2,0,P|466:188|421:186,1,89.9999972534181,8|2,0:0|0:0,0:0:0:0:
306,269,78216,1,0,0:0:0:0:
413,361,78400,1,2,0:0:0:0:
306,269,78584,2,0,P|263:281|204:283,1,89.9999972534181,8|0,0:0|0:0,0:0:0:0:
18,235,78952,6,0,P|120:231|199:198,1,179.999994506836,4|8,0:0|0:0,0:0:0:0:
234,82,79504,2,0,B|258:117|301:140|301:140|291:198|304:238,1,179.999994506836,2|2,0:0|0:0,0:0:0:0:
379,360,80056,2,0,P|367:316|370:267,1,89.9999972534181,8|0,0:0|0:0,0:0:0:0:
446,152,80424,5,4,0:0:0:0:
490,305,80608,1,2,0:0:0:0:
368,272,80792,2,0,P|318:270|272:280,1,89.9999972534181,8|2,0:0|0:0,0:0:0:0:
197,341,81160,2,0,P|147:343|101:333,1,89.9999972534181,0|2,0:0|0:0,0:0:0:0:
38,248,81528,1,10,0:0:0:0:
156,154,81712,1,2,0:0:0:0:
156,154,81804,1,2,0:0:0:0:
156,154,81896,6,0,P|245:165|338:132,1,179.999994506836,4|8,0:0|0:0,0:0:0:0:
412,83,82449,2,0,B|434:116|437:168|398:211|398:211|429:208|478:223,1,179.999994506836,4|0,0:0|0:0,0:0:0:0:
438,213,82909,1,0,0:0:0:0:
438,213,83001,1,0,0:0:0:0:
337,314,83185,6,0,B|282:324|282:324|217:314|217:314|159:325,1,179.999994506836,4|2,0:0|0:0,0:0:0:0:
37,374,83737,1,8,0:0:0:0:
66,213,83921,1,2,0:0:0:0:
249,320,84105,1,8,0:3:0:0:
250,302,84197,1,8,0:3:0:0:
251,284,84289,1,8,0:3:0:0:
252,266,84381,1,8,0:3:0:0:
252,248,84473,6,0,P|296:168|372:184,1,168.750006437302,8|0,0:0|0:0,0:0:0:0:
409,262,84841,6,0,P|409:305|422:342,1,75,8|0,0:0|0:0,0:0:0:0:
475,201,85209,2,0,P|475:158|462:121,1,75,8|0,0:0|0:0,0:0:0:0:
327,74,85577,1,8,0:0:0:0:
329,220,85762,1,2,0:0:0:0:
327,74,85946,1,8,0:0:0:0:
207,231,86130,6,0,P|127:232|64:190,1,150,4|2,0:0|0:0,0:0:0:0:
27,86,86682,1,8,0:0:0:0:
174,63,86866,1,8,0:3:0:0:
174,63,86958,1,8,0:3:0:0:
174,63,87050,1,8,0:3:0:0:
64,18,87234,1,0,0:0:0:0:
251,34,87418,6,0,L|255:75,1,37.5,2|2,0:0|0:0,0:0:0:0:
326,182,87602,2,0,L|330:141,1,37.5,2|2,0:0|0:0,0:0:0:0:
406,36,87786,5,14,0:0:0:0:
441,183,87970,1,8,0:0:0:0:
170,160,88338,5,8,0:0:0:0:
135,307,88522,1,8,0:0:0:0:
441,183,88890,5,8,0:0:0:0:
476,330,89074,1,8,0:0:0:0:
