osu file format v14

[General]
AudioFilename: audio.mp3
AudioLeadIn: 0
PreviewTime: 60736
Countdown: 0
SampleSet: Soft
StackLeniency: 0.7
Mode: 0
LetterboxInBreaks: 0
WidescreenStoryboard: 0

[Editor]
DistanceSpacing: 1.8
BeatDivisor: 4
GridSize: 4
TimelineZoom: 1

[Metadata]
Title:Happy*Material
TitleUnicode:ハッピー☆マテリアル
Artist:Takakura Yuka, Hirose Yuuki, Kayano Ai, Ogura Yui, Harada Sayaka, Kito Akari
ArtistUnicode:高倉有加, 広瀬ゆうき, 茅野愛衣, 小倉唯, 原田彩楓, 鬼頭明里
Creator:Yasaija 714
Version:Hard
Source:UQ HOLDER! ~魔法先生ネギま!2~
Tags:uq holder mahou sensei negima 2 opening Touta Konoe Kuroumaru Tokisaka Kirie Sakuraame Shinobu Yuuki Mizore Yukihiro Kibbleru
BeatmapID:1437801
BeatmapSetID:679940

[Difficulty]
HPDrainRate:5
CircleSize:3.7
OverallDifficulty:6
ApproachRate:8
SliderMultiplier:1.3
SliderTickRate:1

[Events]
//Background and Video events
0,0,"BG.jpg",0,0
//Break Periods
//Storyboard Layer 0 (Background)
//Storyboard Layer 1 (Fail)
//Storyboard Layer 2 (Pass)
//Storyboard Layer 3 (Foreground)
//Storyboard Sound Samples

[TimingPoints]
-557,368.098159509202,4,2,1,40,1,0
915,-111.111111111111,4,2,1,40,0,0
6804,-100,4,2,1,50,0,0
12326,-100,4,2,2,50,0,0
12694,-100,4,2,1,60,0,0
24473,-100,4,2,1,50,0,0
36252,-100,4,2,1,55,0,0
48031,-100,4,2,1,60,0,0
60915,-100,4,2,2,60,0,0
61283,-90.9090909090909,4,2,1,80,0,1
62571,-90.9090909090909,4,2,2,80,0,1
62663,-90.9090909090909,4,2,1,80,0,1
65516,-90.9090909090909,4,2,2,80,0,1
65608,-90.9090909090909,4,2,1,80,0,1
77295,-90.9090909090909,4,2,2,80,0,1
77387,-90.9090909090909,4,2,1,80,0,1
84473,-90.9090909090909,4,2,2,80,0,1
84841,-100,4,2,1,80,0,0

[Colours]
Combo1 : 0,213,213
Combo2 : 255,255,117
Combo3 : 89,164,255
Combo4 : 255,153,104

[HitObjects]
104,140,915,6,0,L|121:213,1,58.4999982147217,2|0,0:0|0:0,0:0:0:0:
221,260,1283,2,0,L|204:196,1,58.4999982147217,2|0,0:0|0:0,0:0:0:0:
275,101,1651,2,0,L|292:173,1,58.4999982147217,2|0,0:0|0:0,0:0:0:0:
400,201,2019,1,2,0:0:0:0:
400,201,2203,6,0,P|358:260|293:277,1,116.999996429443,2|2,0:0|0:0,0:0:0:0:
217,262,2755,2,0,P|176:272|146:297,1,58.4999982147217,0|2,0:0|0:0,0:0:0:0:
106,364,3123,2,0,P|76:329|70:242,1,116.999996429443,2|0,0:0|0:0,0:0:0:0:
104,135,3676,1,2,0:0:0:0:
104,135,3860,6,0,P|169:139|217:113,1,116.999996429443,2|2,0:0|0:0,0:0:0:0:
411,53,4596,2,0,P|407:84|409:125,1,58.4999982147217,2|0,0:0|0:0,0:0:0:0:
455,202,4964,1,0,0:0:0:0:
412,291,5148,6,0,P|347:287|294:313,1,116.999996429443,2|2,0:0|0:0,0:0:0:0:
205,369,5700,1,0,0:0:0:0:
205,369,5884,2,0,P|182:309|185:248,1,116.999996429443,2|4,0:0|0:3,0:0:0:0:
229,156,6436,1,4,0:0:0:0:
25,176,6804,6,0,B|89:140|154:176,1,130,6|0,0:0|0:0,0:0:0:0:
264,231,7357,2,0,P|310:230|334:222,1,65,0|2,0:0|0:0,0:0:0:0:
402,134,7725,2,0,P|356:135|332:143,1,65,2|0,0:0|0:0,0:0:0:0:
264,231,8093,1,2,0:0:0:0:
370,281,8277,6,0,P|371:315|366:353,2,65,6|0|2,0:0|0:0|0:0,0:0:0:0:
214,158,9013,2,0,L|149:171,1,65,0|0,0:0|0:0,0:0:0:0:
117,197,9289,1,0,0:0:0:0:
117,197,9381,2,0,P|95:140|99:97,1,97.5,8|0,0:0|0:0,0:0:0:0:
130,56,9749,6,0,P|201:64|262:52,1,130,4|8,0:0|0:0,0:0:0:0:
334,142,10301,2,0,P|326:213|338:274,1,130,4|4,0:0|0:3,0:0:0:0:
345,363,10854,1,8,0:0:0:0:
255,351,11038,2,0,P|191:340|126:348,1,130,4|0,0:0|0:0,0:0:0:0:
40,271,11590,2,0,P|46:236|45:191,1,65,8|0,0:0|0:0,0:0:0:0:
116,112,11958,2,0,P|122:147|121:192,2,65,8|8|8,0:0|0:0|0:0,0:0:0:0:
194,284,12694,6,0,L|265:278,1,65,2|0,0:0|0:0,0:0:0:0:
329,210,13062,2,0,L|400:216,1,65,8|0,0:0|0:0,0:0:0:0:
474,273,13430,2,0,P|476:312|472:347,2,65,2|2|10,0:0|0:0|0:0,0:0:0:0:
465,162,13982,6,0,P|418:129|333:153,1,130,6|0,0:0|0:0,0:0:0:0:
281,212,14535,2,0,L|293:281,1,65,8|0,0:0|0:0,0:0:0:0:
212,339,14903,2,0,L|200:274,2,65,2|2|8,0:0|0:0|0:0,0:0:0:0:
108,377,15455,6,0,P|36:368|2:315,1,130,6|0,0:0|0:0,0:0:0:0:
104,215,16007,2,0,P|107:247|93:276,1,65,8|0,0:0|0:0,0:0:0:0:
17,164,16375,2,0,P|2:122|13:90,2,65,2|2|10,0:0|0:0|0:0,0:0:0:0:
114,110,16927,5,4,0:0:0:0:
227,269,17295,1,4,0:0:0:0:
342,113,17663,1,2,0:0:0:0:
227,269,18031,1,2,0:0:0:0:
227,269,18216,2,0,P|217:231|223:167,1,97.5,10|2,0:0|0:0,0:0:0:0:
248,122,18584,6,0,L|323:131,1,65,4|0,0:0|0:0,0:0:0:0:
396,216,18952,2,0,L|331:208,1,65,8|0,0:0|0:0,0:0:0:0:
227,269,19320,2,0,L|302:278,2,65,2|2|10,0:0|0:0|0:0,0:0:0:0:
114,334,19872,6,0,P|90:266|120:201,1,130,4|0,0:0|0:0,0:0:0:0:
186,146,20424,1,8,0:0:0:0:
101,85,20608,2,0,L|65:93,2,32.5,8|8|8,0:3|0:3|0:3,0:0:0:0:
192,33,20976,1,0,0:0:0:0:
186,146,21160,2,0,L|222:138,3,32.5,2|2|2|2,0:0|0:0|0:0|0:0,0:0:0:0:
277,127,21528,6,0,L|272:203,1,65,8|8,0:0|0:0,0:0:0:0:
436,307,22081,2,0,L|431:242,1,65,8|8,0:0|0:0,0:0:0:0:
212,287,22633,2,0,L|207:351,1,65,8|8,0:0|0:0,0:0:0:0:
441,371,23185,2,0,L|436:307,1,65,8|8,0:0|0:0,0:0:0:0:
268,162,23737,5,8,0:0:0:0:
327,262,23921,1,2,0:0:0:0:
390,159,24105,1,2,0:0:0:0:
276,170,24289,1,0,0:0:0:0:
276,170,24381,1,0,0:0:0:0:
276,170,24473,6,0,P|216:166|134:194,1,130,4|8,0:0|0:0,0:0:0:0:
60,237,25025,2,0,P|36:170|39:109,1,130,0|0,0:0|0:0,0:0:0:0:
109,36,25577,1,8,0:0:0:0:
228,93,25762,6,0,L|222:225,1,130,2|2,0:0|0:0,0:0:0:0:
279,310,26314,1,8,0:0:0:0:
354,236,26498,2,0,L|359:106,1,130,0|2,0:0|0:0,0:0:0:0:
228,93,27050,2,0,L|225:165,1,65,8|0,0:0|0:0,0:0:0:0:
133,222,27418,6,0,P|93:221|6:261,1,130,2|8,0:0|0:0,0:0:0:0:
42,359,27970,2,0,P|82:360|169:320,1,130,0|2,0:0|0:0,0:0:0:0:
225,237,28522,1,8,0:0:0:0:
310,334,28706,6,0,P|348:341|386:332,1,65,2|0,0:0|0:0,0:0:0:0:
447,250,29074,2,0,P|409:243|371:252,1,65,2|8,0:0|0:0,0:0:0:0:
320,153,29442,2,0,P|358:160|396:151,1,65,0|2,0:0|0:0,0:0:0:0:
461,70,29811,1,2,0:0:0:0:
355,32,29995,2,0,P|317:25|279:34,1,65,8|0,0:0|0:0,0:0:0:0:
216,96,30363,6,0,P|228:160|224:236,1,130,2|8,0:0|0:0,0:0:0:0:
128,200,30915,2,0,P|116:263|118:328,1,130,0|2,0:0|0:0,0:0:0:0:
218,313,31467,1,8,0:0:0:0:
322,365,31651,6,0,L|315:300,1,65,2|0,0:0|0:0,0:0:0:0:
388,226,32019,1,2,0:0:0:0:
388,226,32203,1,8,0:0:0:0:
294,170,32387,2,0,P|228:180|149:166,1,130,0|2,0:0|0:0,0:0:0:0:
81,115,32939,2,0,P|66:151|67:193,1,65,8|0,0:0|0:0,0:0:0:0:
127,287,33308,6,0,P|193:277|272:291,1,130,2|8,0:0|0:0,0:0:0:0:
345,338,33860,2,0,P|357:303|358:270,1,65,0|2,0:0|0:0,0:0:0:0:
287,203,34228,2,0,P|289:170|300:140,1,65,2|8,0:0|0:0,0:0:0:0:
376,75,34596,5,6,0:0:0:0:
157,84,34964,2,0,L|169:135,2,32.5,0|0|8,0:0|0:0|0:0,0:0:0:0:
66,45,35332,1,2,0:0:0:0:
21,133,35516,2,0,L|41:219,1,65,2|2,0:0|0:0,0:0:0:0:
136,256,35884,1,8,0:0:0:0:
232,184,36068,1,8,0:0:0:0:
232,184,36160,1,8,0:0:0:0:
232,184,36252,6,0,P|272:190|322:184,1,65,4|0,0:0|0:0,0:0:0:0:
397,172,36620,1,8,0:0:0:0:
397,172,36804,2,0,P|414:240|398:316,1,130,0|2,0:0|0:0,0:0:0:0:
322,363,37357,1,8,0:0:0:0:
303,241,37541,6,0,P|237:240|149:267,1,130,2|2,0:0|0:0,0:0:0:0:
91,307,38093,2,0,L|111:372,1,65,8|0,0:0|0:0,0:0:0:0:
0,304,38461,2,0,L|19:241,2,65,2|2|8,0:0|0:0|0:0,0:0:0:0:
110,369,39013,1,0,0:0:0:0:
175,255,39197,6,0,P|238:239|303:241,1,130,2|8,0:0|0:0,0:0:0:0:
383,180,39749,2,0,P|381:115|397:52,1,130,0|2,0:0|0:0,0:0:0:0:
397,52,40301,1,8,0:0:0:0:
294,30,40485,6,0,P|262:30|226:36,1,65,2|0,0:0|0:0,0:0:0:0:
158,108,40854,2,0,P|190:108|226:114,1,65,2|8,0:0|0:0,0:0:0:0:
292,187,41222,2,0,P|260:187|224:193,1,65,2|0,0:0|0:0,0:0:0:0:
159,261,41590,2,0,L|166:334,2,65,2|8|0,0:0|0:0|0:0,0:0:0:0:
92,182,42142,6,0,P|62:123|74:52,1,130,2|8,0:0|0:0,0:0:0:0:
158,108,42694,2,0,P|190:108|301:134,1,130,0|2,0:0|0:0,0:0:0:0:
354,205,43246,1,8,0:0:0:0:
429,136,43430,6,0,P|456:201|434:268,1,130,2|2,0:0|0:0,0:0:0:0:
358,310,43982,1,8,0:0:0:0:
358,310,44166,2,0,B|269:315|269:315|229:286,1,130,0|2,0:0|0:0,0:0:0:0:
162,225,44719,2,0,P|118:217|85:220,1,65,8|0,0:0|0:0,0:0:0:0:
22,301,45087,6,0,P|77:329|165:306,1,130,2|8,0:0|0:0,0:0:0:0:
235,291,45639,2,0,P|229:222|260:164,1,130,0|2,0:0|0:0,0:0:0:0:
341,120,46191,1,8,0:0:0:0:
217,74,46375,5,4,0:0:0:0:
422,56,46743,1,2,0:0:0:0:
341,120,46927,2,0,P|345:198|373:264,1,130,10|10,0:0|0:0,0:0:0:0:
429,334,47479,2,0,L|501:338,2,65,10|10|10,0:0|0:0|0:0,0:0:0:0:
303,320,48031,6,0,P|246:308|162:323,1,130,4|8,0:0|0:0,0:0:0:0:
85,365,48584,1,0,0:0:0:0:
85,365,48768,2,0,B|62:305|62:305|81:232,1,130,6|8,0:0|0:0,0:0:0:0:
110,148,49320,1,0,0:0:0:0:
186,219,49504,6,0,P|218:221|258:213,1,65,6|2,0:0|0:0,0:0:0:0:
308,133,49872,2,0,P|340:131|380:139,1,65,8|0,0:0|0:0,0:0:0:0:
445,208,50240,2,0,L|437:343,1,130,2|8,0:0|0:0,0:0:0:0:
437,337,50792,1,0,0:0:0:0:
350,280,50976,6,0,P|284:283|216:245,1,130,6|8,0:0|0:0,0:0:0:0:
185,158,51528,1,0,0:0:0:0:
185,158,51712,2,0,L|114:167,1,65,6|2,0:0|0:0,0:0:0:0:
59,254,52081,2,0,L|123:262,1,65,8|0,0:0|0:0,0:0:0:0:
227,255,52449,6,0,P|285:227|349:230,2,130,6|14|6,0:0|0:0|0:0,0:0:0:0:
310,357,53553,1,10,0:0:0:0:
440,211,53921,6,0,P|432:144|413:67,1,130,4|8,0:0|0:0,0:0:0:0:
319,50,54473,1,0,0:0:0:0:
319,50,54657,2,0,P|241:61|182:63,1,130,2|8,0:0|0:0,0:0:0:0:
21,172,55393,6,0,P|63:171|98:177,1,65,2|0,0:0|0:0,0:0:0:0:
163,238,55762,2,0,P|205:239|240:233,1,65,8|0,0:0|0:0,0:0:0:0:
314,183,56130,2,0,L|323:118,1,65,2|2,0:0|0:0,0:0:0:0:
415,162,56498,2,0,L|424:227,1,65,8|0,0:0|0:0,0:0:0:0:
418,331,56866,5,2,0:0:0:0:
418,331,57050,1,2,0:0:0:0:
306,310,57234,2,0,P|299:238|316:177,1,130,4|2,0:0|0:0,0:0:0:0:
313,182,57786,1,2,0:0:0:0:
221,121,57970,2,0,B|108:134,1,97.5,4|0,0:0|0:0,0:0:0:0:
77,158,58338,6,0,P|78:194|84:232,1,65,4|2,0:3|0:0,0:0:0:0:
140,302,58706,1,8,0:0:0:0:
140,302,58890,2,0,P|208:298|280:276,1,130,4|8,0:3|0:0,0:0:0:0:
332,206,59442,2,0,P|376:206|426:218,1,65,4|2,0:3|0:0,0:0:0:0:
478,270,59811,5,4,0:3:0:0:
478,270,59995,1,2,0:0:0:0:
494,157,60179,1,2,0:0:0:0:
494,157,60363,1,2,0:0:0:0:
347,109,60731,5,2,0:0:0:0:
347,109,60823,1,2,0:0:0:0:
347,109,60915,2,0,L|330:213,1,97.5,8|0,0:0|0:0,0:0:0:0:
299,254,61283,6,0,P|241:246|205:253,1,71.5000021820069,4|0,0:0|0:0,0:0:0:0:
116,287,61651,2,0,P|69:322|48:352,1,71.5000021820069,8|0,0:0|0:0,0:0:0:0:
169,361,62019,2,0,L|243:365,2,71.5000021820069,2|2|10,0:0|0:0|0:0,0:0:0:0:
228,247,62571,6,0,P|213:184|222:92,1,143.000004364014,8|2,0:0|0:0,0:0:0:0:
306,39,63123,2,0,P|349:42|394:53,1,71.5000021820069,8|0,0:0|0:0,0:0:0:0:
470,103,63492,1,2,0:0:0:0:
470,103,63676,1,2,0:0:0:0:
395,180,63860,1,8,0:0:0:0:
395,180,64044,1,0,0:0:0:0:
482,272,64228,6,0,P|398:261|330:274,1,143.000004364014,4|8,0:0|0:0,0:0:0:0:
252,335,64780,1,0,0:0:0:0:
252,335,64964,2,0,L|237:264,2,71.5000021820069,2|2|10,0:0|0:0|0:0,0:0:0:0:
148,249,65516,6,0,P|198:183|275:179,1,143.000004364014,8|2,0:0|0:0,0:0:0:0:
341,270,66068,2,0,L|356:178,1,71.5000021820069,8|0,0:0|0:0,0:0:0:0:
410,106,66436,1,2,0:0:0:0:
410,106,66620,1,2,0:0:0:0:
482,194,66804,1,8,0:0:0:0:
482,194,66988,1,0,0:0:0:0:
352,199,67173,6,0,P|275:205|210:167,1,143.000004364014,4|8,0:0|0:0,0:0:0:0:
142,96,67725,1,0,0:0:0:0:
142,96,67909,2,0,P|102:96|54:108,2,71.5000021820069,2|2|10,0:0|0:0|0:0,0:0:0:0:
255,30,68461,6,0,L|248:102,1,71.5000021820069,4|0,0:0|0:0,0:0:0:0:
176,183,68829,2,0,L|183:255,1,71.5000021820069,2|8,0:0|0:0,0:0:0:0:
252,340,69197,2,0,P|291:318|319:313,1,71.5000021820069,2|0,0:0|0:0,0:0:0:0:
421,348,69565,2,0,P|455:339|485:321,1,71.5000021820069,2|8,0:0|0:0,0:0:0:0:
495,213,69933,1,0,0:0:0:0:
495,213,70117,6,0,P|476:134|478:53,1,143.000004364014,4|8,0:0|0:0,0:0:0:0:
374,34,70669,2,0,P|299:46|214:42,1,143.000004364014,4|4,0:0|0:3,0:0:0:0:
232,44,71130,1,2,0:0:0:0:
232,44,71222,1,2,0:0:0:0:
121,94,71406,6,0,B|126:128|116:157|116:157|124:170|124:170|114:199|122:252,1,143.000004364014,4|4,0:0|0:0,0:0:0:0:
177,324,71958,1,8,0:0:0:0:
177,324,72142,2,0,L|229:321,2,35.7500010910034,8|8|4,0:0|0:0|0:3,0:0:0:0:
62,291,72510,5,8,3:0:0:0:
62,291,72602,1,8,3:0:0:0:
62,291,72694,2,0,L|10:288,2,35.7500010910034,8|8|8,0:3|0:3|0:3,0:0:0:0:
158,226,73062,6,0,L|245:219,1,71.5000021820069,4|0,0:0|0:0,0:0:0:0:
348,210,73430,2,0,L|310:288,1,71.5000021820069,12|0,0:0|0:0,0:0:0:0:
266,382,73798,2,0,L|217:310,2,71.5000021820069,2|2|8,0:0|0:0|0:0,0:0:0:0:
397,366,74350,6,0,P|470:333|492:265,1,143.000004364014,4|2,0:0|0:0,0:0:0:0:
439,175,74903,2,0,P|392:183|352:178,1,71.5000021820069,8|0,0:0|0:0,0:0:0:0:
274,126,75271,1,2,0:0:0:0:
274,126,75455,1,2,0:0:0:0:
222,226,75639,1,8,0:0:0:0:
222,226,75823,1,0,0:0:0:0:
153,126,76007,6,0,P|84:131|28:185,1,143.000004364014,4|8,0:0|0:0,0:0:0:0:
11,286,76559,1,0,0:0:0:0:
10,286,76743,2,0,P|46:282|82:283,2,71.5000021820069,2|2|8,0:0|0:0|0:0,0:0:0:0:
110,364,77295,6,0,P|159:320|152:236,1,143.000004364014,8|2,0:0|0:0,0:0:0:0:
98,156,77847,1,8,0:0:0:0:
98,156,78031,1,2,0:0:0:0:
183,70,78216,2,0,L|188:146,1,71.5000021820069,0|2,0:0|0:0,0:0:0:0:
289,189,78584,2,0,L|293:117,1,71.5000021820069,8|0,0:0|0:0,0:0:0:0:
369,29,78952,6,0,P|447:35|477:112,1,143.000004364014,4|8,0:0|0:0,0:0:0:0:
395,177,79504,2,0,L|399:249,1,71.5000021820069,2|0,0:0|0:0,0:0:0:0:
352,349,79872,1,2,0:0:0:0:
285,260,80056,1,8,0:0:0:0:
233,363,80240,1,0,0:0:0:0:
285,260,80424,6,0,L|289:188,1,71.5000021820069,4|2,0:0|0:0,0:0:0:0:
232,96,80792,2,0,P|193:108|158:110,1,71.5000021820069,8|2,0:0|0:0,0:0:0:0:
60,67,81160,2,0,L|64:139,1,71.5000021820069,0|2,0:0|0:0,0:0:0:0:
120,237,81528,1,10,0:0:0:0:
74,337,81712,1,2,0:0:0:0:
202,281,81896,6,0,P|274:258|342:276,1,143.000004364014,4|8,0:0|0:0,0:0:0:0:
448,336,82449,2,0,B|471:268|471:268|447:199,1,143.000004364014,4|0,0:0|0:0,0:0:0:0:
402,116,83001,1,0,0:0:0:0:
311,49,83185,6,0,B|288:117|288:117|312:186,1,143.000004364014,4|2,0:0|0:0,0:0:0:0:
376,271,83737,2,0,P|338:266|299:271,1,71.5000021820069,8|2,0:0|0:0,0:0:0:0:
216,330,84105,2,0,P|178:334|139:330,2,71.5000021820069,8|8|8,0:3|0:3|0:0,0:0:0:0:
40,236,84841,6,0,L|36:164,1,65,8|0,0:0|0:0,0:0:0:0:
124,106,85209,2,0,L|127:170,1,65,8|0,0:0|0:0,0:0:0:0:
188,259,85577,2,0,P|217:246|249:241,2,65,8|2|8,0:0|0:0|0:0,0:0:0:0:
289,320,86130,6,0,P|338:241|324:197,1,130,4|2,0:0|0:0,0:0:0:0:
249,142,86682,1,8,0:0:0:0:
336,80,86866,1,8,0:3:0:0:
336,80,86958,1,8,0:3:0:0:
336,80,87050,1,8,0:3:0:0:
249,142,87234,1,0,0:0:0:0:
233,34,87418,2,0,L|200:29,3,32.5,2|2|2|2,0:0|0:0|0:0|0:0,0:0:0:0:
145,29,87786,6,0,L|152:105,1,65,14|8,0:0|0:0,0:0:0:0:
350,165,88338,2,0,L|343:241,1,65,8|8,0:0|0:0,0:0:0:0:
137,279,88890,2,0,L|144:355,1,65,8|8,0:0|0:0,0:0:0:0:
