osu file format v14

[General]
AudioFilename: STARGAZER(Opening).mp3
AudioLeadIn: 0
PreviewTime: 98797
Countdown: 0
SampleSet: Soft
StackLeniency: 0.7
Mode: 3
LetterboxInBreaks: 0
SpecialStyle: 0
WidescreenStoryboard: 0

[Editor]
DistanceSpacing: 2
BeatDivisor: 2
GridSize: 16
TimelineZoom: 1.6

[Metadata]
Title:STARGAZER
TitleUnicode:STARGAZER
Artist:Takahiro Eguchi
ArtistUnicode:Takahiro Eguchi
Creator:Elementaires
Version:EZ
Source:SUPERBEAT: XONiC
Tags:opening playstation vita ps steins
BeatmapID:937304
BeatmapSetID:434624

[Difficulty]
HPDrainRate:7
CircleSize:4
OverallDifficulty:7
ApproachRate:5
SliderMultiplier:1.4
SliderTickRate:1

[Events]
//Background and Video events
0,0,"Xonic.jpg",0,0
//Break Periods
//Storyboard Layer 0 (Background)
//Storyboard Layer 1 (Fail)
//Storyboard Layer 2 (Pass)
//Storyboard Layer 3 (Foreground)
//Storyboard Sound Samples

[TimingPoints]
265,333.333333333333,4,2,1,45,1,0
21598,-100,4,2,1,45,0,0
26931,-100,4,2,1,45,0,1
58931,-100,4,2,3,45,0,0
69598,-100,4,2,1,45,0,0
88264,-100,4,2,3,45,0,0
98931,-100,4,2,1,45,0,1
120264,-100,4,2,3,45,0,0

[HitObjects]
64,192,265,5,8,0:0:0:0:
320,192,598,1,2,0:0:0:0:
448,192,598,1,0,0:0:0:0:
64,192,1264,1,2,0:0:0:0:
192,192,1264,1,0,0:0:0:0:
320,192,1931,1,2,0:0:0:0:
448,192,1931,1,0,0:0:0:0:
192,192,2598,1,2,0:0:0:0:
64,192,2598,1,0,0:0:0:0:
320,192,3264,128,0,5264:0:0:0:0:
448,192,3264,1,2,0:0:0:0:
64,192,3931,1,2,0:0:0:0:
448,192,4598,1,2,0:0:0:0:
64,192,5264,1,2,0:0:0:0:
448,192,5598,1,0,0:0:0:0:
320,192,5931,1,2,0:0:0:0:
192,192,5931,1,0,0:0:0:0:
64,192,6598,1,2,0:0:0:0:
448,192,6598,1,0,0:0:0:0:
320,192,7264,1,2,0:0:0:0:
192,192,7264,1,0,0:0:0:0:
448,192,7931,1,2,0:0:0:0:
64,192,7931,1,0,0:0:0:0:
192,192,8264,128,0,9598:0:0:0:0:
448,192,9598,128,0,10598:0:0:0:0:
64,192,10598,1,8,0:0:0:0:
320,192,10931,128,0,12264:0:0:0:0:
64,192,12264,128,0,13598:0:0:0:0:
448,192,13598,128,0,14931:0:0:0:0:
192,192,14931,128,0,16264:0:0:0:0:
64,192,16264,128,0,17598:0:0:0:0:
320,192,17598,128,0,18931:0:0:0:0:
192,192,18931,128,0,20098:0:0:0:0:
448,192,20098,128,0,21598:0:0:0:0:
64,192,21264,1,2,0:0:0:0:
64,192,21598,1,0,0:0:0:0:
448,192,21931,1,0,0:0:0:0:
320,192,21931,1,2,0:0:0:0:
448,192,22598,1,2,0:0:0:0:
320,192,22598,1,0,0:0:0:0:
448,192,22931,1,8,0:0:0:0:
64,192,23264,1,2,0:0:0:0:
192,192,23264,1,0,0:0:0:0:
192,192,23931,1,0,0:0:0:0:
64,192,23931,1,2,0:0:0:0:
448,192,24264,1,0,0:0:0:0:
320,192,24598,1,0,0:0:0:0:
192,192,24931,1,0,0:0:0:0:
64,192,25264,1,0,0:0:0:0:
448,192,25598,128,0,26264:0:0:0:0:
64,192,26264,1,0,0:0:0:0:
192,192,26598,1,0,0:0:0:0:
448,192,26931,1,8,0:0:0:0:
320,192,26931,1,0,0:0:0:0:
192,192,27264,1,0,0:0:0:0:
64,192,27264,1,2,0:0:0:0:
320,192,27931,1,2,0:0:0:0:
448,192,27931,1,0,0:0:0:0:
192,192,28598,1,0,0:0:0:0:
64,192,28598,1,2,0:0:0:0:
320,192,29264,1,2,0:0:0:0:
448,192,29264,1,0,0:0:0:0:
448,192,29598,128,0,31931:0:0:0:0:
192,192,29598,1,8,0:0:0:0:
64,192,29931,1,2,0:0:0:0:
320,192,30264,1,8,0:0:0:0:
64,192,30598,1,2,0:0:0:0:
320,192,30931,1,8,0:0:0:0:
64,192,31264,1,2,0:0:0:0:
320,192,31598,1,8,0:0:0:0:
64,192,31931,1,2,0:0:0:0:
192,192,32264,1,0,0:0:0:0:
320,192,32598,1,2,0:0:0:0:
448,192,32598,1,0,0:0:0:0:
320,192,33264,1,0,0:0:0:0:
192,192,33264,1,2,0:0:0:0:
64,192,33931,1,0,0:0:0:0:
192,192,33931,1,2,0:0:0:0:
320,192,34598,1,0,0:0:0:0:
448,192,34598,1,2,0:0:0:0:
64,192,34931,128,0,37264:0:0:0:0:
192,192,34931,1,8,0:0:0:0:
448,192,35264,1,2,0:0:0:0:
192,192,35598,1,8,0:0:0:0:
448,192,35931,1,2,0:0:0:0:
192,192,36264,1,8,0:0:0:0:
448,192,36598,1,2,0:0:0:0:
192,192,36931,1,8,0:0:0:0:
448,192,37264,1,2,0:0:0:0:
320,192,37598,1,8,0:0:0:0:
64,192,37931,1,2,0:0:0:0:
192,192,37931,1,0,0:0:0:0:
320,192,38598,1,0,0:0:0:0:
192,192,38598,1,2,0:0:0:0:
64,192,39264,1,0,0:0:0:0:
448,192,39264,1,2,0:0:0:0:
320,192,39931,1,0,0:0:0:0:
192,192,39931,1,2,0:0:0:0:
448,192,40264,128,0,42598:0:0:0:0:
320,192,40264,1,8,0:0:0:0:
64,192,40598,1,2,0:0:0:0:
320,192,40931,1,8,0:0:0:0:
64,192,41264,1,2,0:0:0:0:
320,192,41598,1,8,0:0:0:0:
64,192,41931,1,2,0:0:0:0:
320,192,42264,1,8,0:0:0:0:
64,192,42598,1,2,0:0:0:0:
192,192,42931,1,0,0:0:0:0:
320,192,43264,1,2,0:0:0:0:
448,192,43264,1,0,0:0:0:0:
192,192,43931,1,0,0:0:0:0:
320,192,43931,1,2,0:0:0:0:
448,192,44598,1,0,0:0:0:0:
64,192,44598,1,2,0:0:0:0:
320,192,45264,1,0,0:0:0:0:
192,192,45264,1,2,0:0:0:0:
64,192,45598,128,0,46931:0:0:0:0:
192,192,45598,1,8,0:0:0:0:
448,192,45931,1,2,0:0:0:0:
192,192,46264,1,8,0:0:0:0:
448,192,46598,1,2,0:0:0:0:
320,192,46931,128,8,47931:0:0:0:0:
64,192,47264,1,2,0:0:0:0:
448,192,47598,1,8,0:0:0:0:
64,192,47931,1,2,0:0:0:0:
448,192,48264,1,12,0:0:0:0:
192,192,48598,1,0,0:0:0:0:
64,192,48598,1,2,0:0:0:0:
448,192,48931,1,8,0:0:0:0:
64,192,49264,1,2,0:0:0:0:
192,192,49264,1,0,0:0:0:0:
448,192,49598,1,8,0:0:0:0:
192,192,49931,1,2,0:0:0:0:
320,192,49931,1,0,0:0:0:0:
64,192,50264,1,8,0:0:0:0:
320,192,50598,1,0,0:0:0:0:
192,192,50598,1,2,0:0:0:0:
320,192,50931,1,8,0:0:0:0:
64,192,51264,1,2,0:0:0:0:
448,192,51264,1,0,0:0:0:0:
320,192,51598,1,8,0:0:0:0:
448,192,51931,1,2,0:0:0:0:
64,192,51931,1,0,0:0:0:0:
192,192,52264,1,8,0:0:0:0:
448,192,52598,1,0,0:0:0:0:
320,192,52598,1,2,0:0:0:0:
192,192,52931,1,8,0:0:0:0:
320,192,53264,1,2,0:0:0:0:
448,192,53264,1,0,0:0:0:0:
448,192,53598,1,8,0:0:0:0:
192,192,53931,1,0,0:0:0:0:
64,192,53931,1,2,0:0:0:0:
448,192,54264,1,8,0:0:0:0:
64,192,54598,1,0,0:0:0:0:
192,192,54598,1,2,0:0:0:0:
448,192,54931,1,8,0:0:0:0:
192,192,55264,1,2,0:0:0:0:
320,192,55264,1,0,0:0:0:0:
448,192,55598,1,8,0:0:0:0:
192,192,55931,1,0,0:0:0:0:
64,192,55931,1,2,0:0:0:0:
448,192,56264,128,0,57598:0:0:0:0:
320,192,56264,1,8,0:0:0:0:
64,192,56598,1,2,0:0:0:0:
320,192,56931,1,8,0:0:0:0:
64,192,57264,1,2,0:0:0:0:
64,192,57598,128,0,58598:0:0:0:0:
448,192,57931,1,2,0:0:0:0:
448,192,58598,1,2,0:0:0:0:
192,192,58931,1,0,0:0:0:0:
320,192,58931,1,8,0:0:0:0:
64,192,59598,1,2,0:0:0:0:
192,192,59598,1,2,0:0:0:0:
320,192,60264,1,8,0:0:0:0:
320,192,60598,1,8,0:0:0:0:
192,192,60931,1,2,0:0:0:0:
448,192,60931,1,2,0:0:0:0:
64,192,61598,1,8,0:0:0:0:
320,192,62264,1,2,0:0:0:0:
448,192,62264,1,2,0:0:0:0:
192,192,62931,1,8,0:0:0:0:
192,192,63264,1,8,0:0:0:0:
64,192,63598,1,2,0:0:0:0:
320,192,63598,1,2,0:0:0:0:
64,192,63931,1,2,0:0:0:0:
320,192,63931,1,2,0:0:0:0:
448,192,64264,1,8,0:0:0:0:
192,192,64931,1,2,0:0:0:0:
320,192,64931,1,2,0:0:0:0:
64,192,65598,1,8,0:0:0:0:
64,192,65931,1,8,0:0:0:0:
320,192,66264,1,2,0:0:0:0:
448,192,66264,1,2,0:0:0:0:
192,192,66931,1,8,0:0:0:0:
64,192,67264,1,2,0:0:0:0:
320,192,67264,1,2,0:0:0:0:
448,192,67598,1,8,0:0:0:0:
192,192,67931,1,2,0:0:0:0:
320,192,67931,1,2,0:0:0:0:
64,192,68264,1,8,0:0:0:0:
448,192,68598,1,2,0:0:0:0:
192,192,68598,1,2,0:0:0:0:
320,192,68931,1,8,0:0:0:0:
64,192,69264,1,2,0:0:0:0:
192,192,69264,1,2,0:0:0:0:
320,192,69598,1,0,0:0:0:0:
192,192,70098,1,0,0:0:0:0:
448,192,70931,1,0,0:0:0:0:
64,192,71431,1,0,0:0:0:0:
192,192,72264,1,0,0:0:0:0:
448,192,72764,1,0,0:0:0:0:
64,192,73598,1,0,0:0:0:0:
320,192,74098,1,0,0:0:0:0:
448,192,74931,1,0,0:0:0:0:
320,192,75431,1,0,0:0:0:0:
64,192,76264,1,0,0:0:0:0:
192,192,76764,1,0,0:0:0:0:
448,192,77598,128,0,78931:0:0:0:0:
64,192,78931,128,0,79931:0:0:0:0:
448,192,79931,1,8,0:0:0:0:
320,192,79931,1,8,0:0:0:0:
64,192,80264,1,0,0:0:0:0:
320,192,80598,1,0,0:0:0:0:
192,192,80598,1,2,0:0:0:0:
320,192,81264,1,0,0:0:0:0:
192,192,81264,1,2,0:0:0:0:
448,192,81598,1,0,0:0:0:0:
320,192,81931,1,2,0:0:0:0:
192,192,81931,1,0,0:0:0:0:
320,192,82598,1,2,0:0:0:0:
192,192,82598,1,0,0:0:0:0:
64,192,82931,1,0,0:0:0:0:
192,192,83264,1,0,0:0:0:0:
320,192,83598,1,0,0:0:0:0:
448,192,83931,1,0,0:0:0:0:
64,192,84264,128,0,84931:0:0:0:0:
192,192,84931,128,0,85598:0:0:0:0:
320,192,85598,128,0,86264:0:0:0:0:
448,192,86264,128,0,86931:0:0:0:0:
64,192,86931,1,0,0:0:0:0:
192,192,88264,1,8,0:0:0:0:
64,192,88598,1,2,0:0:0:0:
448,192,88931,1,8,0:0:0:0:
320,192,89264,1,2,0:0:0:0:
64,192,89598,1,8,0:0:0:0:
448,192,89931,1,2,0:0:0:0:
320,192,90264,1,8,0:0:0:0:
64,192,90598,1,2,0:0:0:0:
448,192,90931,1,8,0:0:0:0:
192,192,91264,1,2,0:0:0:0:
320,192,91598,1,8,0:0:0:0:
192,192,91931,1,2,0:0:0:0:
64,192,92264,1,8,0:0:0:0:
448,192,92598,1,2,0:0:0:0:
192,192,92931,1,8,0:0:0:0:
448,192,93264,1,2,0:0:0:0:
320,192,93598,1,8,0:0:0:0:
192,192,93931,1,2,0:0:0:0:
64,192,94264,1,8,0:0:0:0:
320,192,94598,1,2,0:0:0:0:
448,192,94931,1,8,0:0:0:0:
192,192,95264,1,2,0:0:0:0:
320,192,95598,1,8,0:0:0:0:
64,192,95931,1,2,0:0:0:0:
192,192,96264,1,8,0:0:0:0:
448,192,96598,1,2,0:0:0:0:
320,192,96931,1,8,0:0:0:0:
192,192,97264,1,2,0:0:0:0:
64,192,97598,128,8,98931:0:0:0:0:
448,192,98931,1,8,0:0:0:0:
64,192,99264,1,2,0:0:0:0:
192,192,99264,1,0,0:0:0:0:
448,192,99598,1,8,0:0:0:0:
192,192,99931,1,2,0:0:0:0:
64,192,99931,1,0,0:0:0:0:
320,192,100264,1,8,0:0:0:0:
64,192,100598,1,2,0:0:0:0:
448,192,100598,1,0,0:0:0:0:
320,192,100931,1,8,0:0:0:0:
448,192,101264,1,2,0:0:0:0:
64,192,101264,1,0,0:0:0:0:
64,192,101598,1,8,0:0:0:0:
320,192,101931,1,2,0:0:0:0:
448,192,101931,1,0,0:0:0:0:
64,192,102264,1,8,0:0:0:0:
448,192,102598,1,2,0:0:0:0:
320,192,102598,1,0,0:0:0:0:
64,192,102931,1,8,0:0:0:0:
192,192,103264,1,2,0:0:0:0:
320,192,103264,1,0,0:0:0:0:
448,192,103598,1,8,0:0:0:0:
192,192,103931,1,2,0:0:0:0:
320,192,103931,1,0,0:0:0:0:
448,192,104264,1,8,0:0:0:0:
64,192,104598,1,2,0:0:0:0:
192,192,104598,1,0,0:0:0:0:
448,192,104931,1,8,0:0:0:0:
192,192,105264,1,2,0:0:0:0:
64,192,105264,1,0,0:0:0:0:
64,192,105598,1,8,0:0:0:0:
448,192,105931,1,2,0:0:0:0:
320,192,105931,1,0,0:0:0:0:
64,192,106264,1,8,0:0:0:0:
320,192,106598,1,2,0:0:0:0:
448,192,106598,1,0,0:0:0:0:
64,192,106931,128,0,108264:0:0:0:0:
448,192,108264,128,0,109264:0:0:0:0:
192,192,109264,1,2,0:0:0:0:
64,192,109598,1,8,0:0:0:0:
320,192,109931,1,4,0:0:0:0:
448,192,109931,1,2,0:0:0:0:
192,192,110264,1,8,0:0:0:0:
64,192,110598,1,2,0:0:0:0:
320,192,110598,1,0,0:0:0:0:
192,192,110931,1,8,0:0:0:0:
448,192,111264,1,2,0:0:0:0:
320,192,111264,1,0,0:0:0:0:
64,192,111598,1,8,0:0:0:0:
320,192,111931,1,2,0:0:0:0:
192,192,111931,1,0,0:0:0:0:
448,192,112264,1,8,0:0:0:0:
192,192,112598,1,2,0:0:0:0:
64,192,112598,1,0,0:0:0:0:
448,192,112931,1,8,0:0:0:0:
320,192,113264,1,2,0:0:0:0:
192,192,113264,1,0,0:0:0:0:
64,192,113598,1,8,0:0:0:0:
448,192,113931,1,2,0:0:0:0:
320,192,113931,1,0,0:0:0:0:
192,192,114264,1,8,0:0:0:0:
448,192,114598,1,2,0:0:0:0:
64,192,114598,1,0,0:0:0:0:
320,192,114931,1,8,0:0:0:0:
64,192,115264,1,2,0:0:0:0:
192,192,115264,1,0,0:0:0:0:
448,192,115598,1,8,0:0:0:0:
192,192,115931,1,2,0:0:0:0:
320,192,115931,1,0,0:0:0:0:
64,192,116264,1,8,0:0:0:0:
448,192,116598,1,2,0:0:0:0:
320,192,116598,1,0,0:0:0:0:
64,192,116931,1,8,0:0:0:0:
320,192,117264,1,2,0:0:0:0:
192,192,117264,1,0,0:0:0:0:
64,192,117598,128,0,118931:0:0:0:0:
448,192,118931,128,0,119931:0:0:0:0:
64,192,119931,1,2,0:0:0:0:
320,192,120264,1,2,0:0:0:0:
192,192,120264,1,2,0:0:0:0:
