osu file format v14

[General]
AudioFilename: orange.mp3
AudioLeadIn: 0
PreviewTime: 37135
Countdown: 0
SampleSet: Soft
StackLeniency: 0.3
Mode: 0
LetterboxInBreaks: 0
WidescreenStoryboard: 0

[Editor]
DistanceSpacing: 1.2
BeatDivisor: 4
GridSize: 16
TimelineZoom: 1

[Metadata]
Title:Hikari no Hahen
TitleUnicode:光の破片
Artist:Takahashi Yu
ArtistUnicode:高橋 優
Creator:handsome
Version:Hard
Source:orange
Tags:オレンジ anime opening version tv size
BeatmapID:1088307
BeatmapSetID:511758

[Difficulty]
HPDrainRate:4
CircleSize:4
OverallDifficulty:5
ApproachRate:6.5
SliderMultiplier:1.8
SliderTickRate:1

[Events]
//Background and Video events
0,0,"orange.jpg",0,0
//Break Periods
//Storyboard Layer 0 (Background)
//Storyboard Layer 1 (Fail)
//Storyboard Layer 2 (Pass)
//Storyboard Layer 3 (Foreground)
//Storyboard Sound Samples

[TimingPoints]
-1527,517.241379310345,4,2,0,60,1,0
541,-125,4,2,0,60,0,0
6748,517.241379310345,3,2,0,30,1,0
6748,-125,3,2,0,30,0,0
8299,-125,3,2,0,40,0,0
9851,517.241379310345,4,2,0,50,1,0
9851,-125,4,2,0,50,0,0
26402,-200,4,2,0,30,0,0
33644,517.241379310345,4,2,0,60,1,0
33644,-125,4,2,0,60,0,0
37781,517.241379310345,4,2,0,80,1,1
53298,-100,4,2,0,40,0,1
53556,-100,4,2,0,50,0,1
53815,-100,4,2,0,60,0,1
54074,-100,4,2,0,70,0,1
54332,-100,4,2,0,80,0,1
72953,517.241379310345,4,2,0,60,1,0
72953,-125,4,2,0,60,0,0

[Colours]
Combo1 : 255,224,51
Combo2 : 174,201,251
Combo3 : 192,236,239
Combo4 : 255,155,6

[HitObjects]
130,299,283,5,2,0:3:0:0:
130,299,412,1,2,0:3:0:0:
130,299,541,2,0,L|222:287,1,72,4|0,0:1|0:0,0:0:0:0:
256,222,1059,1,0,1:0:0:0:
256,222,1317,2,0,P|331:250|336:333,1,144,4|0,0:2|0:0,0:0:0:0:
268,346,2093,1,0,1:0:0:0:
201,289,2352,5,2,0:3:0:0:
201,289,2481,1,2,0:3:0:0:
201,289,2610,2,0,L|130:299,1,72,4|0,0:1|0:0,0:0:0:0:
60,247,3128,1,0,1:0:0:0:
60,247,3386,2,0,P|30:185|103:127,1,144,4|0,0:2|0:0,0:0:0:0:
150,166,4162,2,0,L|237:153,1,72,0|2,1:0|0:3,0:0:0:0:
296,142,4550,1,2,0:3:0:0:
296,142,4679,38,0,P|316:194|311:227,2,72,4|0|2,0:1|0:0|1:2,0:0:0:0:
239,75,5455,1,0,0:0:0:0:
239,75,5714,2,0,P|189:75|116:15,1,144,2|2,0:0|1:2,0:0:0:0:
87,215,6748,6,0,L|10:205,2,72,2|2|2,0:0|0:0|0:0,0:0:0:0:
150,286,7523,2,0,L|227:276,2,72,2|2|2,0:0|0:0|0:0,0:0:0:0:
90,351,8299,1,4,1:2:0:0:
323,381,8816,38,0,P|335:354|339:296,1,72,0|8,1:0|0:3,0:0:0:0:
239,337,9334,2,0,L|193:325,2,36,0|0|8,1:0|1:0|0:3,0:0:0:0:
274,249,9851,6,0,P|319:222|418:262,1,144,4|0,0:2|1:0,0:0:0:0:
424,332,10626,1,0,0:0:0:0:
424,332,10885,2,0,P|465:315|491:219,1,144,2|0,0:0|1:0,0:0:0:0:
433,159,11661,1,0,0:0:0:0:
433,159,11790,1,0,0:0:0:0:
433,159,11919,38,0,L|341:166,1,72,4|0,0:2|0:0,0:0:0:0:
300,85,12437,2,0,L|208:78,1,72,0|0,1:0|0:0,0:0:0:0:
163,154,12954,2,0,P|156:199|166:248,2,72,2|0|0,0:0|0:0|1:0,0:0:0:0:
246,195,13730,1,0,0:0:0:0:
246,195,13988,6,0,P|276:255|250:334,1,144,4|0,0:2|1:0,0:0:0:0:
170,356,14764,1,0,0:0:0:0:
170,356,15023,2,0,L|70:348,1,72,2|0,0:0|0:0,0:0:0:0:
18,272,15540,2,0,L|118:264,1,72,0|0,1:0|0:0,0:0:0:0:
180,255,16057,37,4,0:2:0:0:
237,175,16316,1,0,0:0:0:0:
333,154,16575,1,0,1:0:0:0:
418,204,16833,1,2,0:0:0:0:
444,298,17092,2,0,L|434:378,2,72,0|0|0,0:0|0:0|1:0,0:0:0:0:
512,228,17868,1,0,0:0:0:0:
512,228,17997,1,0,0:0:0:0:
512,228,18126,6,0,P|515:159|449:102,1,144,4|0,0:2|1:0,0:0:0:0:
385,147,18902,1,0,0:0:0:0:
385,147,19161,2,0,P|329:166|238:107,1,144,2|0,0:0|1:0,0:0:0:0:
166,157,19937,1,0,0:0:0:0:
166,157,20066,1,0,0:0:0:0:
166,157,20195,38,0,L|178:72,1,72,4|0,0:2|0:0,0:0:0:0:
71,27,20713,2,0,L|83:112,1,72,0|0,1:0|0:0,0:0:0:0:
72,199,21230,2,0,P|33:184|-11:179,2,72,2|0|0,0:0|0:0|1:0,0:0:0:0:
159,262,22006,1,0,0:0:0:0:
159,262,22135,1,0,0:0:0:0:
159,262,22264,6,0,L|238:252,1,72,4|0,0:2|0:0,0:0:0:0:
311,301,22782,2,0,L|390:291,1,72,0|0,1:0|0:0,0:0:0:0:
464,281,23169,1,0,0:0:0:0:
464,281,23299,38,0,P|491:217|475:124,1,144,2|0,0:0|1:0,0:0:0:0:
445,56,24075,1,0,0:0:0:0:
445,56,24333,2,0,B|354:42|400:84|282:56,1,144,4|0,0:2|1:0,0:0:0:0:
222,23,25109,1,0,0:0:0:0:
222,23,25238,1,0,0:0:0:0:
222,23,25368,5,0,1:0:0:0:
139,48,25626,1,8,0:3:0:0:
139,135,25885,1,4,0:3:0:0:
221,162,26144,1,8,0:3:0:0:
273,92,26402,38,0,P|335:83|386:89,1,90,4|2,0:2|0:0,0:0:0:0:
485,48,27437,2,0,P|494:110|488:161,1,90,4|2,0:2|0:0,0:0:0:0:
512,259,28471,2,0,P|450:268|399:262,1,90,4|2,0:2|0:0,0:0:0:0:
300,303,29506,2,0,P|291:241|297:190,1,90,4|2,0:2|0:0,0:0:0:0:
348,78,30540,6,0,L|224:68,1,90,4|2,0:2|0:0,0:0:0:0:
98,170,31575,2,0,L|222:160,1,90,4|2,0:2|0:0,0:0:0:0:
274,237,32351,1,0,1:0:0:0:
170,277,32609,38,0,L|163:353,1,45,2|0,0:0|0:0,0:0:0:0:
84,361,33126,2,0,L|77:285,1,45,4|0,0:2|0:0,0:0:0:0:
24,257,33514,1,0,0:0:0:0:
24,257,33644,6,0,P|20:219|49:156,1,72,4|0,1:2|0:0,0:0:0:0:
0,101,34161,2,0,P|38:97|101:126,1,72,0|0,1:0|0:0,0:0:0:0:
115,186,34678,1,0,1:0:0:0:
115,186,34937,1,4,0:3:0:0:
180,255,35195,2,0,P|218:259|281:230,1,72,4|0,1:2|0:0,0:0:0:0:
276,169,35712,37,2,1:0:0:0:
363,167,35971,1,0,1:0:0:0:
390,250,36230,1,2,1:0:0:0:
319,301,36488,1,0,1:0:0:0:
250,250,36747,2,0,L|201:255,1,36,2|2,1:0|1:0,0:0:0:0:
16,71,37781,38,0,P|65:76|133:111,1,90,4|0,1:2|0:0,0:0:0:0:
124,185,38298,2,0,P|173:180|241:145,1,90,0|0,1:0|0:0,0:0:0:0:
279,89,38815,2,0,L|269:-9,1,90,4|0,0:2|0:0,0:0:0:0:
383,127,39332,1,2,1:2:0:0:
383,127,39591,1,2,0:2:0:0:
383,127,39849,38,0,P|402:189|389:241,1,90,4|0,0:2|0:0,0:0:0:0:
458,291,40367,2,0,P|435:329|392:355,1,90,0|0,1:0|0:0,0:0:0:0:
327,279,40884,2,0,L|208:263,1,90,4|0,0:2|0:0,0:0:0:0:
119,305,41401,2,0,L|127:358,3,45,2|2|2|2,1:2|0:2|0:2|0:2,0:0:0:0:
84,287,41918,6,0,P|45:227|97:125,1,180,4|0,0:2|1:0,0:0:0:0:
204,127,42694,1,0,0:0:0:0:
204,127,42953,2,0,P|243:187|191:289,1,180,4|0,0:2|1:0,0:0:0:0:
84,287,43729,1,0,0:0:0:0:
115,196,43987,38,0,L|105:97,1,90,0|0,1:0|0:0,0:0:0:0:
213,37,44505,2,0,L|203:126,1,90,4|0,1:2|0:0,0:0:0:0:
272,206,45022,1,0,1:0:0:0:
272,206,45281,1,8,0:3:0:0:
360,147,45539,1,2,1:2:0:0:
360,147,45798,1,2,0:2:0:0:
360,147,46056,6,0,P|420:139|474:98,1,90,4|0,1:2|0:0,0:0:0:0:
376,39,46574,2,0,P|335:20|290:17,1,90,0|0,1:0|0:0,0:0:0:0:
255,123,47091,2,0,L|144:119,1,90,4|0,0:2|0:0,0:0:0:0:
97,45,47608,1,2,1:2:0:0:
97,45,47867,1,2,0:2:0:0:
97,45,48125,38,0,P|65:103|68:152,1,90,4|0,0:2|0:0,0:0:0:0:
0,206,48643,2,0,P|18:269|55:302,1,90,0|0,1:0|0:0,0:0:0:0:
66,380,49160,2,0,L|179:353,1,90,4|0,0:2|0:0,0:0:0:0:
274,306,49677,2,0,L|211:292,3,45,2|2|2|2,1:2|0:2|0:2|0:2,0:0:0:0:
304,347,50194,6,0,P|366:363|463:291,1,180,4|0,0:2|1:0,0:0:0:0:
363,258,50970,1,0,0:0:0:0:
363,258,51229,2,0,L|351:160,1,90,4|0,0:2|0:0,0:0:0:0:
260,131,51746,2,0,L|272:33,1,90,0|0,1:0|0:0,0:0:0:0:
369,27,52263,6,0,P|415:13|468:19,2,90,2|2|4,1:1|1:1|1:3,0:0:0:0:
426,107,53039,2,0,B|439:219,1,90
501,271,53556,1,0,0:0:0:0:
501,271,53815,2,0,L|515:201,3,45
496,313,54332,22,0,P|447:308|379:273,1,90,4|0,1:2|0:0,0:0:0:0:
369,200,54849,2,0,P|320:205|252:240,1,90,0|0,1:0|0:0,0:0:0:0:
213,290,55367,2,0,L|223:388,1,90,4|0,0:2|0:0,0:0:0:0:
129,257,55884,1,2,1:2:0:0:
129,257,56143,1,2,0:2:0:0:
129,257,56401,6,0,P|110:195|123:143,1,90,4|0,0:2|0:0,0:0:0:0:
54,93,56918,2,0,P|77:55|120:29,1,90,0|0,1:0|0:0,0:0:0:0:
185,105,57436,2,0,L|304:121,1,90,4|0,0:2|0:0,0:0:0:0:
393,79,57953,2,0,L|385:26,3,45,2|2|2|2,1:2|0:2|0:2|0:2,0:0:0:0:
428,97,58470,38,0,P|467:157|415:259,1,180,4|0,0:2|1:0,0:0:0:0:
308,257,59246,1,0,0:0:0:0:
308,257,59505,2,0,P|269:197|321:95,1,180,4|0,0:2|1:0,0:0:0:0:
428,97,60281,1,0,0:0:0:0:
397,188,60539,6,0,L|407:287,1,90,4|8,1:2|0:3,0:0:0:0:
299,347,61056,2,0,L|309:258,1,90,4|4,1:2|0:3,0:0:0:0:
240,178,61574,1,0,1:0:0:0:
240,178,61832,1,2,0:3:0:0:
152,237,62091,1,2,1:2:0:0:
152,237,62349,1,2,0:2:0:0:
152,237,62608,38,0,P|92:245|38:286,1,90,4|0,1:2|0:0,0:0:0:0:
161,342,63125,2,0,P|202:361|247:364,1,90,0|0,1:0|0:0,0:0:0:0:
257,246,63643,2,0,L|373:231,1,90,4|0,0:2|0:0,0:0:0:0:
415,339,64160,1,2,1:2:0:0:
415,339,64418,1,2,0:2:0:0:
415,339,64677,6,0,P|447:281|444:232,1,90,4|0,0:2|0:0,0:0:0:0:
512,178,65194,2,0,P|494:115|457:82,1,90,0|4,1:0|0:3,0:0:0:0:
446,4,65712,2,0,L|333:31,1,90,2|0,0:3|0:0,0:0:0:0:
238,78,66229,2,0,L|301:92,3,45,2|2|2|2,1:2|0:2|0:2|0:2,0:0:0:0:
208,37,66746,38,0,P|146:21|49:93,1,180,0|4,1:0|1:2,0:0:0:0:
149,126,67522,1,0,0:0:0:0:
149,126,67781,2,0,L|161:224,1,90,0|0,1:0|0:0,0:0:0:0:
252,253,68298,2,0,L|240:351,1,90,4|0,1:2|0:0,0:0:0:0:
147,361,68815,5,4,1:2:0:0:
63,325,69074,1,2,1:0:0:0:
71,235,69332,1,2,1:0:0:0:
159,215,69591,1,4,0:3:0:0:
206,292,69849,2,0,L|309:272,2,90,4|8|0,1:2|0:3|1:0,0:0:0:0:
71,235,70625,1,0,1:0:0:0:
62,89,70884,38,0,P|93:46|148:20,1,90,0|2,1:0|1:3,0:0:0:0:
300,69,71401,2,0,P|343:100|369:155,1,90,0|2,1:0|1:3,0:0:0:0:
320,307,71918,2,0,P|289:350|234:376,1,90,0|2,1:0|1:3,0:0:0:0:
82,327,72436,2,0,P|39:296|13:241,1,90,0|2,1:0|0:3,0:0:0:0:
42,189,72824,1,2,0:3:0:0:
42,189,72953,22,0,L|120:179,1,72,4|0,0:1|0:0,0:0:0:0:
173,251,73470,1,0,1:0:0:0:
173,251,73728,2,0,P|232:293|320:277,1,144,4|0,0:2|0:0,0:0:0:0:
378,333,74504,1,0,1:0:0:0:
433,261,74763,5,2,0:3:0:0:
433,261,74892,1,2,0:3:0:0:
433,261,75021,2,0,L|439:182,1,72,4|0,0:1|0:0,0:0:0:0:
511,125,75539,1,0,1:0:0:0:
511,125,75797,2,0,P|491:76|396:41,1,144,4|0,0:2|0:0,0:0:0:0:
328,93,76573,37,0,1:0:0:0:
328,93,76703,1,4,0:3:0:0:
328,93,76832,1,4,0:3:0:0:
253,29,77090,2,0,L|169:18,2,72,4|0|2,0:1|0:0|0:0,0:0:0:0:
240,115,77866,1,0,0:0:0:0:
240,115,78125,2,0,P|246:159|231:217,1,72,2|0,0:0|0:0,0:0:0:0:
139,202,78642,2,0,P|133:246|148:304,1,72,2|0,0:0|0:0,0:0:0:0:
216,339,79159,38,0,L|287:333,1,72,4|0,1:2|0:0,0:0:0:0:
378,366,79677,37,4,0:3:0:0:
378,366,79935,2,0,L|394:295,1,72,4|0,1:2|0:0,0:0:0:0:
453,220,80453,5,4,0:3:0:0:
453,220,80711,2,0,L|391:182,1,72,4|0,1:2|0:0,0:0:0:0:
337,102,81228,37,4,0:3:0:0:
337,102,81487,2,0,L|281:147,1,72,4|0,1:2|0:0,0:0:0:0:
190,175,82004,5,4,0:3:0:0:
190,175,82263,2,0,L|216:241,1,72,4|4,1:2|0:3,0:0:0:0:
216,339,82780,1,2,0:3:0:0:
216,339,82909,1,2,0:3:0:0:
216,339,83039,1,2,0:3:0:0:
313,239,83297,5,4,1:0:0:0:
