osu file format v14

[General]
AudioFilename: orange.mp3
AudioLeadIn: 0
PreviewTime: 37135
Countdown: 0
SampleSet: Soft
StackLeniency: 0.3
Mode: 0
LetterboxInBreaks: 0
WidescreenStoryboard: 0

[Editor]
DistanceSpacing: 1.2
BeatDivisor: 4
GridSize: 16
TimelineZoom: 1

[Metadata]
Title:Hikari no Hahen
TitleUnicode:光の破片
Artist:Takahashi Yu
ArtistUnicode:高橋 優
Creator:handsome
Version:Extra
Source:orange
Tags:オレンジ anime opening version tv size
BeatmapID:1087786
BeatmapSetID:511758

[Difficulty]
HPDrainRate:6
CircleSize:4
OverallDifficulty:8
ApproachRate:9
SliderMultiplier:2.8
SliderTickRate:2

[Events]
//Background and Video events
0,0,"orange.jpg",0,0
//Break Periods
//Storyboard Layer 0 (Background)
//Storyboard Layer 1 (Fail)
//Storyboard Layer 2 (Pass)
//Storyboard Layer 3 (Foreground)
//Storyboard Sound Samples

[TimingPoints]
-1527,517.241379310345,4,2,0,60,1,0
541,-166.666666666667,4,2,0,60,0,0
6748,517.241379310345,3,2,0,30,1,0
8170,-125,3,2,0,30,0,0
8298,-125,3,2,0,40,0,0
9851,517.241379310345,4,2,0,50,1,0
9851,-125,4,2,0,50,0,0
26402,-200,4,2,0,30,0,0
33644,517.241379310345,4,2,0,60,1,0
33644,-125,4,2,0,60,0,0
37781,517.241379310345,4,2,0,80,1,1
37781,-83.3333333333333,4,2,0,80,0,1
53298,-83.3333333333333,4,2,0,40,0,1
53556,-83.3333333333333,4,2,0,50,0,1
53815,-83.3333333333333,4,2,0,60,0,1
54074,-83.3333333333333,4,2,0,70,0,1
54332,-83.3333333333333,4,2,0,80,0,1
72953,517.241379310345,4,2,0,60,1,0
72953,-166.666666666667,4,2,0,60,0,0

[Colours]
Combo1 : 255,224,51
Combo2 : 174,201,251
Combo3 : 192,236,239
Combo4 : 255,155,6

[HitObjects]
123,340,283,5,2,0:3:0:0:
148,241,412,1,2,0:3:0:0:
46,272,541,1,4,0:1:0:0:
123,340,800,5,0,0:0:0:0:
148,241,1059,1,0,1:0:0:0:
46,272,1317,1,4,0:2:0:0:
46,272,2093,1,0,1:0:0:0:
148,241,2352,37,2,0:3:0:0:
123,142,2481,1,2,0:3:0:0:
225,173,2610,1,4,0:1:0:0:
148,241,2869,5,0,0:0:0:0:
123,142,3128,1,0,1:0:0:0:
225,173,3386,1,4,0:2:0:0:
225,173,4162,1,0,1:0:0:0:
123,142,4421,37,2,0:3:0:0:
148,43,4550,1,2,0:3:0:0:
46,74,4679,2,0,L|36:166,1,83.9999974365235,4|0,0:1|0:0,0:0:0:0:
183,18,5197,2,0,L|193:110,1,83.9999974365235,2|0,1:2|0:0,0:0:0:0:
326,69,5714,2,0,L|316:161,1,83.9999974365235,2|0,0:0|0:0,0:0:0:0:
463,13,6231,2,0,L|473:105,1,83.9999974365235,2|0,1:2|0:0,0:0:0:0:
501,283,6748,5,2,0:0:0:0:
437,220,7006,1,2,0:0:0:0:
347,229,7265,1,2,0:0:0:0:
308,309,7523,1,2,0:0:0:0:
223,339,7782,1,2,0:0:0:0:
149,287,8041,1,2,0:0:0:0:
139,198,8299,38,0,P|173:152|93:88,1,168,4|0,1:2|0:0,0:0:0:0:
61,142,8816,1,0,1:0:0:0:
218,25,9075,1,8,0:3:0:0:
303,125,9334,5,0,1:0:0:0:
387,72,9463,1,0,1:0:0:0:
318,51,9592,1,8,0:3:0:0:
412,202,9851,38,0,P|444:222|392:311,1,168,4|0,0:2|0:0,0:0:0:0:
325,285,10368,2,0,L|207:298,1,112,0|0,1:0|0:0,0:0:0:0:
47,301,10885,6,0,P|3:238|64:191,1,168,2|0,0:0|0:0,0:0:0:0:
134,218,11402,2,0,L|245:205,1,112,0|0,1:0|0:0,0:0:0:0:
285,145,11790,1,0,0:0:0:0:
249,81,11919,38,0,P|271:28|386:29,1,168,4|0,0:2|0:0,0:0:0:0:
370,90,12437,2,0,L|388:210,1,112,0|0,1:0|0:0,0:0:0:0:
188,148,12954,6,0,P|166:95|51:96,1,168,2|0,0:0|0:0,0:0:0:0:
70,156,13471,1,0,1:0:0:0:
210,224,13730,1,0,0:0:0:0:
20,296,13988,38,0,P|64:232|149:265,1,168,4|0,0:2|0:0,0:0:0:0:
137,326,14506,2,0,L|257:312,1,112,0|0,1:0|0:0,0:0:0:0:
494,227,15023,5,2,0:0:0:0:
320,301,15282,1,0,0:0:0:0:
482,370,15540,2,0,L|362:356,1,112,0|0,1:0|0:0,0:0:0:0:
209,208,16057,37,4,0:2:0:0:
306,77,16316,1,0,0:0:0:0:
372,220,16575,1,0,1:0:0:0:
237,13,16833,5,2,0:0:0:0:
397,62,17092,1,0,0:0:0:0:
247,144,17351,1,0,0:0:0:0:
85,93,17609,2,0,L|98:228,1,112,0|0,1:0|0:0,0:0:0:0:
44,257,17997,1,0,0:0:0:0:
69,324,18126,38,0,P|126:362|182:284,1,168,4|0,0:2|0:0,0:0:0:0:
232,244,18644,2,0,L|220:129,1,112,0|0,1:0|0:0,0:0:0:0:
462,41,19161,6,0,P|405:3|349:81,1,168,2|0,0:0|0:0,0:0:0:0:
304,125,19678,2,0,L|316:240,1,112,0|0,1:0|0:0,0:0:0:0:
381,266,20066,1,0,0:0:0:0:
440,224,20195,38,0,P|459:166|366:140,1,168,4|0,0:2|0:0,0:0:0:0:
304,125,20713,2,0,L|186:142,1,112,0|0,1:0|0:0,0:0:0:0:
11,129,21230,5,2,0:0:0:0:
241,213,21488,1,0,0:0:0:0:
57,194,21747,2,0,L|167:209,1,112,0|0,1:0|0:0,0:0:0:0:
241,213,22135,1,0,0:0:0:0:
204,275,22264,38,0,P|213:340|308:343,1,168,4|0,0:2|0:0,0:0:0:0:
332,281,22782,2,0,L|457:266,1,112,0|0,1:0|0:0,0:0:0:0:
367,31,23299,6,0,P|358:96|263:99,1,168,2|0,0:0|0:0,0:0:0:0:
239,37,23816,2,0,L|114:22,1,112,0|0,1:0|0:0,0:0:0:0:
4,193,24333,37,4,0:2:0:0:
45,17,24592,1,0,0:0:0:0:
62,250,24851,2,0,L|195:225,1,112,0|0,1:0|0:0,0:0:0:0:
282,246,25238,1,0,0:0:0:0:
213,334,25368,1,0,1:0:0:0:
172,229,25626,5,8,0:3:0:0:
282,246,25885,1,4,0:3:0:0:
213,334,26144,1,8,0:3:0:0:
494,361,26402,38,0,P|452:334|348:352,1,140,4|2,0:2|0:0,0:0:0:0:
153,266,27437,2,0,P|220:277|282:246,1,140,4|2,0:2|0:0,0:0:0:0:
18,23,28471,6,0,P|60:50|164:32,1,140,4|2,0:2|0:0,0:0:0:0:
358,117,29506,2,0,P|291:106|230:138,1,140,4|2,0:2|0:0,0:0:0:0:
46,364,30540,38,0,L|60:217,1,140,4|2,0:2|0:0,0:0:0:0:
466,20,31575,2,0,L|452:167,1,140,4|2,0:2|0:0,0:0:0:0:
265,73,32351,1,0,1:0:0:0:
347,164,32609,6,0,L|326:77,1,70,2|0,0:0|0:0,0:0:0:0:
165,220,33126,2,0,L|186:307,1,70,4|0,0:2|0:0,0:0:0:0:
247,311,33514,1,0,1:0:0:0:
310,276,33644,38,0,P|328:213|226:170,1,168,4|0,1:2|0:0,0:0:0:0:
187,129,34161,2,0,L|62:147,1,112,0|0,1:0|0:0,0:0:0:0:
176,21,34678,5,0,1:0:0:0:
410,150,34937,1,4,0:3:0:0:
181,288,35195,1,4,1:2:0:0:
438,234,35712,37,2,1:0:0:0:
388,68,35971,1,0,1:0:0:0:
423,237,36230,5,2,1:0:0:0:
402,64,36488,1,0,1:0:0:0:
408,237,36747,37,2,1:0:0:0:
417,64,36876,1,2,1:0:0:0:
410,150,37781,38,0,P|336:129|316:288,1,251.999992309571,4|0,1:2|0:0,0:0:0:0:
346,345,38298,2,0,L|520:317,1,167.999994873047,0|0,1:0|0:0,0:0:0:0:
474,224,38686,1,0,0:0:0:0:
510,130,38815,37,4,0:2:0:0:
311,70,39074,1,0,0:0:0:0:
191,234,39332,5,2,1:2:0:0:
181,146,39462,1,2,0:2:0:0:
198,232,39591,37,2,0:2:0:0:
173,147,39720,1,2,0:2:0:0:
115,204,39849,6,0,P|32:188|71:44,1,251.999992309571,4|0,0:2|0:0,0:0:0:0:
155,54,40367,2,0,L|345:20,1,167.999994873047,0|0,1:0|0:0,0:0:0:0:
395,92,40755,1,0,0:0:0:0:
457,13,40884,37,4,0:2:0:0:
404,194,41143,1,0,0:0:0:0:
512,356,41401,5,2,1:2:0:0:
413,380,41531,1,2,0:2:0:0:
321,338,41660,1,2,0:2:0:0:
289,242,41789,1,2,0:2:0:0:
324,148,41918,38,0,P|315:66|140:81,1,251.999992309571,4|0,0:2|0:0,0:0:0:0:
68,26,42436,2,0,L|46:210,1,167.999994873047,0|0,1:0|0:0,0:0:0:0:
221,336,42953,6,0,P|230:254|405:269,1,251.999992309571,4|0,0:2|0:0,0:0:0:0:
477,214,43470,2,0,L|499:398,1,167.999994873047,0|0,1:0|0:0,0:0:0:0:
90,299,43987,38,0,L|109:132,1,167.999994873047,0|0,1:0|0:0,0:0:0:0:
188,69,44375,1,0,0:0:0:0:
201,169,44505,2,0,L|220:335,1,167.999994873047,4|0,1:2|0:0,0:0:0:0:
314,373,44893,1,0,0:0:0:0:
303,273,45022,1,0,1:0:0:0:
477,339,45281,1,8,0:3:0:0:
455,149,45539,5,2,1:2:0:0:
334,196,45668,1,2,0:2:0:0:
459,165,45798,37,2,0:2:0:0:
329,179,45927,1,2,0:2:0:0:
382,118,46056,6,0,P|322:27|218:126,1,251.999992309571,4|0,1:2|0:0,0:0:0:0:
239,186,46574,2,0,L|261:366,1,167.999994873047,0|0,1:0|0:0,0:0:0:0:
162,382,46962,1,0,0:0:0:0:
70,340,47091,37,4,0:2:0:0:
351,290,47349,1,0,0:0:0:0:
67,248,47608,5,2,1:2:0:0:
96,156,47737,1,2,0:2:0:0:
79,250,47867,37,2,0:2:0:0:
83,153,47996,1,2,0:2:0:0:
152,215,48125,6,0,P|242:215|299:60,1,251.999992309571,4|0,0:2|0:0,0:0:0:0:
223,25,48643,2,0,L|37:4,1,167.999994873047,0|0,1:0|0:0,0:0:0:0:
10,96,49031,1,0,0:0:0:0:
83,153,49160,37,4,0:2:0:0:
298,5,49418,1,0,0:0:0:0:
156,204,49677,5,2,1:2:0:0:
243,158,49806,1,2,0:2:0:0:
337,185,49936,1,2,0:2:0:0:
387,270,50065,1,2,0:2:0:0:
366,366,50194,38,0,P|461:344|471:239,1,167.999994873047,4|0,0:2|0:0,0:0:0:0:
459,116,50582,1,0,0:0:0:0:
414,198,50712,2,0,L|431:13,1,167.999994873047,0|0,1:0|0:0,0:0:0:0:
83,80,51229,5,4,0:2:0:0:
241,265,51487,1,0,0:0:0:0:
323,35,51746,1,0,1:0:0:0:
216,128,52005,1,0,0:0:0:0:
419,268,52263,6,0,P|368:249|301:256,1,83.9999974365235,2|0,1:1|0:0,0:0:0:0:
231,358,52522,2,0,P|273:354|312:337,1,83.9999974365235,2|0,1:1|0:0,0:0:0:0:
216,128,52781,6,0,L|225:242,1,83.9999974365235,4|0,1:3|0:0,0:0:0:0:
101,384,53039,2,0,L|107:300,1,83.9999974365235,4|0,0:3|0:0,0:0:0:0:
3,21,53298,37,0,1:0:0:0:
45,81,53427,1,0,1:0:0:0:
117,93,53556,1,0,1:0:0:0:
177,50,53686,1,0,1:0:0:0:
261,84,53815,5,2,1:2:0:0:
357,53,53944,1,2,1:2:0:0:
416,134,54074,1,2,1:2:0:0:
357,216,54203,1,2,1:2:0:0:
261,185,54332,6,0,P|178:244|282:356,1,251.999992309571,4|0,1:2|0:0,0:0:0:0:
324,301,54849,2,0,L|499:286,1,167.999994873047,0|0,1:0|0:0,0:0:0:0:
444,196,55237,1,0,0:0:0:0:
500,111,55367,5,4,0:2:0:0:
324,5,55625,1,0,0:0:0:0:
248,160,55884,37,2,1:2:0:0:
161,200,56013,1,2,0:2:0:0:
250,167,56143,5,2,0:2:0:0:
158,192,56272,1,2,0:2:0:0:
224,246,56401,38,0,P|182:335|52:300,1,251.999992309571,4|0,0:2|0:0,0:0:0:0:
75,203,56918,2,0,L|84:21,1,167.999994873047,0|0,1:0|0:0,0:0:0:0:
176,75,57306,1,0,0:0:0:0:
254,11,57436,5,4,0:2:0:0:
406,281,57694,1,0,0:0:0:0:
508,58,57953,37,2,1:2:0:0:
409,41,58082,1,2,0:2:0:0:
316,75,58212,1,2,0:2:0:0:
251,151,58341,1,2,0:2:0:0:
233,249,58470,6,0,P|206:338|51:338,1,251.999992309571,4|0,0:2|0:0,0:0:0:0:
47,249,58987,2,0,L|73:67,1,167.999994873047,0|0,1:0|0:0,0:0:0:0:
297,168,59505,38,0,P|324:256|479:256,1,251.999992309571,4|0,0:2|0:0,0:0:0:0:
483,167,60022,2,0,L|457:-15,1,167.999994873047,0|0,1:0|0:0,0:0:0:0:
376,59,60410,1,0,0:0:0:0:
281,92,60539,1,4,1:2:0:0:
185,69,60668,1,0,0:0:0:0:
115,0,60798,1,8,0:3:0:0:
161,87,60927,1,0,0:0:0:0:
154,187,61056,5,4,1:2:0:0:
406,161,61315,1,4,0:3:0:0:
376,281,61444,1,4,0:3:0:0:
287,201,61574,1,0,1:0:0:0:
495,241,61832,1,2,0:3:0:0:
261,113,62091,37,2,1:2:0:0:
215,269,62220,1,2,0:2:0:0:
240,109,62349,5,2,0:2:0:0:
235,272,62479,1,2,0:2:0:0:
174,178,62608,38,0,P|68:200|89:355,1,251.999992309571,4|0,1:2|0:0,0:0:0:0:
152,361,63125,2,0,L|346:350,1,167.999994873047,0|0,1:0|0:0,0:0:0:0:
410,306,63513,1,0,0:0:0:0:
495,361,63643,5,4,0:2:0:0:
271,226,63901,1,0,0:0:0:0:
510,183,64160,37,2,1:2:0:0:
404,157,64289,1,2,0:2:0:0:
511,173,64418,5,2,0:2:0:0:
402,166,64548,1,2,0:2:0:0:
468,105,64677,38,0,P|426:29|274:84,1,251.999992309571,4|0,0:2|0:0,0:0:0:0:
312,151,65194,1,0,1:0:0:0:
35,120,65453,1,4,0:3:0:0:
48,19,65582,1,4,0:3:0:0:
129,79,65712,1,2,0:3:0:0:
10,301,65970,1,0,0:0:0:0:
315,361,66229,5,2,1:2:0:0:
355,270,66358,1,2,0:2:0:0:
346,170,66487,1,2,0:2:0:0:
289,89,66617,1,2,0:2:0:0:
199,46,66746,38,0,L|-4:70,1,167.999994873047,0|0,1:0|0:0,0:0:0:0:
4,163,67134,1,0,0:0:0:0:
94,207,67263,2,0,L|297:231,1,167.999994873047,4|0,1:2|0:0,0:0:0:0:
289,324,67651,1,0,0:0:0:0:
202,376,67781,5,0,1:0:0:0:
289,89,68039,1,0,0:0:0:0:
494,307,68298,1,4,1:2:0:0:
202,376,68556,1,0,0:0:0:0:
220,14,68815,38,0,L|201:134,1,83.9999974365235,4|0,1:2|0:0,0:0:0:0:
121,312,69074,2,0,L|234:268,1,83.9999974365235,2|0,1:0|0:0,0:0:0:0:
428,249,69332,2,0,L|333:172,1,83.9999974365235,2|0,1:0|0:0,0:0:0:0:
169,157,69591,5,4,0:3:0:0:
269,283,69720,1,4,0:3:0:0:
328,133,69849,1,4,1:2:0:0:
256,192,70108,37,8,0:3:0:0:
394,364,70367,5,0,1:0:0:0:
310,355,70496,1,0,1:0:0:0:
226,347,70625,1,0,1:0:0:0:
143,339,70755,1,0,1:0:0:0:
60,331,70884,37,0,1:0:0:0:
256,192,71143,1,2,1:3:0:0:
114,123,71401,5,0,1:0:0:0:
357,238,71660,1,2,1:3:0:0:
35,250,71918,37,0,1:0:0:0:
435,149,72177,1,2,1:3:0:0:
0,63,72436,21,0,1:0:0:0:
511,222,72694,1,2,0:3:0:0:
410,248,72824,1,2,0:3:0:0:
435,149,72953,1,4,0:1:0:0:
511,222,73211,5,0,0:0:0:0:
410,248,73470,1,0,1:0:0:0:
435,149,73728,1,4,0:2:0:0:
435,149,74504,1,0,1:0:0:0:
410,248,74763,37,2,0:3:0:0:
308,217,74892,1,2,0:3:0:0:
333,316,75021,1,4,0:1:0:0:
410,248,75280,5,0,0:0:0:0:
308,217,75539,1,0,1:0:0:0:
333,316,75797,1,4,0:2:0:0:
333,316,76573,37,0,1:0:0:0:
247,292,76703,1,4,0:3:0:0:
161,268,76832,1,4,0:3:0:0:
231,149,77090,2,0,L|320:139,1,83.9999974365235,4|0,0:1|0:0,0:0:0:0:
324,36,77608,2,0,L|413:46,1,83.9999974365235,2|0,0:0|0:0,0:0:0:0:
295,308,78125,2,0,L|384:298,1,83.9999974365235,2|0,0:0|0:0,0:0:0:0:
388,195,78642,2,0,L|477:205,1,83.9999974365235,2|0,0:0|0:0,0:0:0:0:
182,332,79159,37,4,1:2:0:0:
310,218,79418,1,0,0:0:0:0:
148,164,79677,1,4,0:3:0:0:
382,33,79935,37,4,1:2:0:0:
472,113,80194,1,0,0:0:0:0:
358,151,80453,1,4,0:3:0:0:
219,21,80711,5,4,1:2:0:0:
9,90,80970,1,0,0:0:0:0:
173,238,81228,1,4,0:3:0:0:
358,151,81487,37,4,1:2:0:0:
469,169,81746,1,0,0:0:0:0:
396,257,82004,1,4,0:3:0:0:
235,71,82263,5,4,1:2:0:0:
32,285,82521,1,4,0:3:0:0:
318,353,82780,1,2,0:3:0:0:
252,301,82909,1,2,0:3:0:0:
240,384,83039,1,2,0:3:0:0:
318,353,83297,5,4,1:0:0:0:
