osu file format v14

[General]
AudioFilename: orange.mp3
AudioLeadIn: 0
PreviewTime: 37135
Countdown: 0
SampleSet: Soft
StackLeniency: 0.3
Mode: 0
LetterboxInBreaks: 0
WidescreenStoryboard: 0

[Editor]
DistanceSpacing: 1.2
BeatDivisor: 4
GridSize: 16
TimelineZoom: 1

[Metadata]
Title:Hikari no Hahen
TitleUnicode:光の破片
Artist:Takahashi Yu
ArtistUnicode:高橋 優
Creator:handsome
Version:Easy
Source:orange
Tags:オレンジ anime opening version tv size
BeatmapID:1104357
BeatmapSetID:511758

[Difficulty]
HPDrainRate:2
CircleSize:3
OverallDifficulty:2
ApproachRate:2
SliderMultiplier:1.2
SliderTickRate:1

[Events]
//Background and Video events
0,0,"orange.jpg",0,0
//Break Periods
//Storyboard Layer 0 (Background)
//Storyboard Layer 1 (Fail)
//Storyboard Layer 2 (Pass)
//Storyboard Layer 3 (Foreground)
//Storyboard Sound Samples

[TimingPoints]
-1527,517.241379310345,4,2,0,60,1,0
541,-125,4,2,0,60,0,0
6748,517.241379310345,3,2,0,30,1,0
6748,-125,3,2,0,30,0,0
8299,-125,3,2,0,40,0,0
9851,517.241379310345,4,2,0,50,1,0
9851,-125,4,2,0,50,0,0
33644,517.241379310345,4,2,0,60,1,0
33644,-125,4,2,0,60,0,0
37781,517.241379310345,4,2,0,80,1,1
37781,-125,4,2,0,80,0,1
53298,-125,4,2,0,40,0,1
53556,-125,4,2,0,50,0,1
53815,-125,4,2,0,60,0,1
54074,-125,4,2,0,70,0,1
54332,-125,4,2,0,80,0,1
72953,517.241379310345,4,2,0,60,1,0
72953,-125,4,2,0,60,0,0

[Colours]
Combo1 : 255,224,51
Combo2 : 174,201,251
Combo3 : 192,236,239
Combo4 : 255,155,6

[HitObjects]
167,67,541,6,0,P|219:43|271:48,1,96,4|0,0:1|1:0,0:0:0:0:
300,64,1317,1,4,0:2:0:0:
382,182,2093,1,0,1:0:0:0:
347,271,2610,6,0,P|295:295|243:290,1,96,4|0,0:1|1:0,0:0:0:0:
214,274,3386,1,4,0:2:0:0:
132,156,4162,1,0,1:0:0:0:
167,67,4679,38,0,L|271:48,1,96,4|2,0:1|1:2,0:0:0:0:
336,109,5714,2,0,L|440:128,1,96,2|2,0:0|1:2,0:0:0:0:
478,208,6748,1,2,0:0:0:0:
256,192,7006,12,4,8299,1:2:0:0:
116,358,9851,6,0,L|103:255,1,96,4|0,0:2|1:0,0:0:0:0:
184,210,10885,2,0,L|197:107,1,96,2|0,0:0|1:0,0:0:0:0:
225,22,11919,2,0,P|178:21|135:43,2,96,4|0|2,0:2|1:0|0:0,0:0:0:0:
285,98,13471,1,0,1:0:0:0:
380,102,13988,38,0,L|404:216,1,96,4|0,0:2|1:0,0:0:0:0:
420,289,15023,2,0,P|487:265|528:265,2,96,2|0|4,0:0|1:0|0:2,0:0:0:0:
380,376,16575,2,0,P|329:375|272:361,1,96,0|0,3:0|3:0,3:0:0:0:
203,321,17609,1,0,1:0:0:0:
116,358,18126,6,0,L|103:255,1,96,4|0,0:2|1:0,0:0:0:0:
184,210,19161,2,0,L|197:107,1,96,2|0,0:0|1:0,0:0:0:0:
225,22,20195,2,0,P|178:21|135:43,2,96,4|0|2,0:2|1:0|0:0,0:0:0:0:
285,98,21747,1,0,1:0:0:0:
380,102,22264,38,0,L|404:216,1,96,4|0,0:2|1:0,0:0:0:0:
420,289,23299,2,0,P|487:265|528:265,2,96,2|0|4,0:0|1:0|0:2,0:0:0:0:
360,364,24851,1,0,1:0:0:0:
297,291,25368,2,0,B|217:270|236:318|149:290,1,144,0|8,1:0|0:3,0:0:0:0:
118,322,26402,6,0,P|81:266|86:140,1,192,4|4,0:2|0:2,0:0:0:0:
272,111,28471,2,0,P|309:167|304:293,1,192,4|4,0:2|0:2,0:0:0:0:
118,322,30540,38,0,P|81:266|86:140,1,192,4|4,0:2|0:2,0:0:0:0:
272,111,32609,2,0,L|401:100,1,96,2|4,0:0|0:2,0:0:0:0:
451,149,33644,1,4,1:2:0:0:
491,235,34161,2,0,P|487:293|472:346,2,96,0|0|4,1:0|1:0|1:2,0:0:0:0:
451,149,35712,5,2,1:0:0:0:
509,73,36230,1,2,1:0:0:0:
414,59,36747,1,2,1:0:0:0:
417,251,37781,6,0,L|443:355,2,96,4|0|4,1:2|1:0|0:2,0:0:0:0:
450,161,39332,1,2,1:2:0:0:
374,102,39849,6,0,L|348:-2,2,96,4|0|4,1:2|1:0|0:2,0:0:0:0:
341,192,41401,1,2,1:2:0:0:
279,116,41918,38,0,L|162:106,1,96,4|0,0:2|1:0,0:0:0:0:
108,167,42953,2,0,L|-9:177,2,96,4|0|0,0:2|1:0|1:0,0:0:0:0:
186,222,44505,1,4,1:2:0:0:
263,278,45022,2,0,L|385:265,1,96,0|2,1:0|1:2,0:0:0:0:
442,222,46056,6,0,B|452:270|452:270|433:335,2,96,4|0|4,1:2|1:0|0:2,0:0:0:0:
353,184,47608,1,2,1:2:0:0:
264,146,48125,38,0,B|254:98|254:98|273:33,2,96,4|0|4,0:2|1:0|0:2,0:0:0:0:
353,184,49677,1,2,1:2:0:0:
339,279,50194,6,0,P|261:327|215:331,1,96,4|0,0:2|1:0,0:0:0:0:
171,367,51229,2,0,P|90:324|64:286,1,96,4|0,0:2|1:0,0:0:0:0:
11,266,52263,6,0,P|8:174|27:133,2,96,2|4|0,1:1|1:3|1:0,0:0:0:0:
99,229,53815,1,2,1:2:0:0:
95,133,54332,22,0,L|69:29,2,96,4|0|4,1:2|1:0|0:2,0:0:0:0:
62,223,55884,1,2,1:2:0:0:
138,282,56401,6,0,L|164:386,2,96,4|0|4,1:2|1:0|0:2,0:0:0:0:
171,192,57953,1,2,1:2:0:0:
233,268,58470,38,0,L|350:278,1,96,4|0,0:2|1:0,0:0:0:0:
404,217,59505,2,0,L|521:207,2,96,4|0|4,0:2|1:0|1:2,0:0:0:0:
326,162,61056,1,4,1:2:0:0:
249,106,61574,2,0,L|127:119,1,96,0|2,1:0|1:2,0:0:0:0:
70,162,62608,6,0,B|60:114|60:114|79:49,2,96,4|0|4,1:2|1:0|0:2,0:0:0:0:
159,200,64160,1,2,1:2:0:0:
248,238,64677,38,0,B|258:286|258:286|239:351,2,96,4|0|2,0:2|1:0|0:3,0:0:0:0:
159,200,66229,1,2,1:2:0:0:
180,107,66746,6,0,P|252:51|297:42,1,96,0|4,1:0|1:2,0:0:0:0:
327,115,67781,2,0,P|417:126|455:151,1,96,0|4,1:0|1:2,0:0:0:0:
481,202,68815,37,4,1:2:0:0:
424,279,69332,2,0,L|306:273,1,96,2|4,1:0|1:2,0:0:0:0:
260,342,70367,1,0,1:0:0:0:
172,303,70884,6,0,P|156:258|166:182,1,96,0|0,1:0|1:0,0:0:0:0:
105,129,71918,2,0,P|125:85|186:39,1,96,0|0,1:0|1:0,0:0:0:0:
238,106,72953,6,0,L|356:94,1,96,4|0,0:1|1:0,0:0:0:0:
380,89,73728,1,4,0:2:0:0:
499,170,74504,1,0,1:0:0:0:
449,251,75021,6,0,L|331:263,1,96,4|0,0:1|1:0,0:0:0:0:
307,268,75797,1,4,0:2:0:0:
188,187,76573,1,0,0:0:0:0:
238,106,77090,38,0,P|233:51|216:4,2,96,4|2|2,0:1|0:0|0:0,0:0:0:0:
283,190,78642,1,2,0:0:0:0:
191,220,79159,38,0,P|112:242|53:286,2,144,4|4|4,1:2|1:2|1:2,0:0:0:0:
284,330,81487,2,0,L|413:313,1,96,4|4,1:2|0:3,0:0:0:0:
423,299,82263,2,0,B|438:254|438:254|424:191,1,96,4|2,1:2|0:3,0:0:0:0:
403,113,83297,5,4,1:0:0:0:
