osu file format v14

[General]
AudioFilename: audio.mp3
AudioLeadIn: 0
PreviewTime: 59316
Countdown: 0
SampleSet: Normal
StackLeniency: 0.7
Mode: 0
LetterboxInBreaks: 0
WidescreenStoryboard: 1

[Editor]
Bookmarks: 34290
DistanceSpacing: 0.5
BeatDivisor: 4
GridSize: 4
TimelineZoom: 1

[Metadata]
Title:metamorphose (TV Version)
TitleUnicode:metamorphose (TV Version)
Artist:Takahashi Yoko
ArtistUnicode:高橋洋子
Creator:ColdHat
Version:Hikari
Source:この醜くも美しい世界
Tags:This Ugly Yet Beautiful World tv edit size ecchi gainax shaft ヒカリ hikari タケル takeru リョウ ryou アカリ akari
BeatmapID:2571904
BeatmapSetID:721896

[Difficulty]
HPDrainRate:7
CircleSize:4
OverallDifficulty:7
ApproachRate:8.7
SliderMultiplier:1.4
SliderTickRate:1

[Events]
//Background and Video events
0,0,"bg&.jpg",0,0
//Break Periods
//Storyboard Layer 0 (Background)
//Storyboard Layer 1 (Fail)
//Storyboard Layer 2 (Pass)
//Storyboard Layer 3 (Foreground)
//Storyboard Layer 4 (Overlay)
//Storyboard Sound Samples

[TimingPoints]
2388,382.068262862965,4,1,0,100,1,0
60462,-100,4,1,0,100,0,1
87780,-100,4,1,0,100,0,0

[Colours]
Combo1 : 0,0,255
Combo2 : 255,128,0
Combo3 : 255,128,128
Combo4 : 128,255,255

[HitObjects]
109,204,1432,6,0,P|114:143|109:117,2,70
185,269,2005,2,0,P|180:330|185:356,2,70
104,349,2579,1,0,0:0:0:0:
272,306,2770,1,0,0:0:0:0:
308,207,2961,2,0,P|382:192|465:219,2,140
92,62,4871,6,0,P|97:111|88:160,1,70
162,279,5253,2,0,P|157:230|166:181,1,70
102,323,5635,1,0,0:0:0:0:
204,128,5826,1,0,0:0:0:0:
335,226,6017,2,0,P|348:126|333:70,2,140
416,48,7927,6,0,P|426:92|412:138,1,70
374,251,8310,2,0,P|364:207|378:161,1,70
432,302,8692,1,0,0:0:0:0:
278,186,8883,2,0,P|222:180|178:191,1,70
374,251,9265,1,0,0:0:0:0:
252,113,9456,2,0,P|243:76|250:37,1,70
161,145,9838,2,0,P|94:131|19:144,1,140
87,277,10411,6,0,P|95:227|94:195,1,70
177,358,10793,2,0,P|169:308|170:276,1,70
222,202,11175,1,0,0:0:0:0:
340,286,11366,1,0,0:0:0:0:
390,170,11557,6,0,P|403:93|386:23,1,140
340,286,12130,2,0,P|420:267|493:288,1,140
276,237,12703,1,0,0:0:0:0:
264,28,12894,1,0,0:0:0:0:
256,192,13085,12,0,14232,0:0:0:0:
147,54,14614,5,0,0:0:0:0:
273,101,14805,2,0,L|258:162,2,35
407,135,15187,1,0,0:0:0:0:
128,132,15569,5,0,0:0:0:0:
109,161,15664,1,0,0:0:0:0:
105,196,15760,1,0,0:0:0:0:
116,232,15855,5,0,0:0:0:0:
129,261,15951,1,0,0:0:0:0:
129,296,16046,1,0,0:0:0:0:
114,341,16142,6,0,P|72:357|49:351,1,70
196,300,16524,2,0,P|238:284|261:290,1,70
346,362,16906,2,0,P|363:279|353:208,1,140
441,344,17479,1,0,0:0:0:0:
461,249,17670,6,0,P|452:188|458:158,1,70
380,37,18052,2,0,P|389:98|383:128,1,70
260,45,18434,2,0,P|251:127|268:214,1,140
344,363,19007,5,0,0:0:0:0:
344,363,19103,1,0,0:0:0:0:
344,363,19199,2,0,P|348:298|338:267,1,70
303,85,19581,2,0,P|299:150|309:181,1,70
469,194,19963,6,0,P|404:198|373:188,1,70
182,247,20345,2,0,P|247:243|278:253,1,70
86,207,20727,5,0,0:0:0:0:
183,80,20918,1,0,0:0:0:0:
182,247,21109,2,0,P|168:293|168:327,1,70
130,141,21491,1,0,0:0:0:0:
252,173,21682,2,0,P|298:178|344:167,1,70
254,302,22064,5,0,0:0:0:0:
254,302,22160,1,0,0:0:0:0:
254,302,22255,2,0,P|268:355|259:392,1,70
272,206,22637,1,0,0:0:0:0:
172,269,22828,2,0,P|116:261|28:269,1,140
199,198,23401,2,0,P|209:130|205:100,1,70
307,17,23783,6,0,P|297:85|301:115,1,70
415,27,24165,2,0,P|425:95|421:125,1,70
479,170,24547,2,0,P|469:238|473:268,1,70
423,98,24930,1,0,0:0:0:0:
468,241,25121,1,0,0:0:0:0:
378,169,25312,2,0,P|279:159|227:171,1,140
380,91,25885,6,0,P|392:48|390:16,1,70
470,127,26267,2,0,P|458:170|460:202,1,70
390,266,26649,2,0,P|402:309|400:341,1,70
450,201,27031,1,0,0:0:0:0:
399,336,27222,1,0,0:0:0:0:
308,249,27413,2,0,P|233:258|158:246,1,140
309,292,27986,6,0,P|312:331|308:361,1,70
373,200,28368,1,0,0:0:0:0:
310,46,28559,6,0,P|319:111|316:135,1,70
206,122,28941,2,0,P|197:187|200:211,1,70
250,343,29323,6,0,P|259:278|256:254,1,70
321,374,29705,1,0,0:0:0:0:
398,184,29896,6,0,P|389:249|392:273,1,70
344,108,30278,1,0,0:0:0:0:
445,38,30470,2,0,P|454:103|451:127,1,70
434,291,30852,6,0,P|425:226|428:202,1,70
389,355,31234,1,0,0:0:0:0:
303,141,31425,6,0,P|312:206|309:230,1,70
281,346,31807,2,0,P|272:281|275:257,1,70
198,143,32189,6,0,P|207:208|204:232,1,70
176,348,32571,2,0,P|167:283|170:259,1,70
103,365,32953,5,0,0:0:0:0:
51,244,33144,1,0,0:0:0:0:
165,185,33335,1,0,0:0:0:0:
95,71,33526,1,0,0:0:0:0:
220,106,33717,6,0,P|270:119|314:105,1,70
388,76,34099,1,0,0:0:0:0:
359,201,34290,5,0,0:0:0:0:
359,201,34386,1,0,0:0:0:0:
359,201,34481,2,0,P|354:231|363:288,1,70
313,120,34863,1,0,0:0:0:0:
262,230,35054,2,0,P|199:214|112:242,1,140
248,137,35627,6,0,P|255:80|249:46,1,70
154,7,36010,2,0,P|147:64|153:98,1,70
57,122,36392,2,0,P|64:179|58:213,1,70
133,267,36774,2,0,P|126:324|132:358,1,70
172,175,37156,1,0,0:0:0:0:
49,320,37347,1,0,0:0:0:0:
210,266,37538,6,0,P|274:255|362:270,1,140
239,178,38111,2,0,P|233:128|237:102,1,70
129,30,38493,6,0,P|135:80|131:106,1,70
257,29,38875,1,0,0:0:0:0:
337,132,39066,6,0,P|343:182|339:208,1,70
419,246,39448,2,0,P|413:296|417:322,1,70
472,182,39830,1,0,0:0:0:0:
328,264,40021,2,0,P|271:271|245:264,1,70
415,317,40403,1,0,0:0:0:0:
373,189,40594,6,0,P|365:138|370:105,1,70
328,266,40976,1,0,0:0:0:0:
258,124,41167,6,0,P|197:128|167:120,1,70
373,189,41549,1,0,0:0:0:0:
452,94,41741,6,0,P|448:43|452:9,1,70
258,124,42123,1,0,0:0:0:0:
337,216,42314,6,0,P|342:265|336:314,1,70
452,94,42696,1,0,0:0:0:0:
237,178,42887,2,0,P|201:183|146:178,1,70
281,238,43269,1,0,0:0:0:0:
182,69,43460,1,0,0:0:0:0:
84,240,43651,6,0,P|79:296|87:332,1,70
135,162,44033,2,0,P|140:106|132:70,1,70
10,167,44415,2,0,P|5:111|13:75,1,70
92,262,44797,1,0,0:0:0:0:
66,48,44988,1,0,0:0:0:0:
259,171,45370,5,0,0:0:0:0:
453,138,45561,1,0,0:0:0:0:
329,37,45752,1,0,0:0:0:0:
372,279,45943,1,0,0:0:0:0:
362,127,46134,2,0,P|360:68|369:30,1,70
285,194,46516,5,0,0:0:0:0:
285,194,46612,1,0,0:0:0:0:
285,194,46707,2,0,P|228:189|211:195,1,70
145,224,47089,1,0,0:0:0:0:
307,120,47281,1,0,0:0:0:0:
255,278,47472,6,0,P|248:323|255:361,1,70
216,192,47854,1,0,0:0:0:0:
296,66,48045,2,0,P|298:120|288:162,1,70
377,279,48427,2,0,P|379:225|369:183,2,70
437,138,49000,2,0,P|439:84|429:42,1,70
479,208,49382,1,0,0:0:0:0:
319,144,49573,5,0,0:0:0:0:
319,144,49668,1,0,0:0:0:0:
319,144,49764,2,0,P|255:141|237:147,1,70
152,34,50146,6,0,P|148:91|155:118,1,70
94,187,50528,2,0,P|98:244|91:271,1,70
41,126,50910,1,0,0:0:0:0:
165,320,51101,5,0,0:0:0:0:
165,320,51197,1,0,0:0:0:0:
165,320,51292,2,0,P|214:324|256:319,1,70
130,214,51674,6,0,P|128:172|132:140,1,70
259,203,52056,2,0,P|261:161|257:129,1,70
195,276,52438,1,0,0:0:0:0:
187,60,52629,5,0,0:0:0:0:
187,60,52725,1,0,0:0:0:0:
187,60,52821,2,0,P|216:65|262:60,1,70
335,198,53203,6,0,P|340:148|337:120,1,70
406,224,53585,1,0,0:0:0:0:
387,330,53776,1,0,0:0:0:0:
375,152,53967,1,0,0:0:0:0:
331,269,54158,5,0,0:0:0:0:
331,269,54253,1,0,0:0:0:0:
331,269,54349,2,0,P|301:266|248:273,1,70
320,190,54731,6,0,P|316:139|320:114,1,70
375,240,55113,1,0,0:0:0:0:
272,50,55304,1,0,0:0:0:0:
266,213,55495,1,0,0:0:0:0:
390,130,55686,5,0,0:0:0:0:
390,130,55782,1,0,0:0:0:0:
390,130,55877,2,0,P|342:136|319:134,1,70
224,104,56259,2,0,P|176:98|153:100,1,70
281,36,56641,1,0,0:0:0:0:
197,273,56832,5,0,0:0:0:0:
453,241,57023,1,0,0:0:0:0:
254,189,57214,1,0,0:0:0:0:
256,192,57310,12,0,58169,0:0:0:0:
90,72,58361,5,0,0:0:0:0:
231,93,58552,1,0,0:0:0:0:
364,113,58743,2,0,L|359:151,2,35
304,218,59125,1,0,0:0:0:0:
415,49,59316,1,0,0:0:0:0:
344,309,59507,6,0,P|300:298|268:303,1,70
429,248,59889,1,0,0:0:0:0:
346,105,60080,5,0,0:0:0:0:
346,105,60175,1,0,0:0:0:0:
346,105,60271,2,0,P|305:110|270:102,1,70
411,165,60653,1,0,0:0:0:0:
370,346,60844,5,0,0:0:0:0:
317,102,61035,1,0,0:0:0:0:
435,298,61226,1,0,0:0:0:0:
192,237,61417,1,0,0:0:0:0:
418,148,61608,1,0,0:0:0:0:
302,346,61799,1,0,0:0:0:0:
226,114,61990,6,0,P|218:68|220:38,1,70
388,85,62372,2,0,P|383:38|374:10,1,70
198,123,62754,6,0,P|202:76|211:48,1,70
361,137,63136,2,0,P|369:90|367:61,1,70
412,208,63518,5,0,0:0:0:0:
277,21,63709,1,0,0:0:0:0:
333,301,63900,1,0,0:0:0:0:
383,63,64092,1,0,0:0:0:0:
221,240,64283,5,0,0:0:0:0:
447,183,64474,1,0,0:0:0:0:
197,78,64665,1,0,0:0:0:0:
380,285,64856,1,0,0:0:0:0:
437,51,65047,6,0,P|445:97|443:127,1,70
275,80,65429,2,0,P|279:126|288:154,1,70
465,42,65811,6,0,P|460:88|451:116,1,70
302,28,66193,2,0,P|293:74|296:104,1,70
246,194,66575,6,0,P|256:265|245:340,1,140
317,168,67148,2,0,P|320:113|315:84,1,70
385,214,67530,5,0,0:0:0:0:
327,357,67721,1,0,0:0:0:0:
317,168,67912,2,0,P|232:158|165:170,1,140
363,101,68485,2,0,P|368:48|365:22,1,70
420,158,68867,5,0,0:0:0:0:
401,328,69058,1,0,0:0:0:0:
356,204,69249,2,0,P|303:193|278:198,1,70
210,249,69632,2,0,P|157:260|132:255,1,70
276,324,70014,1,0,0:0:0:0:
299,178,70205,6,0,P|292:135|301:101,1,70
431,150,70587,2,0,P|438:107|429:73,1,70
476,258,70969,1,0,0:0:0:0:
328,348,71351,5,0,0:0:0:0:
332,308,71446,1,0,0:0:0:0:
337,270,71542,1,0,0:0:0:0:
243,311,71733,5,0,0:0:0:0:
237,252,71828,1,0,0:0:0:0:
232,198,71924,1,0,0:0:0:0:
152,273,72115,5,0,0:0:0:0:
120,209,72210,1,0,0:0:0:0:
55,231,72306,6,0,P|49:283|54:312,1,70
112,160,72688,6,0,P|118:108|113:79,1,70
155,245,73070,1,0,0:0:0:0:
217,20,73261,1,0,0:0:0:0:
241,319,73452,1,0,0:0:0:0:
125,104,73643,5,0,0:0:0:0:
381,261,73834,1,0,0:0:0:0:
238,88,74025,1,0,0:0:0:0:
272,304,74216,6,0,P|269:360|271:378,1,70
378,282,74598,2,0,P|381:338|379:356,1,70
269,254,74980,6,0,P|251:307|249:325,1,70
395,190,75362,2,0,P|412:244|415:262,1,70
345,358,75745,5,0,0:0:0:0:
299,87,75936,1,0,0:0:0:0:
257,258,76127,1,0,0:0:0:0:
397,123,76318,1,0,0:0:0:0:
185,179,76509,5,0,0:0:0:0:
416,312,76700,1,0,0:0:0:0:
294,98,76891,1,0,0:0:0:0:
303,314,77082,1,0,0:0:0:0:
370,127,77273,6,0,P|367:183|369:201,1,70
476,105,77655,2,0,P|479:161|477:179,1,70
367,77,78037,6,0,P|349:130|346:148,1,70
493,13,78419,2,0,P|510:66|513:84,1,70
390,218,78801,6,0,P|385:166|390:132,1,70
457,13,79183,2,0,P|462:65|457:99,1,70
141,99,79565,2,0,P|186:88|235:92,1,70
84,27,79947,1,0,0:0:0:0:
186,264,80138,1,0,0:0:0:0:
215,186,80329,2,0,P|268:191|310:177,1,70
471,275,80711,2,0,P|471:319|476:346,1,70
409,157,81094,2,0,P|462:152|504:166,1,70
329,109,81476,1,0,0:0:0:0:
190,244,81667,1,0,0:0:0:0:
9,144,81858,6,0,P|95:132|148:149,1,140
277,66,82431,1,0,0:0:0:0:
376,216,82622,2,0,P|384:273|378:301,1,70
283,134,83004,2,0,P|275:77|281:49,1,70
354,183,83386,5,0,0:0:0:0:
177,140,83577,1,0,0:0:0:0:
292,266,83768,1,0,0:0:0:0:
257,45,83959,1,0,0:0:0:0:
217,304,84150,6,0,P|212:355|219:384,1,70
304,271,84532,2,0,P|309:220|302:191,1,70
235,97,84914,2,0,P|144:106|84:95,1,140
319,148,85487,1,0,0:0:0:0:
386,91,85678,6,0,P|381:49|388:16,1,70
251,227,86060,2,0,P|256:269|249:302,1,70
296,129,86443,5,0,0:0:0:0:
69,262,86634,1,0,0:0:0:0:
253,333,86825,1,0,0:0:0:0:
107,52,87016,1,0,0:0:0:0:
137,354,87207,5,0,0:0:0:0:
225,60,87398,1,0,0:0:0:0:
39,222,87589,1,0,0:0:0:0:
346,285,87780,1,0,0:0:0:0:
256,192,87875,12,0,91027,0:0:0:0:
